  0
SECTION
  2
HEADER
  9
$ACADVER
  1
AC1015
  9
$ACADMAINTVER
 70
     6
  9
$DWGCODEPAGE
  3
ANSI_1255
  9
$INSBASE
 10
0.0
 20
0.0
 30
0.0
  9
$EXTMIN
 10
-266.6242834908248
 20
-215.7554255700995
 30
0.0
  9
$EXTMAX
 10
0.0
 20
-14.03185910384763
 30
0.0
  9
$LIMMIN
 10
188921.0820000172
 20
685996.9871578218
  9
$LIMMAX
 10
189010.5780000686
 20
686066.8568420409
  9
$ORTHOMODE
 70
     1
  9
$REGENMODE
 70
     1
  9
$FILLMODE
 70
     1
  9
$QTEXTMODE
 70
     0
  9
$MIRRTEXT
 70
     0
  9
$LTSCALE
 40
8.0
  9
$ATTMODE
 70
     1
  9
$TEXTSIZE
 40
1.6
  9
$TRACEWID
 40
0.05
  9
$TEXTSTYLE
  7
AUDIT_I_130617124200-1
  9
$CLAYER
  8
0
  9
$CELTYPE
  6
ByLayer
  9
$CECOLOR
 62
   256
  9
$CELTSCALE
 40
1.0
  9
$DISPSILH
 70
     0
  9
$DIMSCALE
 40
0.1
  9
$DIMASZ
 40
2.0
  9
$DIMEXO
 40
20.0
  9
$DIMDLI
 40
0.0
  9
$DIMRND
 40
0.0
  9
$DIMDLE
 40
11.0
  9
$DIMEXE
 40
0.0
  9
$DIMTP
 40
0.0
  9
$DIMTM
 40
0.0
  9
$DIMTXT
 40
20.0
  9
$DIMCEN
 40
1.0
  9
$DIMTSZ
 40
0.0
  9
$DIMTOL
 70
     0
  9
$DIMLIM
 70
     0
  9
$DIMTIH
 70
     0
  9
$DIMTOH
 70
     0
  9
$DIMSE1
 70
     0
  9
$DIMSE2
 70
     0
  9
$DIMTAD
 70
     1
  9
$DIMZIN
 70
     1
  9
$DIMBLK
  1
TIC
  9
$DIMASO
 70
     1
  9
$DIMSHO
 70
     1
  9
$DIMPOST
  1

  9
$DIMAPOST
  1

  9
$DIMALT
 70
     0
  9
$DIMALTD
 70
     2
  9
$DIMALTF
 40
25.4
  9
$DIMLFAC
 40
1.0
  9
$DIMTOFL
 70
     0
  9
$DIMTVP
 40
0.0
  9
$DIMTIX
 70
     0
  9
$DIMSOXD
 70
     0
  9
$DIMSAH
 70
     0
  9
$DIMBLK1
  1

  9
$DIMBLK2
  1

  9
$DIMSTYLE
  2
DIM10A
  9
$DIMCLRD
 70
   256
  9
$DIMCLRE
 70
    30
  9
$DIMCLRT
 70
     4
  9
$DIMTFAC
 40
1.0
  9
$DIMGAP
 40
5.0
  9
$DIMJUST
 70
     0
  9
$DIMSD1
 70
     0
  9
$DIMSD2
 70
     0
  9
$DIMTOLJ
 70
     1
  9
$DIMTZIN
 70
     1
  9
$DIMALTZ
 70
     1
  9
$DIMALTTZ
 70
     1
  9
$DIMUPT
 70
     0
  9
$DIMDEC
 70
     0
  9
$DIMTDEC
 70
     0
  9
$DIMALTU
 70
     2
  9
$DIMALTTD
 70
     2
  9
$DIMTXSTY
  7
MONOSI
  9
$DIMAUNIT
 70
     0
  9
$DIMADEC
 70
     0
  9
$DIMALTRND
 40
0.0
  9
$DIMAZIN
 70
     0
  9
$DIMDSEP
 70
    46
  9
$DIMATFIT
 70
     3
  9
$DIMFRAC
 70
     0
  9
$DIMLDRBLK
  1
TIC
  9
$DIMLUNIT
 70
     2
  9
$DIMLWD
 70
    -2
  9
$DIMLWE
 70
    -2
  9
$DIMTMOVE
 70
     2
  9
$LUNITS
 70
     2
  9
$LUPREC
 70
     3
  9
$SKETCHINC
 40
0.1
  9
$FILLETRAD
 40
0.0
  9
$AUNITS
 70
     0
  9
$AUPREC
 70
     0
  9
$MENU
  1
acad
  9
$ELEVATION
 40
0.0
  9
$PELEVATION
 40
0.0
  9
$THICKNESS
 40
0.0
  9
$LIMCHECK
 70
     0
  9
$CHAMFERA
 40
10.0
  9
$CHAMFERB
 40
10.0
  9
$CHAMFERC
 40
0.0
  9
$CHAMFERD
 40
0.0
  9
$SKPOLY
 70
     0
  9
$TDCREATE
 40
2452912.915183912
  9
$TDUCREATE
 40
2452912.831850578
  9
$TDUPDATE
 40
2456461.529955682
  9
$TDUUPDATE
 40
2456461.446622349
  9
$TDINDWG
 40
9.5763828935
  9
$TDUSRTIMER
 40
9.5763828935
  9
$USRTIMER
 70
     1
  9
$ANGBASE
 50
0.0
  9
$ANGDIR
 70
     0
  9
$PDMODE
 70
     0
  9
$PDSIZE
 40
0.0
  9
$PLINEWID
 40
0.0
  9
$SPLFRAME
 70
     0
  9
$SPLINETYPE
 70
     6
  9
$SPLINESEGS
 70
     8
  9
$HANDSEED
  5
6A881
  9
$SURFTAB1
 70
     6
  9
$SURFTAB2
 70
     6
  9
$SURFTYPE
 70
     6
  9
$SURFU
 70
     6
  9
$SURFV
 70
     6
  9
$UCSBASE
  2

  9
$UCSNAME
  2

  9
$UCSORG
 10
0.0
 20
0.0
 30
0.0
  9
$UCSXDIR
 10
1.0
 20
0.0
 30
0.0
  9
$UCSYDIR
 10
0.0
 20
1.0
 30
0.0
  9
$UCSORTHOREF
  2

  9
$UCSORTHOVIEW
 70
     0
  9
$UCSORGTOP
 10
0.0
 20
0.0
 30
0.0
  9
$UCSORGBOTTOM
 10
0.0
 20
0.0
 30
0.0
  9
$UCSORGLEFT
 10
0.0
 20
0.0
 30
0.0
  9
$UCSORGRIGHT
 10
0.0
 20
0.0
 30
0.0
  9
$UCSORGFRONT
 10
0.0
 20
0.0
 30
0.0
  9
$UCSORGBACK
 10
0.0
 20
0.0
 30
0.0
  9
$PUCSBASE
  2

  9
$PUCSNAME
  2

  9
$PUCSORG
 10
0.0
 20
0.0
 30
0.0
  9
$PUCSXDIR
 10
1.0
 20
0.0
 30
0.0
  9
$PUCSYDIR
 10
0.0
 20
1.0
 30
0.0
  9
$PUCSORTHOREF
  2

  9
$PUCSORTHOVIEW
 70
     0
  9
$PUCSORGTOP
 10
0.0
 20
0.0
 30
0.0
  9
$PUCSORGBOTTOM
 10
0.0
 20
0.0
 30
0.0
  9
$PUCSORGLEFT
 10
0.0
 20
0.0
 30
0.0
  9
$PUCSORGRIGHT
 10
0.0
 20
0.0
 30
0.0
  9
$PUCSORGFRONT
 10
0.0
 20
0.0
 30
0.0
  9
$PUCSORGBACK
 10
0.0
 20
0.0
 30
0.0
  9
$USERI1
 70
     0
  9
$USERI2
 70
     0
  9
$USERI3
 70
     0
  9
$USERI4
 70
     0
  9
$USERI5
 70
     0
  9
$USERR1
 40
0.0
  9
$USERR2
 40
0.0
  9
$USERR3
 40
0.0
  9
$USERR4
 40
0.0
  9
$USERR5
 40
0.0
  9
$WORLDVIEW
 70
     1
  9
$SHADEDGE
 70
     3
  9
$SHADEDIF
 70
    70
  9
$TILEMODE
 70
     1
  9
$MAXACTVP
 70
    16
  9
$PINSBASE
 10
0.0
 20
0.0
 30
0.0
  9
$PLIMCHECK
 70
     0
  9
$PEXTMIN
 10
7104.86159994706
 20
707.177600947688
 30
0.0
  9
$PEXTMAX
 10
8021.738582299841
 20
1307.571988947794
 30
0.0
  9
$PLIMMIN
 10
7092.874656757508
 20
701.6136598874909
  9
$PLIMMAX
 10
8092.874656757507
 20
1401.613659887491
  9
$UNITMODE
 70
     0
  9
$VISRETAIN
 70
     0
  9
$PLINEGEN
 70
     0
  9
$PSLTSCALE
 70
     1
  9
$TREEDEPTH
 70
  3020
  9
$CMLSTYLE
  2
Standard
  9
$CMLJUST
 70
     0
  9
$CMLSCALE
 40
1.0
  9
$PROXYGRAPHICS
 70
     1
  9
$MEASUREMENT
 70
     0
  9
$CELWEIGHT
370
    -1
  9
$ENDCAPS
280
     0
  9
$JOINSTYLE
280
     0
  9
$LWDISPLAY
290
     0
  9
$INSUNITS
 70
     0
  9
$HYPERLINKBASE
  1

  9
$STYLESHEET
  1
CAN50.ctb
  9
$XEDIT
290
     1
  9
$CEPSNTYPE
380
     0
  9
$PSTYLEMODE
290
     1
  9
$FINGERPRINTGUID
  2

  9
$VERSIONGUID
  2
{3A3627BB-53BC-408E-8AD5-1606DE42E06A}
  9
$EXTNAMES
290
     1
  9
$PSVPSCALE
 40
1.0
  9
$OLESTARTUP
290
     0
  0
ENDSEC
  0
SECTION
  2
CLASSES
  0
CLASS
  1
ACDBDICTIONARYWDFLT
  2
AcDbDictionaryWithDefault
  3
AutoCAD 2000
 90
        0
280
     0
281
     0
  0
CLASS
  1
ACDBPLACEHOLDER
  2
AcDbPlaceHolder
  3
AutoCAD 2000
 90
        0
280
     0
281
     0
  0
CLASS
  1
LAYOUT
  2
AcDbLayout
  3
AutoCAD 2000
 90
        0
280
     0
281
     0
  0
CLASS
  1
DICTIONARYVAR
  2
AcDbDictionaryVar
  3
AutoCAD 2000
 90
        0
280
     0
281
     0
  0
CLASS
  1
PLOTSETTINGS
  2
AcDbPlotSettings
  3
AutoCAD 2000
 90
        0
280
     0
281
     0
  0
CLASS
  1
SORTENTSTABLE
  2
AcDbSortentsTable
  3
AutoCAD 2000
 90
        0
280
     0
281
     0
  0
CLASS
  1
WIPEOUT
  2
AcDbWipeout
  3
WipeOut|AutoCAD Express Tool|expresstools@autodesk.com
 90
    32895
280
     0
281
     1
  0
CLASS
  1
WIPEOUTVARIABLES
  2
AcDbWipeoutVariables
  3
WipeOut|AutoCAD Express Tool|expresstools@autodesk.com
 90
    32768
280
     0
281
     0
  0
CLASS
  1
RASTERVARIABLES
  2
AcDbRasterVariables
  3
ISM
 90
        0
280
     0
281
     0
  0
CLASS
  1
IMAGEDEF
  2
AcDbRasterImageDef
  3
ISM
 90
        0
280
     0
281
     0
  0
CLASS
  1
IMAGEDEF_REACTOR
  2
AcDbRasterImageDefReactor
  3
ISM
 90
        1
280
     0
281
     0
  0
CLASS
  1
IMAGE
  2
AcDbRasterImage
  3
ISM
 90
      127
280
     0
281
     1
  0
ENDSEC
  0
SECTION
  2
TABLES
  0
TABLE
  2
VPORT
  5
BC28
330
0
100
AcDbSymbolTable
 70
     2
  0
VPORT
  5
6A880
330
BC28
100
AcDbSymbolTableRecord
100
AcDbViewportTableRecord
  2
*Active
 70
     0
 10
0.0
 20
0.0
 11
1.0
 21
1.0
 12
-133.3121417454123
 22
-113.6126628725022
 13
0.0
 23
0.0
 14
1.0
 24
1.0
 15
0.0
 25
0.0
 16
0.0
 26
0.0
 36
1.0
 17
0.0
 27
0.0
 37
0.0
 40
411.5900487026333
 41
1.517879161528976
 42
50.0
 43
0.0
 44
0.0
 50
0.0
 51
0.0
 71
     0
 72
   100
 73
     1
 74
     1
 75
     0
 76
     0
 77
     0
 78
     0
281
     0
 65
     1
110
0.0
120
0.0
130
0.0
111
1.0
121
0.0
131
0.0
112
0.0
122
1.0
132
0.0
 79
     0
146
0.0
  0
ENDTAB
  0
TABLE
  2
LTYPE
  5
BC23
330
0
100
AcDbSymbolTable
 70
     2
  0
LTYPE
  5
BC24
330
BC23
100
AcDbSymbolTableRecord
100
AcDbLinetypeTableRecord
  2
ByBlock
 70
     0
  3

 72
    65
 73
     0
 40
0.0
  0
LTYPE
  5
BC25
330
BC23
100
AcDbSymbolTableRecord
100
AcDbLinetypeTableRecord
  2
ByLayer
 70
     0
  3

 72
    65
 73
     0
 40
0.0
  0
LTYPE
  5
8
330
BC23
100
AcDbSymbolTableRecord
100
AcDbLinetypeTableRecord
  2
CONTINUOUS
 70
     0
  3
Solid line
 72
    65
 73
     0
 40
0.0
  0
LTYPE
  5
8D
330
BC23
100
AcDbSymbolTableRecord
100
AcDbLinetypeTableRecord
  2
HIDDEN
 70
     0
  3
_ _ _ _ _ _ _ _ _ _ _ _ _ _ _ _ _ _ _ _ _ _ _
 72
    65
 73
     2
 40
0.375
 49
0.25
 74
     0
 49
-0.125
 74
     0
  0
ENDTAB
  0
TABLE
  2
LAYER
  5
24B6
102
{ACAD_XDICTIONARY
360
24B7
102
}
330
0
100
AcDbSymbolTable
 70
    37
  0
LAYER
  5
C
330
24B6
100
AcDbSymbolTableRecord
100
AcDbLayerTableRecord
  2
0
 70
     0
 62
     7
  6
CONTINUOUS
370
    -3
390
5
  0
LAYER
  5
8BA
330
24B6
100
AcDbSymbolTableRecord
100
AcDbLayerTableRecord
  2
MABAT2
 70
     0
 62
     2
  6
CONTINUOUS
370
    -3
390
5
  0
LAYER
  5
89D
330
24B6
100
AcDbSymbolTableRecord
100
AcDbLayerTableRecord
  2
HIDDEN
 70
     0
 62
     9
  6
HIDDEN
370
    -3
390
5
  0
LAYER
  5
F5
330
24B6
100
AcDbSymbolTableRecord
100
AcDbLayerTableRecord
  2
TEXT03
 70
     0
 62
     4
  6
CONTINUOUS
370
    -3
390
5
  0
LAYER
  5
7B7
330
24B6
100
AcDbSymbolTableRecord
100
AcDbLayerTableRecord
  2
TEXT04
 70
     0
 62
     3
  6
CONTINUOUS
370
    -3
390
5
  0
LAYER
  5
8C
330
24B6
100
AcDbSymbolTableRecord
100
AcDbLayerTableRecord
  2
UP
 70
     0
 62
     3
  6
HIDDEN
370
    -3
390
5
  0
LAYER
  5
7B
330
24B6
100
AcDbSymbolTableRecord
100
AcDbLayerTableRecord
  2
BETON
 70
     0
 62
   140
  6
CONTINUOUS
370
    -3
390
5
  0
LAYER
  5
334
330
24B6
100
AcDbSymbolTableRecord
100
AcDbLayerTableRecord
  2
DIMH
 70
     0
 62
     9
  6
CONTINUOUS
370
    -3
390
5
  0
LAYER
  5
2EB
330
24B6
100
AcDbSymbolTableRecord
100
AcDbLayerTableRecord
  2
DIMV
 70
     0
 62
     9
  6
CONTINUOUS
370
    -3
390
5
  0
LAYER
  5
2FA
330
24B6
100
AcDbSymbolTableRecord
100
AcDbLayerTableRecord
  2
DEFPOINTS
 70
     0
 62
     7
  6
CONTINUOUS
290
     0
370
    -3
390
5
  0
LAYER
  5
7D2
330
24B6
100
AcDbSymbolTableRecord
100
AcDbLayerTableRecord
  2
DIMVT
 70
     0
 62
     4
  6
CONTINUOUS
370
    -3
390
5
  0
LAYER
  5
4
330
24B6
100
AcDbSymbolTableRecord
100
AcDbLayerTableRecord
  2
ASHADE
 70
     0
 62
     7
  6
CONTINUOUS
370
    -3
390
5
  0
LAYER
  5
1B
330
24B6
100
AcDbSymbolTableRecord
100
AcDbLayerTableRecord
  2
pit233
 70
     0
 62
     4
  6
CONTINUOUS
370
    -3
390
5
  0
LAYER
  5
1E
330
24B6
100
AcDbSymbolTableRecord
100
AcDbLayerTableRecord
  2
pitdimh
 70
     0
 62
     9
  6
CONTINUOUS
370
    -3
390
5
  0
LAYER
  5
13F79
330
24B6
100
AcDbSymbolTableRecord
100
AcDbLayerTableRecord
  2
DCA_INFO
 70
     0
 62
     7
  6
CONTINUOUS
370
    -3
390
5
  0
LAYER
  5
13F8A
330
24B6
100
AcDbSymbolTableRecord
100
AcDbLayerTableRecord
  2
CTACK
 70
     0
 62
     7
  6
CONTINUOUS
370
    -3
390
5
  0
LAYER
  5
14A8F
330
24B6
100
AcDbSymbolTableRecord
100
AcDbLayerTableRecord
  2
pitDCA_INFO
 70
     0
 62
     7
  6
CONTINUOUS
370
    -3
390
5
  0
LAYER
  5
14AA2
330
24B6
100
AcDbSymbolTableRecord
100
AcDbLayerTableRecord
  2
pitCTACK
 70
     0
 62
     7
  6
CONTINUOUS
370
    -3
390
5
  0
LAYER
  5
1859E
330
24B6
100
AcDbSymbolTableRecord
100
AcDbLayerTableRecord
  2
railm
 70
     0
 62
     6
  6
CONTINUOUS
370
    -3
390
5
  0
LAYER
  5
4CBD7
330
24B6
100
AcDbSymbolTableRecord
100
AcDbLayerTableRecord
  2
f2
 70
     0
 62
     2
  6
CONTINUOUS
370
    -3
390
5
  0
LAYER
  5
4CBD9
330
24B6
100
AcDbSymbolTableRecord
100
AcDbLayerTableRecord
  2
T1
 70
     0
 62
     1
  6
CONTINUOUS
370
    -3
390
5
  0
LAYER
  5
4CC0E
330
24B6
100
AcDbSymbolTableRecord
100
AcDbLayerTableRecord
  2
fr9
 70
     0
 62
     9
  6
CONTINUOUS
290
     0
370
    -3
390
5
  0
LAYER
  5
53943
330
24B6
100
AcDbSymbolTableRecord
100
AcDbLayerTableRecord
  2
remtxt
 70
     0
 62
     4
  6
CONTINUOUS
370
    -3
390
5
  0
LAYER
  5
56113
330
24B6
100
AcDbSymbolTableRecord
100
AcDbLayerTableRecord
  2
F1
 70
     0
 62
     1
  6
CONTINUOUS
370
    -3
390
52D1B
  0
LAYER
  5
568FF
330
24B6
100
AcDbSymbolTableRecord
100
AcDbLayerTableRecord
  2
T3
 70
     0
 62
     4
  6
CONTINUOUS
370
    -3
390
178E1
  0
LAYER
  5
5C56B
330
24B6
100
AcDbSymbolTableRecord
100
AcDbLayerTableRecord
  2
MABAT3
 70
     0
 62
     3
  6
CONTINUOUS
370
    -3
390
50400
  0
LAYER
  5
5C56C
330
24B6
100
AcDbSymbolTableRecord
100
AcDbLayerTableRecord
  2
MABAT
 70
     0
 62
     4
  6
CONTINUOUS
370
    -3
390
178E1
  0
LAYER
  5
5C56D
330
24B6
100
AcDbSymbolTableRecord
100
AcDbLayerTableRecord
  2
HATCH9
 70
     0
 62
    30
  6
CONTINUOUS
370
    -3
390
178DF
  0
LAYER
  5
5C56E
330
24B6
100
AcDbSymbolTableRecord
100
AcDbLayerTableRecord
  2
TEXT05
 70
     0
 62
     1
  6
CONTINUOUS
370
    -3
390
50401
  0
LAYER
  5
5C579
330
24B6
100
AcDbSymbolTableRecord
100
AcDbLayerTableRecord
  2
None
 70
     0
 62
     4
  6
CONTINUOUS
370
     5
390
5
  0
LAYER
  5
5D571
330
24B6
100
AcDbSymbolTableRecord
100
AcDbLayerTableRecord
  2
MABAT8
 70
     0
 62
    30
  6
CONTINUOUS
370
    -3
390
5
  0
LAYER
  5
671E6
330
24B6
100
AcDbSymbolTableRecord
100
AcDbLayerTableRecord
  2
AK-TIH
 70
     0
 62
     3
  6
CONTINUOUS
370
    -3
390
5
  0
LAYER
  5
67F3C
330
24B6
100
AcDbSymbolTableRecord
100
AcDbLayerTableRecord
  2
HATCH
 70
     0
 62
     9
  6
CONTINUOUS
370
    -3
390
5
1001
RAK
1000
{ACET-LAYISO
1070
     0
1070
     8
1000
CONTINUOUS
1070
     1
1071
       -3
1071
        1
1005
0
1000
ACET-LAYISO}
  0
LAYER
  5
67F3D
330
24B6
100
AcDbSymbolTableRecord
100
AcDbLayerTableRecord
  2
CLAY
 70
     0
 62
     2
  6
CONTINUOUS
370
    -3
390
5
  0
LAYER
  5
67F3E
330
24B6
100
AcDbSymbolTableRecord
100
AcDbLayerTableRecord
  2
TIN
 70
     0
 62
     2
  6
CONTINUOUS
370
    -3
390
5
  0
LAYER
  5
67F40
330
24B6
100
AcDbSymbolTableRecord
100
AcDbLayerTableRecord
  2
WOD-HT
 70
     0
 62
     9
  6
CONTINUOUS
370
    -3
390
5
  0
LAYER
  5
67F42
330
24B6
100
AcDbSymbolTableRecord
100
AcDbLayerTableRecord
  2
FILLINING
 70
     0
 62
     9
  6
CONTINUOUS
370
    -3
390
5
  0
ENDTAB
  0
TABLE
  2
STYLE
  5
BC21
330
0
100
AcDbSymbolTable
 70
     9
  0
STYLE
  5
1C
330
BC21
100
AcDbSymbolTableRecord
100
AcDbTextStyleTableRecord
  2
STANDARD
 70
     0
 40
0.0
 41
1.0
 50
0.0
 71
     0
 42
1.0
  3
HEBTXT.SHX
  4

  0
STYLE
  5
22
330
BC21
100
AcDbSymbolTableRecord
100
AcDbTextStyleTableRecord
  2
MONOSI
 70
     0
 40
0.0
 41
1.0
 50
0.0
 71
     0
 42
15.0
  3
MONOSI.shx
  4

  0
STYLE
  5
140
330
BC21
100
AcDbSymbolTableRecord
100
AcDbTextStyleTableRecord
  2
ORON
 70
     0
 40
0.0
 41
0.8
 50
0.0
 71
     0
 42
20.0
  3
ORON.shx
  4

  0
STYLE
  5
7B5
330
BC21
100
AcDbSymbolTableRecord
100
AcDbTextStyleTableRecord
  2
TOV
 70
     0
 40
0.0
 41
1.0
 50
0.0
 71
     0
 42
15.0
  3
TOVANA02.SHX
  4

  0
STYLE
  5
1382A
330
BC21
100
AcDbSymbolTableRecord
100
AcDbTextStyleTableRecord
  2
SIVAN
 70
     0
 40
0.4
 41
1.0
 50
0.0
 71
     0
 42
0.4
  3
SIVAN.shx
  4

  0
STYLE
  5
4CBDE
330
BC21
100
AcDbSymbolTableRecord
100
AcDbTextStyleTableRecord
  2
ROMANS
 70
     0
 40
0.0
 41
1.0
 50
0.0
 71
     0
 42
0.3
  3
romans.shx
  4

  0
STYLE
  5
5260E
330
BC21
100
AcDbSymbolTableRecord
100
AcDbTextStyleTableRecord
  2
AUDIT_I_130617124200-1
 70
     0
 40
0.0
 41
1.0
 50
0.0
 71
     0
 42
1.6
  3

  4

  0
STYLE
  5
5C597
330
BC21
100
AcDbSymbolTableRecord
100
AcDbTextStyleTableRecord
  2
Arial (italic)
 70
     0
 40
0.0
 41
1.0
 50
0.0
 71
     0
 42
0.0
  3
ARIALI.TTF
  4

1001
ACAD
1000
Arial
1071
 16777216
  0
STYLE
  5
6A1CF
330
BC21
100
AcDbSymbolTableRecord
100
AcDbTextStyleTableRecord
  2
ORONB
 70
     0
 40
0.0
 41
1.0
 50
0.0
 71
     0
 42
2.5
  3
ORONBOLD.SHX
  4

  0
ENDTAB
  0
TABLE
  2
VIEW
  5
BC26
330
0
100
AcDbSymbolTable
 70
     3
  0
VIEW
  5
CBD5
330
BC26
100
AcDbSymbolTableRecord
100
AcDbViewTableRecord
  2
OLE1
 70
     0
 40
2829.124993734357
 10
-6275.159076791068
 20
-12746.67069334954
 41
4206.968315775564
 11
0.0
 21
0.0
 31
1.0
 12
0.0
 22
0.0
 32
0.0
 42
50.0
 43
0.0
 44
0.0
 50
0.0
 71
     0
281
     0
 72
     0
  0
VIEW
  5
19E7A
330
BC26
100
AcDbSymbolTableRecord
100
AcDbViewTableRecord
  2
OLE2
 70
     0
 40
2929.23966654166
 10
-3329.920335965899
 20
4830.031660100008
 41
4438.89701006067
 11
0.0
 21
0.0
 31
1.0
 12
0.0
 22
0.0
 32
0.0
 42
50.0
 43
0.0
 44
0.0
 50
0.0
 71
     0
281
     0
 72
     0
  0
VIEW
  5
1A2D0
330
BC26
100
AcDbSymbolTableRecord
100
AcDbViewTableRecord
  2
OLE3
 70
     0
 40
799.5220703068343
 10
-26079.71063570627
 20
131.2783816556038
 41
1211.575880218966
 11
0.0
 21
0.0
 31
1.0
 12
0.0
 22
0.0
 32
0.0
 42
50.0
 43
0.0
 44
0.0
 50
0.0
 71
     0
281
     0
 72
     0
  0
ENDTAB
  0
TABLE
  2
UCS
  5
BC27
330
0
100
AcDbSymbolTable
 70
     0
  0
ENDTAB
  0
TABLE
  2
APPID
  5
BC2A
330
0
100
AcDbSymbolTable
 70
   339
  0
APPID
  5
2B0
330
BC2A
100
AcDbSymbolTableRecord
100
AcDbRegAppTableRecord
  2
ACAD
 70
     0
  0
APPID
  5
D
330
BC2A
100
AcDbSymbolTableRecord
100
AcDbRegAppTableRecord
  2
AVE_RENDER
 70
     0
  0
APPID
  5
19
330
BC2A
100
AcDbSymbolTableRecord
100
AcDbRegAppTableRecord
  2
AVE_MATERIAL
 70
     0
  0
APPID
  5
2433
330
BC2A
100
AcDbSymbolTableRecord
100
AcDbRegAppTableRecord
  2
AcAecLayerStandard
 70
     0
  0
APPID
  5
14B5
330
BC2A
100
AcDbSymbolTableRecord
100
AcDbRegAppTableRecord
  2
RAK
 70
     0
  0
APPID
  5
13F8E
330
BC2A
100
AcDbSymbolTableRecord
100
AcDbRegAppTableRecord
  2
SDI_SETUP
 70
     0
  0
APPID
  5
13F8F
330
BC2A
100
AcDbSymbolTableRecord
100
AcDbRegAppTableRecord
  2
TR_DXF
 70
     0
  0
APPID
  5
13F90
330
BC2A
100
AcDbSymbolTableRecord
100
AcDbRegAppTableRecord
  2
DCA_DTM_FAULTS
 70
     0
  0
APPID
  5
17610
330
BC2A
100
AcDbSymbolTableRecord
100
AcDbRegAppTableRecord
  2
ACAD_PSEXT
 70
     0
  0
APPID
  5
1A1C8
330
BC2A
100
AcDbSymbolTableRecord
100
AcDbRegAppTableRecord
  2
NOTR_DXF
 70
     0
  0
APPID
  5
1C631
330
BC2A
100
AcDbSymbolTableRecord
100
AcDbRegAppTableRecord
  2
ACAD_DSTYLE_DIMARC_LENGTH_SYMBOL
 70
     0
  0
APPID
  5
211E4
330
BC2A
100
AcDbSymbolTableRecord
100
AcDbRegAppTableRecord
  2
ACAD_EXEMPT_FROM_CAD_STANDARDS
 70
     0
  0
APPID
  5
211E5
330
BC2A
100
AcDbSymbolTableRecord
100
AcDbRegAppTableRecord
  2
ACAD_DSTYLE_DIMTEXT_FILL
 70
     0
  0
APPID
  5
211E6
330
BC2A
100
AcDbSymbolTableRecord
100
AcDbRegAppTableRecord
  2
ACAD_DSTYLE_DIMEXT_LENGTH
 70
     0
  0
APPID
  5
211E7
330
BC2A
100
AcDbSymbolTableRecord
100
AcDbRegAppTableRecord
  2
ACAD_DSTYLE_DIMEXT_ENABLED
 70
     0
  0
APPID
  5
211E8
330
BC2A
100
AcDbSymbolTableRecord
100
AcDbRegAppTableRecord
  2
ACAD_DSTYLE_DIM_LINETYPE
 70
     0
  0
APPID
  5
211E9
330
BC2A
100
AcDbSymbolTableRecord
100
AcDbRegAppTableRecord
  2
ACAD_DSTYLE_DIM_EXT1_LINETYPE
 70
     0
  0
APPID
  5
211EA
330
BC2A
100
AcDbSymbolTableRecord
100
AcDbRegAppTableRecord
  2
ACAD_DSTYLE_DIM_EXT2_LINETYPE
 70
     0
  0
APPID
  5
211EB
330
BC2A
100
AcDbSymbolTableRecord
100
AcDbRegAppTableRecord
  2
ACAD_DSTYLE_DIMJOGGED_JOGANGLE_SYMBOL
 70
     0
  0
APPID
  5
27DFB
330
BC2A
100
AcDbSymbolTableRecord
100
AcDbRegAppTableRecord
  2
DCO15
 70
     0
  0
APPID
  5
354C5
330
BC2A
100
AcDbSymbolTableRecord
100
AcDbRegAppTableRecord
  2
TVE_POINT
 70
     0
  0
APPID
  5
354C6
330
BC2A
100
AcDbSymbolTableRecord
100
AcDbRegAppTableRecord
  2
TVE_POLYGON
 70
     0
  0
APPID
  5
354C7
330
BC2A
100
AcDbSymbolTableRecord
100
AcDbRegAppTableRecord
  2
TVE_DIMENSION_TEXT
 70
     0
  0
APPID
  5
354C8
330
BC2A
100
AcDbSymbolTableRecord
100
AcDbRegAppTableRecord
  2
TVE_DIMENSION_LINE
 70
     0
  0
APPID
  5
354C9
330
BC2A
100
AcDbSymbolTableRecord
100
AcDbRegAppTableRecord
  2
TVE_642081215360606
 70
     0
  0
APPID
  5
354CA
330
BC2A
100
AcDbSymbolTableRecord
100
AcDbRegAppTableRecord
  2
TVE_63208121536065
 70
     0
  0
APPID
  5
354CB
330
BC2A
100
AcDbSymbolTableRecord
100
AcDbRegAppTableRecord
  2
TVE_3F2081215360662
 70
     0
  0
APPID
  5
354CC
330
BC2A
100
AcDbSymbolTableRecord
100
AcDbRegAppTableRecord
  2
TVE_3E2081215360678
 70
     0
  0
APPID
  5
354CD
330
BC2A
100
AcDbSymbolTableRecord
100
AcDbRegAppTableRecord
  2
TVE_3D2081215360696
 70
     0
  0
APPID
  5
354CE
330
BC2A
100
AcDbSymbolTableRecord
100
AcDbRegAppTableRecord
  2
TVE_2E2081215361657
 70
     0
  0
APPID
  5
354CF
330
BC2A
100
AcDbSymbolTableRecord
100
AcDbRegAppTableRecord
  2
TVE_2D2081215361673
 70
     0
  0
APPID
  5
354D0
330
BC2A
100
AcDbSymbolTableRecord
100
AcDbRegAppTableRecord
  2
TVE_2C2081215361698
 70
     0
  0
APPID
  5
354D1
330
BC2A
100
AcDbSymbolTableRecord
100
AcDbRegAppTableRecord
  2
TVE_2B2081215361713
 70
     0
  0
APPID
  5
354D2
330
BC2A
100
AcDbSymbolTableRecord
100
AcDbRegAppTableRecord
  2
TVE_2A2081215361730
 70
     0
  0
APPID
  5
354D3
330
BC2A
100
AcDbSymbolTableRecord
100
AcDbRegAppTableRecord
  2
TVE_292081215361746
 70
     0
  0
APPID
  5
354D4
330
BC2A
100
AcDbSymbolTableRecord
100
AcDbRegAppTableRecord
  2
TVE_282081215361761
 70
     0
  0
APPID
  5
354D5
330
BC2A
100
AcDbSymbolTableRecord
100
AcDbRegAppTableRecord
  2
TVE_332081215362876
 70
     0
  0
APPID
  5
354D6
330
BC2A
100
AcDbSymbolTableRecord
100
AcDbRegAppTableRecord
  2
TVE_322081215362898
 70
     0
  0
APPID
  5
354D7
330
BC2A
100
AcDbSymbolTableRecord
100
AcDbRegAppTableRecord
  2
TVE_312081215362917
 70
     0
  0
APPID
  5
354D8
330
BC2A
100
AcDbSymbolTableRecord
100
AcDbRegAppTableRecord
  2
TVE_302081215362934
 70
     0
  0
APPID
  5
354D9
330
BC2A
100
AcDbSymbolTableRecord
100
AcDbRegAppTableRecord
  2
TVE_2F2081215362954
 70
     0
  0
APPID
  5
354DA
330
BC2A
100
AcDbSymbolTableRecord
100
AcDbRegAppTableRecord
  2
TVE_362081215364626
 70
     0
  0
APPID
  5
354DB
330
BC2A
100
AcDbSymbolTableRecord
100
AcDbRegAppTableRecord
  2
TVE_352081215364643
 70
     0
  0
APPID
  5
354DC
330
BC2A
100
AcDbSymbolTableRecord
100
AcDbRegAppTableRecord
  2
TVE_342081215364662
 70
     0
  0
APPID
  5
354DD
330
BC2A
100
AcDbSymbolTableRecord
100
AcDbRegAppTableRecord
  2
TVE_372081215364685
 70
     0
  0
APPID
  5
354DE
330
BC2A
100
AcDbSymbolTableRecord
100
AcDbRegAppTableRecord
  2
TVE_219A2081215191532
 70
     0
  0
APPID
  5
354DF
330
BC2A
100
AcDbSymbolTableRecord
100
AcDbRegAppTableRecord
  2
TVE_3EF2081215193416
 70
     0
  0
APPID
  5
354E0
330
BC2A
100
AcDbSymbolTableRecord
100
AcDbRegAppTableRecord
  2
TVE_3EE2081215193438
 70
     0
  0
APPID
  5
354E1
330
BC2A
100
AcDbSymbolTableRecord
100
AcDbRegAppTableRecord
  2
TVE_DD2081215194886
 70
     0
  0
APPID
  5
354E2
330
BC2A
100
AcDbSymbolTableRecord
100
AcDbRegAppTableRecord
  2
TVE_D72081215200381
 70
     0
  0
APPID
  5
354E3
330
BC2A
100
AcDbSymbolTableRecord
100
AcDbRegAppTableRecord
  2
TVE_406D2081311503887
 70
     0
  0
APPID
  5
354E4
330
BC2A
100
AcDbSymbolTableRecord
100
AcDbRegAppTableRecord
  2
TVE_40532081311505915
 70
     0
  0
APPID
  5
354E5
330
BC2A
100
AcDbSymbolTableRecord
100
AcDbRegAppTableRecord
  2
TVE_40602081311505940
 70
     0
  0
APPID
  5
354E6
330
BC2A
100
AcDbSymbolTableRecord
100
AcDbRegAppTableRecord
  2
TVE_40342081311505969
 70
     0
  0
APPID
  5
354E7
330
BC2A
100
AcDbSymbolTableRecord
100
AcDbRegAppTableRecord
  2
TVE_40412081311505996
 70
     0
  0
APPID
  5
354E8
330
BC2A
100
AcDbSymbolTableRecord
100
AcDbRegAppTableRecord
  2
TVE_404A2081311510020
 70
     0
  0
APPID
  5
354E9
330
BC2A
100
AcDbSymbolTableRecord
100
AcDbRegAppTableRecord
  2
TVE_40272081311510047
 70
     0
  0
APPID
  5
354EA
330
BC2A
100
AcDbSymbolTableRecord
100
AcDbRegAppTableRecord
  2
TVE_401E2081311510124
 70
     0
  0
APPID
  5
354EB
330
BC2A
100
AcDbSymbolTableRecord
100
AcDbRegAppTableRecord
  2
TVE_40152081311510147
 70
     0
  0
APPID
  5
354EC
330
BC2A
100
AcDbSymbolTableRecord
100
AcDbRegAppTableRecord
  2
TVE_3FFA2081311511570
 70
     0
  0
APPID
  5
354ED
330
BC2A
100
AcDbSymbolTableRecord
100
AcDbRegAppTableRecord
  2
TVE_400C2081311511598
 70
     0
  0
APPID
  5
354EE
330
BC2A
100
AcDbSymbolTableRecord
100
AcDbRegAppTableRecord
  2
TVE_40032081311511621
 70
     0
  0
APPID
  5
354EF
330
BC2A
100
AcDbSymbolTableRecord
100
AcDbRegAppTableRecord
  2
TVE_3FCE2081311513774
 70
     0
  0
APPID
  5
354F0
330
BC2A
100
AcDbSymbolTableRecord
100
AcDbRegAppTableRecord
  2
TVE_3FD02081311513797
 70
     0
  0
APPID
  5
354F1
330
BC2A
100
AcDbSymbolTableRecord
100
AcDbRegAppTableRecord
  2
TVE_43E02081311554687
 70
     0
  0
APPID
  5
354F2
330
BC2A
100
AcDbSymbolTableRecord
100
AcDbRegAppTableRecord
  2
TVE_43D72081311562065
 70
     0
  0
APPID
  5
354F3
330
BC2A
100
AcDbSymbolTableRecord
100
AcDbRegAppTableRecord
  2
TVE_43CE2081311562093
 70
     0
  0
APPID
  5
354F4
330
BC2A
100
AcDbSymbolTableRecord
100
AcDbRegAppTableRecord
  2
TVE_43C52081311562115
 70
     0
  0
APPID
  5
354F5
330
BC2A
100
AcDbSymbolTableRecord
100
AcDbRegAppTableRecord
  2
TVE_43BC2081311562137
 70
     0
  0
APPID
  5
354F6
330
BC2A
100
AcDbSymbolTableRecord
100
AcDbRegAppTableRecord
  2
TVE_43B32081311562165
 70
     0
  0
APPID
  5
354F7
330
BC2A
100
AcDbSymbolTableRecord
100
AcDbRegAppTableRecord
  2
TVE_43AA2081311562189
 70
     0
  0
APPID
  5
354F8
330
BC2A
100
AcDbSymbolTableRecord
100
AcDbRegAppTableRecord
  2
TVE_43A12081311562211
 70
     0
  0
APPID
  5
354F9
330
BC2A
100
AcDbSymbolTableRecord
100
AcDbRegAppTableRecord
  2
TVE_43962081311562305
 70
     0
  0
APPID
  5
354FA
330
BC2A
100
AcDbSymbolTableRecord
100
AcDbRegAppTableRecord
  2
TVE_438B2081311562331
 70
     0
  0
APPID
  5
354FB
330
BC2A
100
AcDbSymbolTableRecord
100
AcDbRegAppTableRecord
  2
TVE_43822081311562352
 70
     0
  0
APPID
  5
354FC
330
BC2A
100
AcDbSymbolTableRecord
100
AcDbRegAppTableRecord
  2
TVE_43792081311562374
 70
     0
  0
APPID
  5
354FD
330
BC2A
100
AcDbSymbolTableRecord
100
AcDbRegAppTableRecord
  2
TVE_436E2081311562402
 70
     0
  0
APPID
  5
354FE
330
BC2A
100
AcDbSymbolTableRecord
100
AcDbRegAppTableRecord
  2
TVE_43632081311562425
 70
     0
  0
APPID
  5
354FF
330
BC2A
100
AcDbSymbolTableRecord
100
AcDbRegAppTableRecord
  2
TVE_435A2081311562447
 70
     0
  0
APPID
  5
35500
330
BC2A
100
AcDbSymbolTableRecord
100
AcDbRegAppTableRecord
  2
TVE_434F2081311562474
 70
     0
  0
APPID
  5
35501
330
BC2A
100
AcDbSymbolTableRecord
100
AcDbRegAppTableRecord
  2
TVE_39602081311562500
 70
     0
  0
APPID
  5
35502
330
BC2A
100
AcDbSymbolTableRecord
100
AcDbRegAppTableRecord
  2
TVE_43442081311562523
 70
     0
  0
APPID
  5
35503
330
BC2A
100
AcDbSymbolTableRecord
100
AcDbRegAppTableRecord
  2
TVE_433B2081311562611
 70
     0
  0
APPID
  5
35504
330
BC2A
100
AcDbSymbolTableRecord
100
AcDbRegAppTableRecord
  2
TVE_43322081311562638
 70
     0
  0
APPID
  5
35505
330
BC2A
100
AcDbSymbolTableRecord
100
AcDbRegAppTableRecord
  2
TVE_43292081311564017
 70
     0
  0
APPID
  5
35506
330
BC2A
100
AcDbSymbolTableRecord
100
AcDbRegAppTableRecord
  2
TVE_43202081311564048
 70
     0
  0
APPID
  5
35507
330
BC2A
100
AcDbSymbolTableRecord
100
AcDbRegAppTableRecord
  2
TVE_43172081311564070
 70
     0
  0
APPID
  5
35508
330
BC2A
100
AcDbSymbolTableRecord
100
AcDbRegAppTableRecord
  2
TVE_430E2081311564097
 70
     0
  0
APPID
  5
35509
330
BC2A
100
AcDbSymbolTableRecord
100
AcDbRegAppTableRecord
  2
TVE_44012081311565124
 70
     0
  0
APPID
  5
3550A
330
BC2A
100
AcDbSymbolTableRecord
100
AcDbRegAppTableRecord
  2
TVE_44002081311565148
 70
     0
  0
APPID
  5
3550B
330
BC2A
100
AcDbSymbolTableRecord
100
AcDbRegAppTableRecord
  2
TVE_559C2081312033033
 70
     0
  0
APPID
  5
3550C
330
BC2A
100
AcDbSymbolTableRecord
100
AcDbRegAppTableRecord
  2
TVE_560C2081312040405
 70
     0
  0
APPID
  5
3550D
330
BC2A
100
AcDbSymbolTableRecord
100
AcDbRegAppTableRecord
  2
TVE_560B2081312040433
 70
     0
  0
APPID
  5
3550E
330
BC2A
100
AcDbSymbolTableRecord
100
AcDbRegAppTableRecord
  2
TVE_55952081312040530
 70
     0
  0
APPID
  5
3550F
330
BC2A
100
AcDbSymbolTableRecord
100
AcDbRegAppTableRecord
  2
TVE_558E2081312040554
 70
     0
  0
APPID
  5
35510
330
BC2A
100
AcDbSymbolTableRecord
100
AcDbRegAppTableRecord
  2
TVE_55872081312040579
 70
     0
  0
APPID
  5
35511
330
BC2A
100
AcDbSymbolTableRecord
100
AcDbRegAppTableRecord
  2
TVE_55802081312040606
 70
     0
  0
APPID
  5
35512
330
BC2A
100
AcDbSymbolTableRecord
100
AcDbRegAppTableRecord
  2
TVE_55792081312040631
 70
     0
  0
APPID
  5
35513
330
BC2A
100
AcDbSymbolTableRecord
100
AcDbRegAppTableRecord
  2
TVE_55722081312040654
 70
     0
  0
APPID
  5
35514
330
BC2A
100
AcDbSymbolTableRecord
100
AcDbRegAppTableRecord
  2
TVE_556B2081312040682
 70
     0
  0
APPID
  5
35515
330
BC2A
100
AcDbSymbolTableRecord
100
AcDbRegAppTableRecord
  2
TVE_55622081312040708
 70
     0
  0
APPID
  5
35516
330
BC2A
100
AcDbSymbolTableRecord
100
AcDbRegAppTableRecord
  2
TVE_555B2081312040799
 70
     0
  0
APPID
  5
35517
330
BC2A
100
AcDbSymbolTableRecord
100
AcDbRegAppTableRecord
  2
TVE_55542081312040823
 70
     0
  0
APPID
  5
35518
330
BC2A
100
AcDbSymbolTableRecord
100
AcDbRegAppTableRecord
  2
TVE_554D2081312040850
 70
     0
  0
APPID
  5
35519
330
BC2A
100
AcDbSymbolTableRecord
100
AcDbRegAppTableRecord
  2
TVE_55442081312040878
 70
     0
  0
APPID
  5
3551A
330
BC2A
100
AcDbSymbolTableRecord
100
AcDbRegAppTableRecord
  2
TVE_553D2081312040906
 70
     0
  0
APPID
  5
3551B
330
BC2A
100
AcDbSymbolTableRecord
100
AcDbRegAppTableRecord
  2
TVE_552D2081312040938
 70
     0
  0
APPID
  5
3551C
330
BC2A
100
AcDbSymbolTableRecord
100
AcDbRegAppTableRecord
  2
TVE_54E02081312040963
 70
     0
  0
APPID
  5
3551D
330
BC2A
100
AcDbSymbolTableRecord
100
AcDbRegAppTableRecord
  2
TVE_55262081312040988
 70
     0
  0
APPID
  5
3551E
330
BC2A
100
AcDbSymbolTableRecord
100
AcDbRegAppTableRecord
  2
TVE_551F2081312041079
 70
     0
  0
APPID
  5
3551F
330
BC2A
100
AcDbSymbolTableRecord
100
AcDbRegAppTableRecord
  2
TVE_55182081312041104
 70
     0
  0
APPID
  5
35520
330
BC2A
100
AcDbSymbolTableRecord
100
AcDbRegAppTableRecord
  2
TVE_55032081312042659
 70
     0
  0
APPID
  5
35521
330
BC2A
100
AcDbSymbolTableRecord
100
AcDbRegAppTableRecord
  2
TVE_55112081312042683
 70
     0
  0
APPID
  5
35522
330
BC2A
100
AcDbSymbolTableRecord
100
AcDbRegAppTableRecord
  2
TVE_550A2081312042707
 70
     0
  0
APPID
  5
35523
330
BC2A
100
AcDbSymbolTableRecord
100
AcDbRegAppTableRecord
  2
TVE_54FC2081312042737
 70
     0
  0
APPID
  5
35524
330
BC2A
100
AcDbSymbolTableRecord
100
AcDbRegAppTableRecord
  2
TVE_55A32081312043765
 70
     0
  0
APPID
  5
35525
330
BC2A
100
AcDbSymbolTableRecord
100
AcDbRegAppTableRecord
  2
TVE_55AA2081312043789
 70
     0
  0
APPID
  5
35526
330
BC2A
100
AcDbSymbolTableRecord
100
AcDbRegAppTableRecord
  2
TVE_67292081312404832
 70
     0
  0
APPID
  5
35527
330
BC2A
100
AcDbSymbolTableRecord
100
AcDbRegAppTableRecord
  2
TVE_681B2081312422073
 70
     0
  0
APPID
  5
35528
330
BC2A
100
AcDbSymbolTableRecord
100
AcDbRegAppTableRecord
  2
TVE_6EB2081313243642
 70
     0
  0
APPID
  5
35529
330
BC2A
100
AcDbSymbolTableRecord
100
AcDbRegAppTableRecord
  2
TVE_6EA2081313243697
 70
     0
  0
APPID
  5
3552A
330
BC2A
100
AcDbSymbolTableRecord
100
AcDbRegAppTableRecord
  2
TVE_6E72081313243728
 70
     0
  0
APPID
  5
3552B
330
BC2A
100
AcDbSymbolTableRecord
100
AcDbRegAppTableRecord
  2
TVE_6E52081313243752
 70
     0
  0
APPID
  5
3552C
330
BC2A
100
AcDbSymbolTableRecord
100
AcDbRegAppTableRecord
  2
TVE_6DE2081313243772
 70
     0
  0
APPID
  5
3552D
330
BC2A
100
AcDbSymbolTableRecord
100
AcDbRegAppTableRecord
  2
TVE_6DD2081313243813
 70
     0
  0
APPID
  5
3552E
330
BC2A
100
AcDbSymbolTableRecord
100
AcDbRegAppTableRecord
  2
TVE_6DC2081313243836
 70
     0
  0
APPID
  5
3552F
330
BC2A
100
AcDbSymbolTableRecord
100
AcDbRegAppTableRecord
  2
TVE_6DB2081313243858
 70
     0
  0
APPID
  5
35530
330
BC2A
100
AcDbSymbolTableRecord
100
AcDbRegAppTableRecord
  2
TVE_6DA2081313243878
 70
     0
  0
APPID
  5
35531
330
BC2A
100
AcDbSymbolTableRecord
100
AcDbRegAppTableRecord
  2
TVE_6D92081313243900
 70
     0
  0
APPID
  5
35532
330
BC2A
100
AcDbSymbolTableRecord
100
AcDbRegAppTableRecord
  2
TVE_14E2101607001975
 70
     0
  0
APPID
  5
35533
330
BC2A
100
AcDbSymbolTableRecord
100
AcDbRegAppTableRecord
  2
TVE_292101607003748
 70
     0
  0
APPID
  5
35534
330
BC2A
100
AcDbSymbolTableRecord
100
AcDbRegAppTableRecord
  2
TVE_282101607003764
 70
     0
  0
APPID
  5
35535
330
BC2A
100
AcDbSymbolTableRecord
100
AcDbRegAppTableRecord
  2
TVE_272101607003784
 70
     0
  0
APPID
  5
35536
330
BC2A
100
AcDbSymbolTableRecord
100
AcDbRegAppTableRecord
  2
TVE_262101607003802
 70
     0
  0
APPID
  5
35537
330
BC2A
100
AcDbSymbolTableRecord
100
AcDbRegAppTableRecord
  2
TVE_252101607003821
 70
     0
  0
APPID
  5
35538
330
BC2A
100
AcDbSymbolTableRecord
100
AcDbRegAppTableRecord
  2
TVE_242101607003840
 70
     0
  0
APPID
  5
35539
330
BC2A
100
AcDbSymbolTableRecord
100
AcDbRegAppTableRecord
  2
TVE_232101607003859
 70
     0
  0
APPID
  5
3553A
330
BC2A
100
AcDbSymbolTableRecord
100
AcDbRegAppTableRecord
  2
TVE_222101607003875
 70
     0
  0
APPID
  5
3553B
330
BC2A
100
AcDbSymbolTableRecord
100
AcDbRegAppTableRecord
  2
TVE_212101607003890
 70
     0
  0
APPID
  5
3553C
330
BC2A
100
AcDbSymbolTableRecord
100
AcDbRegAppTableRecord
  2
TVE_202101607003910
 70
     0
  0
APPID
  5
3553D
330
BC2A
100
AcDbSymbolTableRecord
100
AcDbRegAppTableRecord
  2
TVE_1F2101607003941
 70
     0
  0
APPID
  5
3553E
330
BC2A
100
AcDbSymbolTableRecord
100
AcDbRegAppTableRecord
  2
TVE_1D2101607003968
 70
     0
  0
APPID
  5
3553F
330
BC2A
100
AcDbSymbolTableRecord
100
AcDbRegAppTableRecord
  2
TVE_162101607010506
 70
     0
  0
APPID
  5
35540
330
BC2A
100
AcDbSymbolTableRecord
100
AcDbRegAppTableRecord
  2
TVE_152101607010522
 70
     0
  0
APPID
  5
35541
330
BC2A
100
AcDbSymbolTableRecord
100
AcDbRegAppTableRecord
  2
TVE_142101607010542
 70
     0
  0
APPID
  5
35542
330
BC2A
100
AcDbSymbolTableRecord
100
AcDbRegAppTableRecord
  2
TVE_132101607010559
 70
     0
  0
APPID
  5
35543
330
BC2A
100
AcDbSymbolTableRecord
100
AcDbRegAppTableRecord
  2
TVE_122101607010581
 70
     0
  0
APPID
  5
35544
330
BC2A
100
AcDbSymbolTableRecord
100
AcDbRegAppTableRecord
  2
TVE_112101607010598
 70
     0
  0
APPID
  5
35545
330
BC2A
100
AcDbSymbolTableRecord
100
AcDbRegAppTableRecord
  2
TVE_4B2101607013007
 70
     0
  0
APPID
  5
35546
330
BC2A
100
AcDbSymbolTableRecord
100
AcDbRegAppTableRecord
  2
TVE_4A2101607013027
 70
     0
  0
APPID
  5
35547
330
BC2A
100
AcDbSymbolTableRecord
100
AcDbRegAppTableRecord
  2
TVE_492101607013045
 70
     0
  0
APPID
  5
35548
330
BC2A
100
AcDbSymbolTableRecord
100
AcDbRegAppTableRecord
  2
TVE_482101607013064
 70
     0
  0
APPID
  5
35549
330
BC2A
100
AcDbSymbolTableRecord
100
AcDbRegAppTableRecord
  2
TVE_412101607014928
 70
     0
  0
APPID
  5
3554A
330
BC2A
100
AcDbSymbolTableRecord
100
AcDbRegAppTableRecord
  2
TVE_402101607014949
 70
     0
  0
APPID
  5
3554B
330
BC2A
100
AcDbSymbolTableRecord
100
AcDbRegAppTableRecord
  2
TVE_3F2101607014965
 70
     0
  0
APPID
  5
3554C
330
BC2A
100
AcDbSymbolTableRecord
100
AcDbRegAppTableRecord
  2
TVE_3E2101607014986
 70
     0
  0
APPID
  5
3554D
330
BC2A
100
AcDbSymbolTableRecord
100
AcDbRegAppTableRecord
  2
TVE_3C2101607015003
 70
     0
  0
APPID
  5
3554E
330
BC2A
100
AcDbSymbolTableRecord
100
AcDbRegAppTableRecord
  2
TVE_4E2101607022235
 70
     0
  0
APPID
  5
3554F
330
BC2A
100
AcDbSymbolTableRecord
100
AcDbRegAppTableRecord
  2
TVE_4C2101607022253
 70
     0
  0
APPID
  5
35550
330
BC2A
100
AcDbSymbolTableRecord
100
AcDbRegAppTableRecord
  2
TVE_5D2101607023503
 70
     0
  0
APPID
  5
35551
330
BC2A
100
AcDbSymbolTableRecord
100
AcDbRegAppTableRecord
  2
TVE_5B2101607023520
 70
     0
  0
APPID
  5
35552
330
BC2A
100
AcDbSymbolTableRecord
100
AcDbRegAppTableRecord
  2
TVE_6EE2101607085911
 70
     0
  0
APPID
  5
35553
330
BC2A
100
AcDbSymbolTableRecord
100
AcDbRegAppTableRecord
  2
TVE_6ED2101607092241
 70
     0
  0
APPID
  5
35554
330
BC2A
100
AcDbSymbolTableRecord
100
AcDbRegAppTableRecord
  2
TVE_6EC2101607092260
 70
     0
  0
APPID
  5
35555
330
BC2A
100
AcDbSymbolTableRecord
100
AcDbRegAppTableRecord
  2
TVE_6EB2101607092279
 70
     0
  0
APPID
  5
35556
330
BC2A
100
AcDbSymbolTableRecord
100
AcDbRegAppTableRecord
  2
TVE_3A2101607092318
 70
     0
  0
APPID
  5
35557
330
BC2A
100
AcDbSymbolTableRecord
100
AcDbRegAppTableRecord
  2
TVE_392101607092340
 70
     0
  0
APPID
  5
35558
330
BC2A
100
AcDbSymbolTableRecord
100
AcDbRegAppTableRecord
  2
TVE_382101607092359
 70
     0
  0
APPID
  5
35559
330
BC2A
100
AcDbSymbolTableRecord
100
AcDbRegAppTableRecord
  2
TVE_372101607092381
 70
     0
  0
APPID
  5
3555A
330
BC2A
100
AcDbSymbolTableRecord
100
AcDbRegAppTableRecord
  2
TVE_362101607092410
 70
     0
  0
APPID
  5
3555B
330
BC2A
100
AcDbSymbolTableRecord
100
AcDbRegAppTableRecord
  2
TVE_352101607092444
 70
     0
  0
APPID
  5
3555C
330
BC2A
100
AcDbSymbolTableRecord
100
AcDbRegAppTableRecord
  2
TVE_332101607092485
 70
     0
  0
APPID
  5
3555D
330
BC2A
100
AcDbSymbolTableRecord
100
AcDbRegAppTableRecord
  2
TVE_322101607092507
 70
     0
  0
APPID
  5
3555E
330
BC2A
100
AcDbSymbolTableRecord
100
AcDbRegAppTableRecord
  2
TVE_312101607092553
 70
     0
  0
APPID
  5
3555F
330
BC2A
100
AcDbSymbolTableRecord
100
AcDbRegAppTableRecord
  2
TVE_2D2101607092574
 70
     0
  0
APPID
  5
35560
330
BC2A
100
AcDbSymbolTableRecord
100
AcDbRegAppTableRecord
  2
TVE_2C2101607092593
 70
     0
  0
APPID
  5
35561
330
BC2A
100
AcDbSymbolTableRecord
100
AcDbRegAppTableRecord
  2
TVE_2B2101607092613
 70
     0
  0
APPID
  5
35562
330
BC2A
100
AcDbSymbolTableRecord
100
AcDbRegAppTableRecord
  2
TVE_2A2101607092635
 70
     0
  0
APPID
  5
35563
330
BC2A
100
AcDbSymbolTableRecord
100
AcDbRegAppTableRecord
  2
TVE_D2101607094142
 70
     0
  0
APPID
  5
35564
330
BC2A
100
AcDbSymbolTableRecord
100
AcDbRegAppTableRecord
  2
TVE_C2101607095490
 70
     0
  0
APPID
  5
35565
330
BC2A
100
AcDbSymbolTableRecord
100
AcDbRegAppTableRecord
  2
TVE_B2101607095513
 70
     0
  0
APPID
  5
35566
330
BC2A
100
AcDbSymbolTableRecord
100
AcDbRegAppTableRecord
  2
TVE_92101607095532
 70
     0
  0
APPID
  5
35567
330
BC2A
100
AcDbSymbolTableRecord
100
AcDbRegAppTableRecord
  2
TVE_EC2101607101501
 70
     0
  0
APPID
  5
35568
330
BC2A
100
AcDbSymbolTableRecord
100
AcDbRegAppTableRecord
  2
TVE_472101607101522
 70
     0
  0
APPID
  5
35569
330
BC2A
100
AcDbSymbolTableRecord
100
AcDbRegAppTableRecord
  2
TVE_462101607101540
 70
     0
  0
APPID
  5
3556A
330
BC2A
100
AcDbSymbolTableRecord
100
AcDbRegAppTableRecord
  2
TVE_452101607101564
 70
     0
  0
APPID
  5
3556B
330
BC2A
100
AcDbSymbolTableRecord
100
AcDbRegAppTableRecord
  2
TVE_442101607101583
 70
     0
  0
APPID
  5
3556C
330
BC2A
100
AcDbSymbolTableRecord
100
AcDbRegAppTableRecord
  2
TVE_432101607101605
 70
     0
  0
APPID
  5
3556D
330
BC2A
100
AcDbSymbolTableRecord
100
AcDbRegAppTableRecord
  2
TVE_422101607101624
 70
     0
  0
APPID
  5
3556E
330
BC2A
100
AcDbSymbolTableRecord
100
AcDbRegAppTableRecord
  2
TVE_5A2101607104046
 70
     0
  0
APPID
  5
3556F
330
BC2A
100
AcDbSymbolTableRecord
100
AcDbRegAppTableRecord
  2
TVE_592101607104067
 70
     0
  0
APPID
  5
35570
330
BC2A
100
AcDbSymbolTableRecord
100
AcDbRegAppTableRecord
  2
TVE_582101607104090
 70
     0
  0
APPID
  5
35571
330
BC2A
100
AcDbSymbolTableRecord
100
AcDbRegAppTableRecord
  2
TVE_572101607104123
 70
     0
  0
APPID
  5
35572
330
BC2A
100
AcDbSymbolTableRecord
100
AcDbRegAppTableRecord
  2
TVE_562101607104143
 70
     0
  0
APPID
  5
35573
330
BC2A
100
AcDbSymbolTableRecord
100
AcDbRegAppTableRecord
  2
TVE_552101607104170
 70
     0
  0
APPID
  5
35574
330
BC2A
100
AcDbSymbolTableRecord
100
AcDbRegAppTableRecord
  2
TVE_542101607104190
 70
     0
  0
APPID
  5
35575
330
BC2A
100
AcDbSymbolTableRecord
100
AcDbRegAppTableRecord
  2
TVE_532101607104213
 70
     0
  0
APPID
  5
35576
330
BC2A
100
AcDbSymbolTableRecord
100
AcDbRegAppTableRecord
  2
TVE_522101607104252
 70
     0
  0
APPID
  5
35577
330
BC2A
100
AcDbSymbolTableRecord
100
AcDbRegAppTableRecord
  2
TVE_512101607104280
 70
     0
  0
APPID
  5
35578
330
BC2A
100
AcDbSymbolTableRecord
100
AcDbRegAppTableRecord
  2
TVE_502101607104300
 70
     0
  0
APPID
  5
35579
330
BC2A
100
AcDbSymbolTableRecord
100
AcDbRegAppTableRecord
  2
TVE_4F2101607104319
 70
     0
  0
APPID
  5
3557A
330
BC2A
100
AcDbSymbolTableRecord
100
AcDbRegAppTableRecord
  2
TVE_5F2101607110211
 70
     0
  0
APPID
  5
3557B
330
BC2A
100
AcDbSymbolTableRecord
100
AcDbRegAppTableRecord
  2
TVE_5E2101607110233
 70
     0
  0
APPID
  5
3557C
330
BC2A
100
AcDbSymbolTableRecord
100
AcDbRegAppTableRecord
  2
TVE_302101607111686
 70
     0
  0
APPID
  5
3557D
330
BC2A
100
AcDbSymbolTableRecord
100
AcDbRegAppTableRecord
  2
TVE_2F2101607111712
 70
     0
  0
APPID
  5
3557E
330
BC2A
100
AcDbSymbolTableRecord
100
AcDbRegAppTableRecord
  2
TVE_2E2101607111732
 70
     0
  0
APPID
  5
3557F
330
BC2A
100
AcDbSymbolTableRecord
100
AcDbRegAppTableRecord
  2
TVE_EB52101607134938
 70
     0
  0
APPID
  5
35580
330
BC2A
100
AcDbSymbolTableRecord
100
AcDbRegAppTableRecord
  2
TVE_942D6101913560253
 70
     0
  0
APPID
  5
35581
330
BC2A
100
AcDbSymbolTableRecord
100
AcDbRegAppTableRecord
  2
TVE_93BE6101913561733
 70
     0
  0
APPID
  5
35582
330
BC2A
100
AcDbSymbolTableRecord
100
AcDbRegAppTableRecord
  2
TVE_93BD6101913561745
 70
     0
  0
APPID
  5
35583
330
BC2A
100
AcDbSymbolTableRecord
100
AcDbRegAppTableRecord
  2
TVE_93BF6101913561757
 70
     0
  0
APPID
  5
35584
330
BC2A
100
AcDbSymbolTableRecord
100
AcDbRegAppTableRecord
  2
TVE_93C06101913561770
 70
     0
  0
APPID
  5
35585
330
BC2A
100
AcDbSymbolTableRecord
100
AcDbRegAppTableRecord
  2
TVE_93C16101913561785
 70
     0
  0
APPID
  5
35586
330
BC2A
100
AcDbSymbolTableRecord
100
AcDbRegAppTableRecord
  2
TVE_93C26101913561798
 70
     0
  0
APPID
  5
35587
330
BC2A
100
AcDbSymbolTableRecord
100
AcDbRegAppTableRecord
  2
TVE_93C36101913563170
 70
     0
  0
APPID
  5
35588
330
BC2A
100
AcDbSymbolTableRecord
100
AcDbRegAppTableRecord
  2
TVE_93C86101913564253
 70
     0
  0
APPID
  5
35589
330
BC2A
100
AcDbSymbolTableRecord
100
AcDbRegAppTableRecord
  2
TVE_95686101913571054
 70
     0
  0
APPID
  5
3558A
330
BC2A
100
AcDbSymbolTableRecord
100
AcDbRegAppTableRecord
  2
TVE_93BA6101913572869
 70
     0
  0
APPID
  5
3558B
330
BC2A
100
AcDbSymbolTableRecord
100
AcDbRegAppTableRecord
  2
TVE_93BC6101913572884
 70
     0
  0
APPID
  5
3558C
330
BC2A
100
AcDbSymbolTableRecord
100
AcDbRegAppTableRecord
  2
TVE_93BB6101913572897
 70
     0
  0
APPID
  5
3558D
330
BC2A
100
AcDbSymbolTableRecord
100
AcDbRegAppTableRecord
  2
TVE_93C66101913572909
 70
     0
  0
APPID
  5
3558E
330
BC2A
100
AcDbSymbolTableRecord
100
AcDbRegAppTableRecord
  2
TVE_93C76101913572922
 70
     0
  0
APPID
  5
3558F
330
BC2A
100
AcDbSymbolTableRecord
100
AcDbRegAppTableRecord
  2
TVE_3ADB6061207535683
 70
     0
  0
APPID
  5
35590
330
BC2A
100
AcDbSymbolTableRecord
100
AcDbRegAppTableRecord
  2
TVE_3A646061207541248
 70
     0
  0
APPID
  5
35591
330
BC2A
100
AcDbSymbolTableRecord
100
AcDbRegAppTableRecord
  2
TVE_3A636061207541252
 70
     0
  0
APPID
  5
35592
330
BC2A
100
AcDbSymbolTableRecord
100
AcDbRegAppTableRecord
  2
TVE_3A656061207541258
 70
     0
  0
APPID
  5
35593
330
BC2A
100
AcDbSymbolTableRecord
100
AcDbRegAppTableRecord
  2
TVE_3A666061207541262
 70
     0
  0
APPID
  5
35594
330
BC2A
100
AcDbSymbolTableRecord
100
AcDbRegAppTableRecord
  2
TVE_3A616061207542515
 70
     0
  0
APPID
  5
35595
330
BC2A
100
AcDbSymbolTableRecord
100
AcDbRegAppTableRecord
  2
TVE_3A5F6061207543961
 70
     0
  0
APPID
  5
35596
330
BC2A
100
AcDbSymbolTableRecord
100
AcDbRegAppTableRecord
  2
TVE_3ADA6061207544976
 70
     0
  0
APPID
  5
35597
330
BC2A
100
AcDbSymbolTableRecord
100
AcDbRegAppTableRecord
  2
TVE_3A686061207551044
 70
     0
  0
APPID
  5
35598
330
BC2A
100
AcDbSymbolTableRecord
100
AcDbRegAppTableRecord
  2
TVE_3A696061207551048
 70
     0
  0
APPID
  5
35599
330
BC2A
100
AcDbSymbolTableRecord
100
AcDbRegAppTableRecord
  2
TVE_3A6C6061207551056
 70
     0
  0
APPID
  5
3559A
330
BC2A
100
AcDbSymbolTableRecord
100
AcDbRegAppTableRecord
  2
TVE_3A6A6061207551061
 70
     0
  0
APPID
  5
3559B
330
BC2A
100
AcDbSymbolTableRecord
100
AcDbRegAppTableRecord
  2
TVE_3A6B6061207551065
 70
     0
  0
APPID
  5
3559C
330
BC2A
100
AcDbSymbolTableRecord
100
AcDbRegAppTableRecord
  2
TVE_3A6E6061207551073
 70
     0
  0
APPID
  5
3559D
330
BC2A
100
AcDbSymbolTableRecord
100
AcDbRegAppTableRecord
  2
TVE_3A6F6061207551078
 70
     0
  0
APPID
  5
3559E
330
BC2A
100
AcDbSymbolTableRecord
100
AcDbRegAppTableRecord
  2
TVE_3A6D6061207551081
 70
     0
  0
APPID
  5
3559F
330
BC2A
100
AcDbSymbolTableRecord
100
AcDbRegAppTableRecord
  2
TVE_3A706061207552053
 70
     0
  0
APPID
  5
355A0
330
BC2A
100
AcDbSymbolTableRecord
100
AcDbRegAppTableRecord
  2
TVE_44396062813462686
 70
     0
  0
APPID
  5
355A1
330
BC2A
100
AcDbSymbolTableRecord
100
AcDbRegAppTableRecord
  2
TVE_43E76062813471634
 70
     0
  0
APPID
  5
355A2
330
BC2A
100
AcDbSymbolTableRecord
100
AcDbRegAppTableRecord
  2
TVE_97076101916540296
 70
     0
  0
APPID
  5
355A3
330
BC2A
100
AcDbSymbolTableRecord
100
AcDbRegAppTableRecord
  2
TVE_96FE6101916543192
 70
     0
  0
APPID
  5
355A4
330
BC2A
100
AcDbSymbolTableRecord
100
AcDbRegAppTableRecord
  2
TVE_96E36101916543201
 70
     0
  0
APPID
  5
355A5
330
BC2A
100
AcDbSymbolTableRecord
100
AcDbRegAppTableRecord
  2
TVE_96F56101916543211
 70
     0
  0
APPID
  5
355A6
330
BC2A
100
AcDbSymbolTableRecord
100
AcDbRegAppTableRecord
  2
TVE_96EC6101916543220
 70
     0
  0
APPID
  5
355A7
330
BC2A
100
AcDbSymbolTableRecord
100
AcDbRegAppTableRecord
  2
TVE_98646101920353328
 70
     0
  0
APPID
  5
355A8
330
BC2A
100
AcDbSymbolTableRecord
100
AcDbRegAppTableRecord
  2
TVE_985C6101920382406
 70
     0
  0
APPID
  5
355A9
330
BC2A
100
AcDbSymbolTableRecord
100
AcDbRegAppTableRecord
  2
TVE_985D6101920382415
 70
     0
  0
APPID
  5
355AA
330
BC2A
100
AcDbSymbolTableRecord
100
AcDbRegAppTableRecord
  2
TVE_985F6101920382425
 70
     0
  0
APPID
  5
355AB
330
BC2A
100
AcDbSymbolTableRecord
100
AcDbRegAppTableRecord
  2
TVE_98626101920382433
 70
     0
  0
APPID
  5
355AC
330
BC2A
100
AcDbSymbolTableRecord
100
AcDbRegAppTableRecord
  2
TVE_98216101920382442
 70
     0
  0
APPID
  5
355AD
330
BC2A
100
AcDbSymbolTableRecord
100
AcDbRegAppTableRecord
  2
TVE_985A6101920382451
 70
     0
  0
APPID
  5
355AE
330
BC2A
100
AcDbSymbolTableRecord
100
AcDbRegAppTableRecord
  2
TVE_98186101920382459
 70
     0
  0
APPID
  5
355AF
330
BC2A
100
AcDbSymbolTableRecord
100
AcDbRegAppTableRecord
  2
TVE_980F6101920382469
 70
     0
  0
APPID
  5
355B0
330
BC2A
100
AcDbSymbolTableRecord
100
AcDbRegAppTableRecord
  2
TVE_98616101920384507
 70
     0
  0
APPID
  5
355B1
330
BC2A
100
AcDbSymbolTableRecord
100
AcDbRegAppTableRecord
  2
TVE_98606101920384517
 70
     0
  0
APPID
  5
355B2
330
BC2A
100
AcDbSymbolTableRecord
100
AcDbRegAppTableRecord
  2
TVE_98576101920384526
 70
     0
  0
APPID
  5
355B3
330
BC2A
100
AcDbSymbolTableRecord
100
AcDbRegAppTableRecord
  2
TVE_98586101920384534
 70
     0
  0
APPID
  5
355B4
330
BC2A
100
AcDbSymbolTableRecord
100
AcDbRegAppTableRecord
  2
TVE_98596101920384543
 70
     0
  0
APPID
  5
355B5
330
BC2A
100
AcDbSymbolTableRecord
100
AcDbRegAppTableRecord
  2
TVE_98066101920391747
 70
     0
  0
APPID
  5
355B6
330
BC2A
100
AcDbSymbolTableRecord
100
AcDbRegAppTableRecord
  2
TVE_97FD6101920393451
 70
     0
  0
APPID
  5
355B7
330
BC2A
100
AcDbSymbolTableRecord
100
AcDbRegAppTableRecord
  2
TVE_22D7072223102109
 70
     0
  0
APPID
  5
355B8
330
BC2A
100
AcDbSymbolTableRecord
100
AcDbRegAppTableRecord
  2
TVE_1BC7072223104422
 70
     0
  0
APPID
  5
355B9
330
BC2A
100
AcDbSymbolTableRecord
100
AcDbRegAppTableRecord
  2
TVE_1BE7072223104431
 70
     0
  0
APPID
  5
355BA
330
BC2A
100
AcDbSymbolTableRecord
100
AcDbRegAppTableRecord
  2
TVE_1BD7072223104440
 70
     0
  0
APPID
  5
355BB
330
BC2A
100
AcDbSymbolTableRecord
100
AcDbRegAppTableRecord
  2
TVE_1BF7072223104448
 70
     0
  0
APPID
  5
355BC
330
BC2A
100
AcDbSymbolTableRecord
100
AcDbRegAppTableRecord
  2
TVE_1C07072223104459
 70
     0
  0
APPID
  5
355BD
330
BC2A
100
AcDbSymbolTableRecord
100
AcDbRegAppTableRecord
  2
TVE_1C37072223104467
 70
     0
  0
APPID
  5
355BE
330
BC2A
100
AcDbSymbolTableRecord
100
AcDbRegAppTableRecord
  2
TVE_1C27072223104477
 70
     0
  0
APPID
  5
355BF
330
BC2A
100
AcDbSymbolTableRecord
100
AcDbRegAppTableRecord
  2
TVE_1C17072223104484
 70
     0
  0
APPID
  5
355C0
330
BC2A
100
AcDbSymbolTableRecord
100
AcDbRegAppTableRecord
  2
TVE_1C87072223110085
 70
     0
  0
APPID
  5
355C1
330
BC2A
100
AcDbSymbolTableRecord
100
AcDbRegAppTableRecord
  2
TVE_1C77072223110095
 70
     0
  0
APPID
  5
355C2
330
BC2A
100
AcDbSymbolTableRecord
100
AcDbRegAppTableRecord
  2
TVE_1C67072223110105
 70
     0
  0
APPID
  5
355C3
330
BC2A
100
AcDbSymbolTableRecord
100
AcDbRegAppTableRecord
  2
TVE_1C57072223110114
 70
     0
  0
APPID
  5
355C4
330
BC2A
100
AcDbSymbolTableRecord
100
AcDbRegAppTableRecord
  2
TVE_1C47072223110122
 70
     0
  0
APPID
  5
355C5
330
BC2A
100
AcDbSymbolTableRecord
100
AcDbRegAppTableRecord
  2
TVE_1C97072223110899
 70
     0
  0
APPID
  5
355C6
330
BC2A
100
AcDbSymbolTableRecord
100
AcDbRegAppTableRecord
  2
TVE_1CA7072223111813
 70
     0
  0
APPID
  5
355C7
330
BC2A
100
AcDbSymbolTableRecord
100
AcDbRegAppTableRecord
  2
TVE_B87102509413296
 70
     0
  0
APPID
  5
355C8
330
BC2A
100
AcDbSymbolTableRecord
100
AcDbRegAppTableRecord
  2
TVE_437102509420608
 70
     0
  0
APPID
  5
355C9
330
BC2A
100
AcDbSymbolTableRecord
100
AcDbRegAppTableRecord
  2
TVE_427102509420616
 70
     0
  0
APPID
  5
355CA
330
BC2A
100
AcDbSymbolTableRecord
100
AcDbRegAppTableRecord
  2
TVE_417102509420628
 70
     0
  0
APPID
  5
355CB
330
BC2A
100
AcDbSymbolTableRecord
100
AcDbRegAppTableRecord
  2
TVE_447102509420637
 70
     0
  0
APPID
  5
355CC
330
BC2A
100
AcDbSymbolTableRecord
100
AcDbRegAppTableRecord
  2
TVE_377102509424850
 70
     0
  0
APPID
  5
355CD
330
BC2A
100
AcDbSymbolTableRecord
100
AcDbRegAppTableRecord
  2
TVE_B97102509431404
 70
     0
  0
APPID
  5
355CE
330
BC2A
100
AcDbSymbolTableRecord
100
AcDbRegAppTableRecord
  2
TVE_3E7102509433779
 70
     0
  0
APPID
  5
355CF
330
BC2A
100
AcDbSymbolTableRecord
100
AcDbRegAppTableRecord
  2
TVE_3A7102509433790
 70
     0
  0
APPID
  5
355D0
330
BC2A
100
AcDbSymbolTableRecord
100
AcDbRegAppTableRecord
  2
TVE_3B7102509433801
 70
     0
  0
APPID
  5
355D1
330
BC2A
100
AcDbSymbolTableRecord
100
AcDbRegAppTableRecord
  2
TVE_407102509433810
 70
     0
  0
APPID
  5
355D2
330
BC2A
100
AcDbSymbolTableRecord
100
AcDbRegAppTableRecord
  2
TVE_3F7102509433822
 70
     0
  0
APPID
  5
355D3
330
BC2A
100
AcDbSymbolTableRecord
100
AcDbRegAppTableRecord
  2
TVE_3C7102509433833
 70
     0
  0
APPID
  5
355D4
330
BC2A
100
AcDbSymbolTableRecord
100
AcDbRegAppTableRecord
  2
TVE_3D7102509433843
 70
     0
  0
APPID
  5
355D5
330
BC2A
100
AcDbSymbolTableRecord
100
AcDbRegAppTableRecord
  2
TVE_MAIN_TABLE
 70
     0
  0
APPID
  5
355D6
330
BC2A
100
AcDbSymbolTableRecord
100
AcDbRegAppTableRecord
  2
TVE_13D37102509463357
 70
     0
  0
APPID
  5
355D7
330
BC2A
100
AcDbSymbolTableRecord
100
AcDbRegAppTableRecord
  2
TVE_13D27102509463368
 70
     0
  0
APPID
  5
355D8
330
BC2A
100
AcDbSymbolTableRecord
100
AcDbRegAppTableRecord
  2
TVE_13D17102509463379
 70
     0
  0
APPID
  5
355D9
330
BC2A
100
AcDbSymbolTableRecord
100
AcDbRegAppTableRecord
  2
TVE_13D07102509463388
 70
     0
  0
APPID
  5
355DA
330
BC2A
100
AcDbSymbolTableRecord
100
AcDbRegAppTableRecord
  2
TVE_13CF7102509463400
 70
     0
  0
APPID
  5
355DB
330
BC2A
100
AcDbSymbolTableRecord
100
AcDbRegAppTableRecord
  2
TVE_13CE7102509463411
 70
     0
  0
APPID
  5
355DC
330
BC2A
100
AcDbSymbolTableRecord
100
AcDbRegAppTableRecord
  2
TVE_13CD7102509463421
 70
     0
  0
APPID
  5
355DD
330
BC2A
100
AcDbSymbolTableRecord
100
AcDbRegAppTableRecord
  2
TVE_987110714200971
 70
     0
  0
APPID
  5
355DE
330
BC2A
100
AcDbSymbolTableRecord
100
AcDbRegAppTableRecord
  2
TVE_E7110714202571
 70
     0
  0
APPID
  5
355DF
330
BC2A
100
AcDbSymbolTableRecord
100
AcDbRegAppTableRecord
  2
TVE_117110714202584
 70
     0
  0
APPID
  5
355E0
330
BC2A
100
AcDbSymbolTableRecord
100
AcDbRegAppTableRecord
  2
TVE_107110714202596
 70
     0
  0
APPID
  5
355E1
330
BC2A
100
AcDbSymbolTableRecord
100
AcDbRegAppTableRecord
  2
TVE_127110714204990
 70
     0
  0
APPID
  5
355E2
330
BC2A
100
AcDbSymbolTableRecord
100
AcDbRegAppTableRecord
  2
TVE_147110714205003
 70
     0
  0
APPID
  5
355E3
330
BC2A
100
AcDbSymbolTableRecord
100
AcDbRegAppTableRecord
  2
TVE_BA8022721041125
 70
     0
  0
APPID
  5
355E4
330
BC2A
100
AcDbSymbolTableRecord
100
AcDbRegAppTableRecord
  2
TVE_468022721042578
 70
     0
  0
APPID
  5
355E5
330
BC2A
100
AcDbSymbolTableRecord
100
AcDbRegAppTableRecord
  2
TVE_478022721042587
 70
     0
  0
APPID
  5
355E6
330
BC2A
100
AcDbSymbolTableRecord
100
AcDbRegAppTableRecord
  2
TVE_488022721042597
 70
     0
  0
APPID
  5
355E7
330
BC2A
100
AcDbSymbolTableRecord
100
AcDbRegAppTableRecord
  2
TVE_4C8022721043717
 70
     0
  0
APPID
  5
355E8
330
BC2A
100
AcDbSymbolTableRecord
100
AcDbRegAppTableRecord
  2
TVE_4B8022721043726
 70
     0
  0
APPID
  5
355E9
330
BC2A
100
AcDbSymbolTableRecord
100
AcDbRegAppTableRecord
  2
TVE_4A8022721043735
 70
     0
  0
APPID
  5
355EA
330
BC2A
100
AcDbSymbolTableRecord
100
AcDbRegAppTableRecord
  2
TVE_4E8022721044553
 70
     0
  0
APPID
  5
48D24
330
BC2A
100
AcDbSymbolTableRecord
100
AcDbRegAppTableRecord
  2
TVE_9A9081819044809
 70
     0
  0
APPID
  5
48D25
330
BC2A
100
AcDbSymbolTableRecord
100
AcDbRegAppTableRecord
  2
TVE_299081819050265
 70
     0
  0
APPID
  5
48D26
330
BC2A
100
AcDbSymbolTableRecord
100
AcDbRegAppTableRecord
  2
TVE_289081819050272
 70
     0
  0
APPID
  5
48D27
330
BC2A
100
AcDbSymbolTableRecord
100
AcDbRegAppTableRecord
  2
TVE_2A9081819050281
 70
     0
  0
APPID
  5
48D28
330
BC2A
100
AcDbSymbolTableRecord
100
AcDbRegAppTableRecord
  2
TVE_2C9081819050964
 70
     0
  0
APPID
  5
48D29
330
BC2A
100
AcDbSymbolTableRecord
100
AcDbRegAppTableRecord
  2
TVE_2B9081819050972
 70
     0
  0
APPID
  5
48D2A
330
BC2A
100
AcDbSymbolTableRecord
100
AcDbRegAppTableRecord
  2
TVE_2D9081819052358
 70
     0
  0
APPID
  5
48D2B
330
BC2A
100
AcDbSymbolTableRecord
100
AcDbRegAppTableRecord
  2
TVE_319081907585794
 70
     0
  0
APPID
  5
48D2C
330
BC2A
100
AcDbSymbolTableRecord
100
AcDbRegAppTableRecord
  2
TVE_1E79081907590207
 70
     0
  0
APPID
  5
48D2D
330
BC2A
100
AcDbSymbolTableRecord
100
AcDbRegAppTableRecord
  2
TVE_A70022110544887
 70
     0
  0
APPID
  5
48D2E
330
BC2A
100
AcDbSymbolTableRecord
100
AcDbRegAppTableRecord
  2
TVE_3D0022110550351
 70
     0
  0
APPID
  5
48D2F
330
BC2A
100
AcDbSymbolTableRecord
100
AcDbRegAppTableRecord
  2
TVE_3E0022110550370
 70
     0
  0
APPID
  5
48D30
330
BC2A
100
AcDbSymbolTableRecord
100
AcDbRegAppTableRecord
  2
TVE_390022110553865
 70
     0
  0
APPID
  5
48D31
330
BC2A
100
AcDbSymbolTableRecord
100
AcDbRegAppTableRecord
  2
TVE_370022110554328
 70
     0
  0
APPID
  5
48D32
330
BC2A
100
AcDbSymbolTableRecord
100
AcDbRegAppTableRecord
  2
TVE_3C0022110554348
 70
     0
  0
APPID
  5
48D33
330
BC2A
100
AcDbSymbolTableRecord
100
AcDbRegAppTableRecord
  2
TVE_3B0022110554367
 70
     0
  0
APPID
  5
48D34
330
BC2A
100
AcDbSymbolTableRecord
100
AcDbRegAppTableRecord
  2
TVE_350022110554648
 70
     0
  0
APPID
  5
49626
330
BC2A
100
AcDbSymbolTableRecord
100
AcDbRegAppTableRecord
  2
AcadAnnoPO
 70
     0
  0
APPID
  5
49627
330
BC2A
100
AcDbSymbolTableRecord
100
AcDbRegAppTableRecord
  2
AcadAnnotative
 70
     0
  0
APPID
  5
49628
330
BC2A
100
AcDbSymbolTableRecord
100
AcDbRegAppTableRecord
  2
ACAD_DSTYLE_DIMJAG
 70
     0
  0
APPID
  5
49629
330
BC2A
100
AcDbSymbolTableRecord
100
AcDbRegAppTableRecord
  2
ACAD_DSTYLE_DIMTALN
 70
     0
  0
APPID
  5
4962A
330
BC2A
100
AcDbSymbolTableRecord
100
AcDbRegAppTableRecord
  2
ACAD_MLEADERVER
 70
     0
  0
APPID
  5
4CBE0
330
BC2A
100
AcDbSymbolTableRecord
100
AcDbRegAppTableRecord
  2
PIT_PNT
 70
     0
  0
APPID
  5
67F49
330
BC2A
100
AcDbSymbolTableRecord
100
AcDbRegAppTableRecord
  2
ADE
 70
     0
  0
APPID
  5
67F4A
330
BC2A
100
AcDbSymbolTableRecord
100
AcDbRegAppTableRecord
  2
CONTENTBLOCKICON
 70
     0
  0
ENDTAB
  0
TABLE
  2
DIMSTYLE
  5
BC2B
330
0
100
AcDbSymbolTable
 70
     2
100
AcDbDimStyleTable
 71
     2
340
5C59E
340
5D465
  0
DIMSTYLE
105
5C59E
102
{ACAD_REACTORS
330
6A4F4
330
6A50B
330
6A529
330
6A68E
330
6A68F
330
6A747
102
}
330
BC2B
100
AcDbSymbolTableRecord
100
AcDbDimStyleTableRecord
  2
DIM10A
 70
     0
 40
0.1
 41
2.0
 42
20.0
 43
0.0
 44
0.0
 46
11.0
 73
     0
 74
     0
 77
     1
 78
     1
140
20.0
141
1.0
147
5.0
176
   256
177
    30
178
     4
271
     0
272
     0
279
     2
284
     1
285
     1
286
     1
340
22
341
2ED
342
2ED
  0
DIMSTYLE
105
5D465
330
BC2B
100
AcDbSymbolTableRecord
100
AcDbDimStyleTableRecord
  2
LEADER-10
 70
     0
 41
2.0
 42
0.0
 43
0.0
 44
0.0
 46
1.25
 73
     0
 74
     0
 75
     1
 76
     1
 77
     1
140
15.0
141
0.0
143
0.039
145
0.15
147
5.0
178
     4
271
     0
272
     0
279
     2
340
22
  0
ENDTAB
  0
TABLE
  2
BLOCK_RECORD
  5
1
330
0
100
AcDbSymbolTable
 70
    14
  0
BLOCK_RECORD
  5
2
102
{ACAD_XDICTIONARY
360
148D
102
}
330
1
100
AcDbSymbolTableRecord
100
AcDbBlockTableRecord
  2
*Model_Space
340
1491
  0
BLOCK_RECORD
  5
1493
330
1
100
AcDbSymbolTableRecord
100
AcDbBlockTableRecord
  2
*Paper_Space
340
24B5
  0
BLOCK_RECORD
  5
2ED
330
1
100
AcDbSymbolTableRecord
100
AcDbBlockTableRecord
  2
TIC
340
0
102
{BLKREFS
331
6A74C
331
6A74D
331
6A7F4
331
6A7F5
331
6A82D
331
6A82E
331
6A836
331
6A837
331
6A83F
331
6A840
331
6A848
331
6A849
331
6A851
331
6A852
102
}
  0
BLOCK_RECORD
  5
9
330
1
100
AcDbSymbolTableRecord
100
AcDbBlockTableRecord
  2
AVE_RENDER
340
0
102
{BLKREFS
331
3
331
E
331
F
331
10
331
11
331
12
331
13
331
14
102
}
  0
BLOCK_RECORD
  5
16
330
1
100
AcDbSymbolTableRecord
100
AcDbBlockTableRecord
  2
AVE_GLOBAL
340
0
102
{BLKREFS
331
15
102
}
  0
BLOCK_RECORD
  5
13CD7
330
1
100
AcDbSymbolTableRecord
100
AcDbBlockTableRecord
  2
PROJ_NAM
340
0
102
{BLKREFS
331
1439D
331
1454E
331
1457B
331
1457E
331
14581
331
14584
331
14587
331
1458A
331
1458D
331
14590
331
14593
331
14596
331
1459B
331
1459E
331
145A2
331
145A5
331
145A8
331
145AB
331
145AE
331
145B1
331
145B4
331
145B7
331
145BA
331
145BD
331
14EBB
331
1506C
331
15099
331
1509C
331
1509F
331
150A2
331
150A5
331
150A8
331
150AB
331
150AE
331
150B1
331
150B4
331
150B9
331
150BC
331
150C0
331
150C3
331
150C6
331
150C9
331
150CC
331
150CF
331
150D2
331
150D5
331
150D8
331
150DB
102
}
  0
BLOCK_RECORD
  5
13CE3
330
1
100
AcDbSymbolTableRecord
100
AcDbBlockTableRecord
  2
TR_CONF
340
0
102
{BLKREFS
331
14599
331
150B7
102
}
  0
BLOCK_RECORD
  5
56983
330
1
100
AcDbSymbolTableRecord
100
AcDbBlockTableRecord
  2
arbilitaba1
340
0
102
{BLKREFS
331
57071
102
}
  0
BLOCK_RECORD
  5
6400D
330
1
100
AcDbSymbolTableRecord
100
AcDbBlockTableRecord
  2
status
340
0
102
{BLKREFS
331
64014
102
}
  0
BLOCK_RECORD
  5
67D30
330
1
100
AcDbSymbolTableRecord
100
AcDbBlockTableRecord
  2
LOGO
340
0
102
{BLKREFS
331
67D39
102
}
  0
BLOCK_RECORD
  5
6A4F5
330
1
100
AcDbSymbolTableRecord
100
AcDbBlockTableRecord
  2
*D8
340
0
  0
BLOCK_RECORD
  5
6A50C
330
1
100
AcDbSymbolTableRecord
100
AcDbBlockTableRecord
  2
*D9
340
0
  0
BLOCK_RECORD
  5
6A52A
330
1
100
AcDbSymbolTableRecord
100
AcDbBlockTableRecord
  2
*D10
340
0
  0
BLOCK_RECORD
  5
6A699
330
1
100
AcDbSymbolTableRecord
100
AcDbBlockTableRecord
  2
*D11
340
0
  0
BLOCK_RECORD
  5
6A6A5
330
1
100
AcDbSymbolTableRecord
100
AcDbBlockTableRecord
  2
*D12
340
0
  0
BLOCK_RECORD
  5
6A748
330
1
100
AcDbSymbolTableRecord
100
AcDbBlockTableRecord
  2
*D13
340
0
  0
ENDTAB
  0
ENDSEC
  0
SECTION
  2
BLOCKS
  0
BLOCK
  5
148F
330
2
100
AcDbEntity
  8
0
100
AcDbBlockBegin
  2
*Model_Space
 70
     0
 10
0.0
 20
0.0
 30
0.0
  3
*Model_Space
  1

  0
ENDBLK
  5
1490
330
2
100
AcDbEntity
  8
0
100
AcDbBlockEnd
  0
BLOCK
  5
24B3
330
1493
100
AcDbEntity
 67
     1
  8
0
100
AcDbBlockBegin
  2
*Paper_Space
 70
     0
 10
0.0
 20
0.0
 30
0.0
  3
*Paper_Space
  1

  0
ENDBLK
  5
24B4
330
1493
100
AcDbEntity
 67
     1
  8
0
100
AcDbBlockEnd
  0
BLOCK
  5
2F0
330
2ED
100
AcDbEntity
  8
0
100
AcDbBlockBegin
  2
TIC
 70
     0
 10
0.0
 20
0.0
 30
0.0
  3
TIC
  1

  0
LINE
  5
2EE
330
2ED
100
AcDbEntity
  8
0
100
AcDbLine
 10
0.0
 20
-5.0
 30
0.0
 11
0.0
 21
5.0
 31
0.0
  0
LINE
  5
2EF
330
2ED
100
AcDbEntity
  8
0
100
AcDbLine
 10
3.626046755102493
 20
-4.652917982891722
 30
0.0
 11
-3.626046755102493
 21
4.652917982891722
 31
0.0
  0
ENDBLK
  5
2F1
330
2ED
100
AcDbEntity
  8
0
100
AcDbBlockEnd
  0
BLOCK
  5
A
330
9
100
AcDbEntity
  8
ASHADE
100
AcDbBlockBegin
  2
AVE_RENDER
 70
     0
 10
0.0
 20
0.0
 30
0.0
  3
AVE_RENDER
  1
AVE_RENDER
  0
ENDBLK
  5
B
330
9
100
AcDbEntity
  8
0
100
AcDbBlockEnd
  0
BLOCK
  5
17
330
16
100
AcDbEntity
  8
ASHADE
100
AcDbBlockBegin
  2
AVE_GLOBAL
 70
     0
 10
0.0
 20
0.0
 30
0.0
  3
AVE_GLOBAL
  1
AVE_GLOBAL
  0
ENDBLK
  5
18
330
16
100
AcDbEntity
  8
0
100
AcDbBlockEnd
  0
BLOCK
  5
13CD9
330
13CD7
100
AcDbEntity
  8
0
100
AcDbBlockBegin
  2
PROJ_NAM
 70
     2
 10
0.0
 20
0.0
 30
0.0
  3
PROJ_NAM
  1

  0
ATTDEF
  5
13CD8
330
13CD7
100
AcDbEntity
  8
0
100
AcDbText
 10
-0.6999328437764615
 20
0.0000589388950121
 30
0.0
 40
0.2
  1
PROJECTNAME
 72
     1
 11
0.3667338228902052
 21
0.0000589388950121
 31
0.0
100
AcDbAttributeDefinition
  3
NAME
  2
NAME
 70
     1
  0
ENDBLK
  5
13CDA
330
13CD7
100
AcDbEntity
  8
0
100
AcDbBlockEnd
  0
BLOCK
  5
13CE4
330
13CE3
100
AcDbEntity
  8
0
100
AcDbBlockBegin
  2
TR_CONF
 70
     0
 10
0.0
 20
0.0
 30
0.0
  3
TR_CONF
  1

  0
ENDBLK
  5
13CE5
330
13CE3
100
AcDbEntity
  8
0
100
AcDbBlockEnd
  0
BLOCK
  5
569F1
330
56983
100
AcDbEntity
  8
0
100
AcDbBlockBegin
  2
arbilitaba1
 70
     2
 10
0.0
 20
0.0
 30
0.0
  3
arbilitaba1
  1

  0
LINE
  5
56FFC
330
56983
100
AcDbEntity
  8
F1
100
AcDbLine
 10
-100.0
 20
0.0
 30
0.0
 11
-100.0
 21
590.0
 31
0.0
  0
LINE
  5
56FFD
330
56983
100
AcDbEntity
  8
F1
100
AcDbLine
 10
0.0
 20
590.0
 30
0.0
 11
0.0
 21
0.0
 31
0.0
  0
LINE
  5
56FFE
330
56983
100
AcDbEntity
  8
f2
100
AcDbLine
 10
-98.0
 20
35.0
 30
0.0
 11
-98.0
 21
110.0
 31
0.0
  0
LINE
  5
56FFF
330
56983
100
AcDbEntity
  8
f2
100
AcDbLine
 10
-2.0
 20
110.0
 30
0.0
 11
-2.0
 21
35.0
 31
0.0
  0
LINE
  5
57000
330
56983
100
AcDbEntity
  8
f2
100
AcDbLine
 10
-98.0
 20
35.0
 30
0.0
 11
-2.0
 21
35.0
 31
0.0
  0
LINE
  5
57001
330
56983
100
AcDbEntity
  8
F1
100
AcDbLine
 10
-100.0
 20
33.0
 30
0.0
 11
0.0
 21
33.0
 31
0.0
  0
LINE
  5
57002
330
56983
100
AcDbEntity
  8
F1
100
AcDbLine
 10
-100.0
 20
33.0
 30
0.0
 11
0.0
 21
33.0
 31
0.0
  0
LINE
  5
57003
330
56983
100
AcDbEntity
  8
F1
100
AcDbLine
 10
-100.0
 20
22.0
 30
0.0
 11
0.0
 21
22.0
 31
0.0
  0
TEXT
  5
57004
330
56983
100
AcDbEntity
  8
TEXT03
100
AcDbText
 10
-89.90142857142849
 20
26.0
 30
0.0
 40
3.0
  1

  7
ORON
 72
     1
 11
-83.32999999999993
 21
27.5
 31
0.0
100
AcDbText
 73
     2
  0
TEXT
  5
57005
330
56983
100
AcDbEntity
  8
TEXT03
100
AcDbText
 10
-56.35214285714274
 20
26.0
 30
0.0
 40
3.0
  1

  7
ORON
 72
     1
 11
-49.99499999999989
 21
27.5
 31
0.0
100
AcDbText
 73
     2
  0
TEXT
  5
57006
330
56983
100
AcDbEntity
  8
TEXT03
100
AcDbText
 10
-20.73642857142853
 20
26.0
 30
0.0
 40
3.0
  1

  7
ORON
 72
     1
 11
-16.66499999999996
 21
27.5
 31
0.0
100
AcDbText
 73
     2
  0
LINE
  5
57007
330
56983
100
AcDbEntity
  8
F1
100
AcDbLine
 10
-66.66000000000008
 20
33.0
 30
0.0
 11
-66.66000000000008
 21
22.0
 31
0.0
  0
LINE
  5
57008
330
56983
100
AcDbEntity
  8
F1
100
AcDbLine
 10
-33.32999999999993
 20
33.0
 30
0.0
 11
-33.32999999999993
 21
22.0
 31
0.0
  0
LINE
  5
57009
330
56983
100
AcDbEntity
  8
F1
100
AcDbLine
 10
-38.0
 20
231.5639237800933
 30
0.0
 11
-38.0
 21
200.9999999999999
 31
0.0
  0
TEXT
  5
5700A
330
56983
100
AcDbEntity
  8
TEXT03
100
AcDbText
 10
-22.83333333333332
 20
143.0
 30
0.0
 40
2.5
  1
 
  7
ORON
 72
     2
 11
-2.0
 21
143.0
 31
0.0
100
AcDbText
  0
TEXT
  5
5700B
330
56983
100
AcDbEntity
  8
TEXT03
100
AcDbText
 10
-9.809523809523806
 20
114.0
 30
0.0
 40
2.0
  1

  7
ORON
 72
     2
 11
-2.0
 21
114.0
 31
0.0
100
AcDbText
  0
LINE
  5
5700C
330
56983
100
AcDbEntity
  8
f2
100
AcDbLine
 10
-100.0
 20
210.5639237800933
 30
0.0
 11
0.0
 21
210.5639237800933
 31
0.0
  0
LINE
  5
5700D
330
56983
100
AcDbEntity
  8
F1
100
AcDbLine
 10
-100.0
 20
201.0
 30
0.0
 11
0.0
 21
201.0
 31
0.0
  0
LINE
  5
5700E
330
56983
100
AcDbEntity
  8
F1
100
AcDbLine
 10
-100.0
 20
141.0
 30
0.0
 11
0.0
 21
141.0
 31
0.0
  0
LINE
  5
5700F
330
56983
100
AcDbEntity
  8
F1
100
AcDbLine
 10
-100.0
 20
126.0
 30
0.0
 11
0.0
 21
126.0
 31
0.0
  0
LINE
  5
57010
330
56983
100
AcDbEntity
  8
F1
100
AcDbLine
 10
-100.0
 20
112.0
 30
0.0
 11
0.0
 21
112.0
 31
0.0
  0
LINE
  5
57011
330
56983
100
AcDbEntity
  8
f2
100
AcDbLine
 10
-98.0
 20
110.0
 30
0.0
 11
-2.0
 21
110.0
 31
0.0
  0
TEXT
  5
57012
330
56983
100
AcDbEntity
  8
TEXT03
100
AcDbText
 10
-24.11904761904761
 20
204.7264333852519
 30
0.0
 40
2.5
  1

  7
ORON
 72
     4
 11
-19.0
 21
205.5597667185852
 31
0.0
100
AcDbText
  0
TEXT
  5
57013
330
56983
100
AcDbEntity
  8
TEXT03
100
AcDbText
 10
-76.28571428571428
 20
127.9999999999999
 30
0.0
 40
2.0
  1

  7
ORON
 72
     2
 11
-68.0
 21
127.9999999999999
 31
0.0
100
AcDbText
  0
ATTDEF
  5
57014
330
56983
100
AcDbEntity
  8
TEXT03
100
AcDbText
 10
-108.5074770401801
 20
133.4999999999999
 30
0.0
 40
3.0
  1
------
  7
ROMANS
 72
     2
 11
-86.79319132589444
 21
133.4999999999999
 31
0.0
100
AcDbAttributeDefinition
  3
1DATE
  2
1DATE
 70
     0
  0
ATTDEF
  5
57015
330
56983
100
AcDbEntity
  8
TEXT04
100
AcDbText
 10
-51.39320521739033
 20
133.0484381018468
 30
0.0
 40
4.5
  1
----
  7
ROMANS
 72
     2
 11
-29.9646337888189
 21
133.0484381018468
 31
0.0
100
AcDbAttributeDefinition
  3
SCALE ?
  2
SCALE
 70
     0
  0
TEXT
  5
57016
330
56983
100
AcDbEntity
  8
TEXT03
100
AcDbText
 10
-39.52380952380952
 20
114.0
 30
0.0
 40
2.0
  1

  7
ORON
 72
     2
 11
-34.0
 21
114.0
 31
0.0
100
AcDbText
  0
ATTDEF
  5
57017
330
56983
100
AcDbEntity
  8
TEXT03
100
AcDbText
 10
-75.14285714285714
 20
119.0
 30
0.0
 40
2.0
  1
----
  7
ORON
 72
     2
 11
-66.0
 21
119.0
 31
0.0
100
AcDbAttributeDefinition
  3
approved by ?
  2
NAME
 70
     0
  0
ATTDEF
  5
57018
330
56983
100
AcDbEntity
  8
TEXT03
100
AcDbText
 10
-25.14285714285714
 20
119.0
 30
0.0
 40
2.0
  1
----
  7
ORON
 72
     2
 11
-16.0
 21
119.0
 31
0.0
100
AcDbAttributeDefinition
  3
drawn by ?
  2
NAME
 70
     0
  0
TEXT
  5
57019
330
56983
100
AcDbEntity
  8
TEXT03
100
AcDbText
 10
-79.6547619047619
 20
204.7264333852519
 30
0.0
 40
2.5
  1
 
  7
ORON
 72
     4
 11
-69.0
 21
205.5597667185852
 31
0.0
100
AcDbText
  0
LINE
  5
5701A
330
56983
100
AcDbEntity
  8
F1
100
AcDbLine
 10
-66.0
 20
140.9999999999999
 30
0.0
 11
-66.0
 21
125.9999999999999
 31
0.0
  0
LINE
  5
5701B
330
56983
100
AcDbEntity
  8
F1
100
AcDbLine
 10
-32.0
 20
125.9999999999999
 30
0.0
 11
-32.0
 21
112.0
 31
0.0
  0
TEXT
  5
5701C
330
56983
100
AcDbEntity
  8
TEXT03
100
AcDbText
 10
-7.428571428571428
 20
128.0
 30
0.0
 40
2.0
  1
..
  7
ORON
 72
     2
 11
-2.0
 21
128.0
 31
0.0
100
AcDbText
  0
LINE
  5
5701D
330
56983
100
AcDbEntity
  8
F1
100
AcDbLine
 10
-100.0
 20
231.5639237800933
 30
0.0
 11
0.0
 21
231.5639237800933
 31
0.0
  0
LINE
  5
5701E
330
56983
100
AcDbEntity
  8
f2
100
AcDbLine
 10
-82.0
 20
590.0
 30
0.0
 11
-82.0
 21
352.0
 31
0.0
  0
LINE
  5
5701F
330
56983
100
AcDbEntity
  8
f2
100
AcDbLine
 10
-25.0
 20
590.0
 30
0.0
 11
-25.0
 21
352.0
 31
0.0
  0
LINE
  5
57020
330
56983
100
AcDbEntity
  8
f2
100
AcDbLine
 10
-18.0
 20
590.0
 30
0.0
 11
-18.0
 21
352.0
 31
0.0
  0
LINE
  5
57021
330
56983
100
AcDbEntity
  8
f2
100
AcDbLine
 10
-100.0
 20
420.0
 30
0.0
 11
0.0
 21
420.0
 31
0.0
  0
LINE
  5
57022
330
56983
100
AcDbEntity
  8
f2
100
AcDbLine
 10
-100.0
 20
426.0
 30
0.0
 11
0.0
 21
426.0
 31
0.0
  0
TEXT
  5
57023
330
56983
100
AcDbEntity
  8
TEXT03
100
AcDbText
 10
-14.17857142857142
 20
584.6051795684915
 30
0.0
 40
2.5
  1

  7
ORON
 72
     4
 11
-9.0
 21
585.4385129018249
 31
0.0
100
AcDbText
  0
LINE
  5
57024
330
56983
100
AcDbEntity
  8
F1
100
AcDbLine
 10
-100.0
 20
352.0
 30
0.0
 11
0.0
 21
352.0
 31
0.0
  0
LINE
  5
57025
330
56983
100
AcDbEntity
  8
F1
100
AcDbLine
 10
-100.0
 20
360.0
 30
0.0
 11
0.0
 21
360.0
 31
0.0
  0
LINE
  5
57026
330
56983
100
AcDbEntity
  8
F1
100
AcDbLine
 10
-100.0
 20
360.0
 30
0.0
 11
0.0
 21
360.0
 31
0.0
  0
LINE
  5
57027
330
56983
100
AcDbEntity
  8
f2
100
AcDbLine
 10
-100.0
 20
432.0
 30
0.0
 11
0.0
 21
432.0
 31
0.0
  0
LINE
  5
57028
330
56983
100
AcDbEntity
  8
f2
100
AcDbLine
 10
-100.0
 20
438.0
 30
0.0
 11
0.0
 21
438.0
 31
0.0
  0
LINE
  5
57029
330
56983
100
AcDbEntity
  8
f2
100
AcDbLine
 10
-100.0
 20
444.0
 30
0.0
 11
0.0
 21
444.0
 31
0.0
  0
LINE
  5
5702A
330
56983
100
AcDbEntity
  8
f2
100
AcDbLine
 10
-100.0
 20
450.0
 30
0.0
 11
0.0
 21
450.0
 31
0.0
  0
LINE
  5
5702B
330
56983
100
AcDbEntity
  8
f2
100
AcDbLine
 10
-100.0
 20
456.0
 30
0.0
 11
0.0
 21
456.0
 31
0.0
  0
LINE
  5
5702C
330
56983
100
AcDbEntity
  8
f2
100
AcDbLine
 10
-100.0
 20
462.0
 30
0.0
 11
0.0
 21
462.0
 31
0.0
  0
LINE
  5
5702D
330
56983
100
AcDbEntity
  8
f2
100
AcDbLine
 10
-100.0
 20
468.0
 30
0.0
 11
0.0
 21
468.0
 31
0.0
  0
LINE
  5
5702E
330
56983
100
AcDbEntity
  8
f2
100
AcDbLine
 10
-100.0
 20
474.0
 30
0.0
 11
0.0
 21
474.0
 31
0.0
  0
LINE
  5
5702F
330
56983
100
AcDbEntity
  8
f2
100
AcDbLine
 10
-100.0
 20
480.0
 30
0.0
 11
0.0
 21
480.0
 31
0.0
  0
LINE
  5
57030
330
56983
100
AcDbEntity
  8
f2
100
AcDbLine
 10
-100.0
 20
486.0
 30
0.0
 11
0.0
 21
486.0
 31
0.0
  0
LINE
  5
57031
330
56983
100
AcDbEntity
  8
f2
100
AcDbLine
 10
-100.0
 20
492.0
 30
0.0
 11
0.0
 21
492.0
 31
0.0
  0
LINE
  5
57032
330
56983
100
AcDbEntity
  8
f2
100
AcDbLine
 10
-100.0
 20
498.0
 30
0.0
 11
0.0
 21
498.0
 31
0.0
  0
LINE
  5
57033
330
56983
100
AcDbEntity
  8
f2
100
AcDbLine
 10
-100.0
 20
504.0
 30
0.0
 11
0.0
 21
504.0
 31
0.0
  0
LINE
  5
57034
330
56983
100
AcDbEntity
  8
f2
100
AcDbLine
 10
-100.0
 20
510.0
 30
0.0
 11
0.0
 21
510.0
 31
0.0
  0
TEXT
  5
57035
330
56983
100
AcDbEntity
  8
TEXT03
100
AcDbText
 10
-96.11904761904762
 20
584.1885129018248
 30
0.0
 40
2.5
  1

  7
ORON
 72
     4
 11
-91.0
 21
585.4385129018249
 31
0.0
100
AcDbText
  0
TEXT
  5
57036
330
56983
100
AcDbEntity
  8
TEXT03
100
AcDbText
 10
-58.67857142857142
 20
584.1885129018248
 30
0.0
 40
2.5
  1

  7
ORON
 72
     4
 11
-53.5
 21
585.4385129018249
 31
0.0
100
AcDbText
  0
LINE
  5
57037
330
56983
100
AcDbEntity
  8
F1
100
AcDbLine
 10
-100.0
 20
582.0
 30
0.0
 11
0.0
 21
582.0
 31
0.0
  0
TEXT
  5
57038
330
56983
100
AcDbEntity
  8
TEXT03
100
AcDbText
 10
-11.85714285714285
 20
354.2329590448466
 30
0.0
 40
2.5
  1
'
  7
ORON
 72
     4
 11
-9.0
 21
355.7210542829418
 31
0.0
100
AcDbText
  0
LINE
  5
57039
330
56983
100
AcDbEntity
  8
F1
100
AcDbLine
 10
-100.0
 20
590.0
 30
0.0
 11
0.0
 21
590.0
 31
0.0
  0
LINE
  5
5703A
330
56983
100
AcDbEntity
  8
F1
100
AcDbLine
 10
-100.0
 20
590.0
 30
0.0
 11
0.0
 21
590.0
 31
0.0
  0
LINE
  5
5703B
330
56983
100
AcDbEntity
  8
f2
100
AcDbLine
 10
-100.0
 20
540.0
 30
0.0
 11
0.0
 21
540.0
 31
0.0
  0
LINE
  5
5703C
330
56983
100
AcDbEntity
  8
f2
100
AcDbLine
 10
-100.0
 20
534.0
 30
0.0
 11
0.0
 21
534.0
 31
0.0
  0
LINE
  5
5703D
330
56983
100
AcDbEntity
  8
f2
100
AcDbLine
 10
-100.0
 20
528.0
 30
0.0
 11
0.0
 21
528.0
 31
0.0
  0
LINE
  5
5703E
330
56983
100
AcDbEntity
  8
f2
100
AcDbLine
 10
-100.0
 20
522.0
 30
0.0
 11
0.0
 21
522.0
 31
0.0
  0
LINE
  5
5703F
330
56983
100
AcDbEntity
  8
f2
100
AcDbLine
 10
-100.0
 20
516.0
 30
0.0
 11
0.0
 21
516.0
 31
0.0
  0
TEXT
  5
57040
330
56983
100
AcDbEntity
  8
TEXT03
100
AcDbText
 10
-58.38095238095238
 20
354.4710542829418
 30
0.0
 40
2.5
  1

  7
ORON
 72
     4
 11
-53.5
 21
355.7210542829418
 31
0.0
100
AcDbText
  0
TEXT
  5
57041
330
56983
100
AcDbEntity
  8
TEXT03
100
AcDbText
 10
-96.17857142857143
 20
354.8877209496085
 30
0.0
 40
2.5
  1

  7
ORON
 72
     4
 11
-91.0
 21
355.7210542829418
 31
0.0
100
AcDbText
  0
TEXT
  5
57042
330
56983
100
AcDbEntity
  8
TEXT03
100
AcDbText
 10
-82.60902497526865
 20
330.4559247192816
 30
0.0
 40
2.49999975
  1
  ,       .2
 41
0.85
  7
ORON
100
AcDbText
  0
TEXT
  5
57043
330
56983
100
AcDbEntity
  8
TEXT03
100
AcDbText
 10
-86.39225348002662
 20
326.1092286102132
 30
0.0
 40
2.49999975
  1
.  ,     
 41
0.85
  7
ORON
100
AcDbText
  0
TEXT
  5
57044
330
56983
100
AcDbEntity
  8
TEXT03
100
AcDbText
 10
-62.15307290247892
 20
336.8549246248591
 30
0.0
 40
2.49999975
  1
.      .1
 41
0.85
  7
ORON
100
AcDbText
  0
TEXT
  5
57045
330
56983
100
AcDbEntity
  8
TEXT03
100
AcDbText
 10
-13.53231477067402
 20
343.9537878990782
 30
0.0
 40
2.49999975
  1
%%U:
 41
0.85
  7
ORON
100
AcDbText
  0
TEXT
  5
57046
330
56983
100
AcDbEntity
  8
TEXT03
100
AcDbText
 10
-70.4752675748992
 20
319.7572225507778
 30
0.0
 40
2.50125
  1
        .3
 41
0.85
  7
ORON
 72
     4
 11
-36.40764703918486
 21
320.9482939793492
 31
0.0
100
AcDbText
  0
TEXT
  5
57047
330
56983
100
AcDbEntity
  8
TEXT03
100
AcDbText
 10
-98.112130723079
 20
314.9934673843942
 30
0.0
 40
2.50125
  1
    
 41
0.85
  7
ORON
 72
     4
 11
-73.25744768736467
 21
316.1845388129656
 31
0.0
100
AcDbText
  0
TEXT
  5
57048
330
56983
100
AcDbEntity
  8
TEXT03
100
AcDbText
 10
-45.52714028451688
 20
314.9934673843942
 30
0.0
 40
2.50125
  1
  
 41
0.85
  7
ORON
 72
     4
 11
-26.94940367737402
 21
316.1845388129656
 31
0.0
100
AcDbText
  0
LINE
  5
57049
330
56983
100
AcDbEntity
  8
f2
100
AcDbLine
 10
-100.0
 20
384.0
 30
0.0
 11
0.0
 21
384.0
 31
0.0
  0
LINE
  5
5704A
330
56983
100
AcDbEntity
  8
f2
100
AcDbLine
 10
-100.0
 20
390.0
 30
0.0
 11
0.0
 21
390.0
 31
0.0
  0
LINE
  5
5704B
330
56983
100
AcDbEntity
  8
f2
100
AcDbLine
 10
-100.0
 20
396.0
 30
0.0
 11
0.0
 21
396.0
 31
0.0
  0
LINE
  5
5704C
330
56983
100
AcDbEntity
  8
f2
100
AcDbLine
 10
-100.0
 20
402.0
 30
0.0
 11
0.0
 21
402.0
 31
0.0
  0
LINE
  5
5704D
330
56983
100
AcDbEntity
  8
f2
100
AcDbLine
 10
-100.0
 20
408.0
 30
0.0
 11
0.0
 21
408.0
 31
0.0
  0
LINE
  5
5704E
330
56983
100
AcDbEntity
  8
f2
100
AcDbLine
 10
-100.0
 20
414.0
 30
0.0
 11
0.0
 21
414.0
 31
0.0
  0
LINE
  5
5704F
330
56983
100
AcDbEntity
  8
f2
100
AcDbLine
 10
-100.0
 20
366.0
 30
0.0
 11
0.0
 21
366.0
 31
0.0
  0
LINE
  5
57050
330
56983
100
AcDbEntity
  8
f2
100
AcDbLine
 10
-100.0
 20
372.0
 30
0.0
 11
0.0
 21
372.0
 31
0.0
  0
LINE
  5
57051
330
56983
100
AcDbEntity
  8
f2
100
AcDbLine
 10
-100.0
 20
378.0
 30
0.0
 11
0.0
 21
378.0
 31
0.0
  0
LINE
  5
57052
330
56983
100
AcDbEntity
  8
f2
100
AcDbLine
 10
-100.0
 20
546.0
 30
0.0
 11
0.0
 21
546.0
 31
0.0
  0
LINE
  5
57053
330
56983
100
AcDbEntity
  8
f2
100
AcDbLine
 10
-100.0
 20
576.0
 30
0.0
 11
0.0
 21
576.0
 31
0.0
  0
LINE
  5
57054
330
56983
100
AcDbEntity
  8
f2
100
AcDbLine
 10
-100.0
 20
570.0
 30
0.0
 11
0.0
 21
570.0
 31
0.0
  0
LINE
  5
57055
330
56983
100
AcDbEntity
  8
f2
100
AcDbLine
 10
-100.0
 20
564.0
 30
0.0
 11
0.0
 21
564.0
 31
0.0
  0
LINE
  5
57056
330
56983
100
AcDbEntity
  8
f2
100
AcDbLine
 10
-100.0
 20
558.0
 30
0.0
 11
0.0
 21
558.0
 31
0.0
  0
LINE
  5
57057
330
56983
100
AcDbEntity
  8
f2
100
AcDbLine
 10
-100.0
 20
552.0
 30
0.0
 11
0.0
 21
552.0
 31
0.0
  0
LINE
  5
57058
330
56983
100
AcDbEntity
  8
f2
100
AcDbLine
 10
-50.0
 20
22.0
 30
0.0
 11
-50.0
 21
0.0
 31
0.0
  0
LINE
  5
57059
330
56983
100
AcDbEntity
  8
F1
100
AcDbLine
 10
-100.0
 20
0.0
 30
0.0
 11
0.0
 21
0.0
 31
0.0
  0
TEXT
  5
5705A
330
56983
100
AcDbEntity
  8
T3
100
AcDbText
 10
-37.59577170907523
 20
4.5
 30
0.0
 40
2.5
  1
:  
  7
ORON
 72
     2
 11
-2.833866947170463
 21
4.5
 31
0.0
100
AcDbText
  0
LINE
  5
5705B
330
56983
100
AcDbEntity
  8
f2
100
AcDbLine
 10
-100.0
 20
11.0
 30
0.0
 11
0.0
 21
11.0
 31
0.0
  0
LINE
  5
5705C
330
56983
100
AcDbEntity
  8
F1
100
AcDbLine
 10
-100.0
 20
22.0
 30
0.0
 11
0.0
 21
22.0
 31
0.0
  0
ATTDEF
  5
5705D
330
56983
100
AcDbEntity
  8
T3
100
AcDbText
 10
-98.0
 20
15.0
 30
0.0
 40
3.0
  1
----
  7
ORON
 11
-98.0
 21
16.5
 31
0.0
100
AcDbAttributeDefinition
  3
FILE NAME
  2
FILE
 70
     0
 74
     2
  0
TEXT
  5
5705E
330
56983
100
AcDbEntity
  8
T3
100
AcDbText
 10
-22.47672409002761
 20
15.5
 30
0.0
 40
2.5
  1
: 
  7
ORON
 72
     2
 11
-2.833866947170463
 21
15.5
 31
0.0
100
AcDbText
  0
ATTDEF
  5
5705F
330
56983
100
AcDbEntity
  8
TEXT04
100
AcDbText
 10
-28.14285714285714
 20
219.0639237800933
 30
0.0
 40
4.0
  1
----
  7
ORON
 72
     1
 11
-19.0
 21
221.0639237800933
 31
0.0
100
AcDbAttributeDefinition
  3
LOCATION
  2
LOCATION
 70
     0
 74
     2
  0
ATTDEF
  5
57060
330
56983
100
AcDbEntity
  8
TEXT04
100
AcDbText
 10
-80.61904761904761
 20
219.0639237800933
 30
0.0
 40
4.0
  1
-----
  7
ORON
 72
     1
 11
-69.0
 21
221.0639237800933
 31
0.0
100
AcDbAttributeDefinition
  3
PROJNAME
  2
PROJNAME
 70
     0
 74
     2
  0
ATTDEF
  5
57061
330
56983
100
AcDbEntity
  8
TEXT04
100
AcDbText
 10
-59.14285714285714
 20
177.525157634658
 30
0.0
 40
4.0
  1
----
  7
ORON
 72
     1
 11
-50.0
 21
179.5251576346579
 31
0.0
100
AcDbAttributeDefinition
  3
PLANNAME1
  2
PLANNAME1
 70
     0
 74
     2
  0
ATTDEF
  5
57062
330
56983
100
AcDbEntity
  8
TEXT04
100
AcDbText
 10
-59.14285714285714
 20
166.27194905027
 30
0.0
 40
4.0
  1
----
  7
ORON
 72
     1
 11
-50.0
 21
168.27194905027
 31
0.0
100
AcDbAttributeDefinition
  3
PLANNAME2
  2
PLANNAME2
 70
     0
 74
     2
  0
ATTDEF
  5
57063
330
56983
100
AcDbEntity
  8
T3
100
AcDbText
 10
-98.0
 20
4.0
 30
0.0
 40
3.0
  1
----
  7
ORON
 11
-98.0
 21
5.5
 31
0.0
100
AcDbAttributeDefinition
  3
LASTDATE
  2
LASTDATE
 70
     0
 74
     2
  0
TEXT
  5
57064
330
56983
100
AcDbEntity
  8
TEXT04
100
AcDbText
 10
-95.37423675567238
 20
64.14010771222335
 30
0.0
 40
3.5
  1
050-5253590 
 41
0.85
  7
ORON
 72
     4
 11
-71.64507008900573
 21
66.39010771222335
 31
0.0
100
AcDbText
  0
TEXT
  5
57065
330
56983
100
AcDbEntity
  8
TEXT04
100
AcDbText
 10
-41.47858560677103
 20
63.84884738259891
 30
0.0
 40
3.5
  1
04-6399637 
 41
0.85
  7
ORON
 72
     4
 11
-22.99108560677104
 21
66.0988473825989
 31
0.0
100
AcDbText
  0
TEXT
  5
57066
330
56983
100
AcDbEntity
  8
TEXT04
100
AcDbText
 10
-78.50492337431524
 20
71.48038016550008
 30
0.0
 40
3.5
  1
  32  
 41
0.85
  7
ORON
100
AcDbText
  0
TEXT
  5
57067
330
56983
100
AcDbEntity
  8
T1
100
AcDbText
 10
-94.1366389546305
 20
83.76709009913925
 30
0.0
 40
6.0
  1
  
 41
0.8
  7
TOV
100
AcDbText
  0
TEXT
  5
57068
330
56983
100
AcDbEntity
  8
TEXT03
100
AcDbText
 10
-32.43726169598663
 20
284.2855276445039
 30
0.0
 40
2.5
  1
."  "
 41
0.85
  7
ORON
 72
     2
 11
-8.758690267415204
 21
285.5355276445038
 31
0.0
100
AcDbText
 73
     2
  0
TEXT
  5
57069
330
56983
100
AcDbEntity
  8
TEXT03
100
AcDbText
 10
-32.46699119229969
 20
304.0851216527708
 30
0.0
 40
2.5
  1
.  "
 41
0.85
  7
ORON
 72
     2
 11
-8.687229287537775
 21
305.3351216527707
 31
0.0
100
AcDbText
 73
     2
  0
TEXT
  5
5706A
330
56983
100
AcDbEntity
  8
TEXT03
100
AcDbText
 10
-84.566055197453
 20
288.3494499307894
 30
0.0
 40
2.5
  1
" "      " . 6
 41
0.85
  7
ORON
 72
     2
 11
-1.589864721262529
 21
289.5994499307894
 31
0.0
100
AcDbText
 73
     2
  0
TEXT
  5
5706B
330
56983
100
AcDbEntity
  8
TEXT03
100
AcDbText
 10
-40.00093905879386
 20
294.0355276444984
 30
0.0
 40
2.5
  1
.  
 41
0.85
  7
ORON
 72
     2
 11
-8.530700963555773
 21
295.2855276444984
 31
0.0
100
AcDbText
 73
     2
  0
TEXT
  5
5706C
330
56983
100
AcDbEntity
  8
TEXT03
100
AcDbText
 10
-73.33391234031006
 20
298.0994499307805
 30
0.0
 40
2.5
  1
       . 5
 41
0.85
  7
ORON
 72
     2
 11
-1.589864721262529
 21
299.3494499307805
 31
0.0
100
AcDbText
 73
     2
  0
TEXT
  5
5706D
330
56983
100
AcDbEntity
  8
TEXT03
100
AcDbText
 10
-78.4401784703625
 20
308.1490439390563
 30
0.0
 40
2.5
  1
  "       .4
 41
0.85
  7
ORON
 72
     2
 11
-1.737797517981562
 21
309.3990439390563
 31
0.0
100
AcDbText
 73
     2
  0
LINE
  5
5706E
330
56983
100
AcDbEntity
  8
F1
100
AcDbLine
 10
-100.0
 20
188.3392821060439
 30
0.0
 11
0.0
 21
188.3392821060439
 31
0.0
  0
TEXT
  5
5706F
330
56983
100
AcDbEntity
  8
TEXT03
100
AcDbText
 10
-26.38095238095238
 20
194.8053667480157
 30
0.0
 40
2.5
  1
 '
  7
ORON
 72
     4
 11
-19.0
 21
195.9958429384919
 31
0.0
100
AcDbText
  0
ATTDEF
  5
57070
330
56983
100
AcDbEntity
  8
TEXT04
100
AcDbText
 10
-84.53749999999999
 20
191.9656424741358
 30
0.0
 40
5.5
  1
-----
  7
TOV
 72
     1
 11
-69.0
 21
194.7156424741358
 31
0.0
100
AcDbAttributeDefinition
  3
SHEETNO
  2
SHEETNO
 70
     0
 74
     2
  0
ENDBLK
  5
569F2
330
56983
100
AcDbEntity
  8
0
100
AcDbBlockEnd
  0
BLOCK
  5
671AA
330
6400D
100
AcDbEntity
  8
0
100
AcDbBlockBegin
  2
status
 70
     0
 10
0.0
 20
0.0
 30
0.0
  3
status
  1

  0
LWPOLYLINE
  5
671AB
330
6400D
100
AcDbEntity
  8
f2
100
AcDbPolyline
 90
        4
 70
     1
 43
0.0
 10
-0.0000054589836509
 20
-11.0
 10
-0.0000054589836509
 20
0.0
 10
-100.0000054589836
 20
0.0
 10
-100.0000054589836
 20
-11.0
  0
LINE
  5
671AC
330
6400D
100
AcDbEntity
  8
f2
100
AcDbLine
 10
-66.6600054589835
 20
0.0
 30
0.0
 11
-66.6600054589835
 21
-11.0
 31
0.0
  0
LINE
  5
671AD
330
6400D
100
AcDbEntity
  8
f2
100
AcDbLine
 10
-33.33000545898176
 20
0.0
 30
0.0
 11
-33.33000545898176
 21
-11.0
 31
0.0
  0
HATCH
  5
671AE
330
6400D
100
AcDbEntity
  8
f2
100
AcDbHatch
 10
0.0
 20
0.0
 30
0.0
210
0.0
220
0.0
230
1.0
  2
DOTS
 70
     0
 71
     0
 91
        1
 92
        7
 72
     0
 73
     1
 93
        4
 10
-33.32000545898699
 20
0.0000035628975183
 10
-33.32000545898699
 20
-10.99999643710248
 10
0.0099945410147484
 20
-10.99999643710248
 10
0.0099945410147484
 20
0.0000035628975183
 97
        0
 75
     0
 76
     1
 52
0.0
 41
20.0
 77
     1
 78
     1
 53
0.0
 43
-6802.141081457847
 44
-621.6184309221505
 45
0.625
 46
1.25
 79
     2
 49
0.0
 49
-1.25
 47
0.1293070099600591
 98
        1
 10
-13.4780328650886
 20
-2.416983589211213
  0
ENDBLK
  5
671AF
330
6400D
100
AcDbEntity
  8
0
100
AcDbBlockEnd
  0
BLOCK
  5
67D37
330
67D30
100
AcDbEntity
  8
0
100
AcDbBlockBegin
  2
LOGO
 70
     0
 10
0.0
 20
0.0
 30
0.0
  3
LOGO
  1

  0
IMAGE
  5
67D31
330
67D30
100
AcDbEntity
  8
MABAT2
 92
      140
310
8C0000000100000084000000060000000500000010206D455B8441C080DC05EC75683340000000000000000010206D455B8441C0C090BF0CAFC94740000000000000000080CEE43CFA251EC0C090BF0CAFC94740000000000000000080CEE43CFA251EC080DC05EC75683340000000000000000010206D455B8441C080DC05
310
EC756833400000000000000000
100
AcDbRasterImage
 90
        0
 10
-35.03403537586575
 20
19.40804934638117
 30
0.0
 11
0.083832158480675
 21
0.0
 31
0.0
 12
0.0
 22
0.083832158480675
 32
0.0
 13
328.0
 23
336.0
340
67715
 70
     7
280
     0
281
    50
282
    50
283
     0
360
67D32
 71
     1
 91
        2
 14
-0.5
 24
-0.5
 14
327.4999999999999
 24
335.4999999999999
  0
TEXT
  5
67D33
330
67D30
100
AcDbEntity
  8
TEXT03
100
AcDbText
 10
-33.76175186122555
 20
3.167063884164235
 30
0.0
 40
2.0
  1
WWW.TVENT.CO.IL
  7
ORON
 72
     1
 11
-21.28556138503506
 21
4.167063884164235
 31
0.0
100
AcDbText
 73
     2
  0
TEXT
  5
67D34
330
67D30
100
AcDbEntity
  8
TEXT03
100
AcDbText
 10
-33.99984709932078
 20
6.671138069776134
 30
0.0
 40
2.0
  1
1-700-555-876
  7
ORON
 72
     1
 11
-21.28556138503506
 21
7.671138069776134
 31
0.0
100
AcDbText
 73
     2
  0
TEXT
  5
67D35
330
67D30
100
AcDbEntity
  8
TEXT03
100
AcDbText
 10
-39.47603757551124
 20
15.62664599827121
 30
0.0
 40
2.0
  1
  ,-
  7
ORON
 72
     1
 11
-21.28556138503506
 21
16.62664599827121
 31
0.0
100
AcDbText
 73
     2
  0
TEXT
  5
67D36
330
67D30
100
AcDbEntity
  8
TEXT03
100
AcDbText
 10
-31.28556138503507
 20
11.98800647912639
 30
0.0
 40
2.0
  1
 
  7
ORON
 72
     1
 11
-21.28556138503506
 21
12.98800647912639
 31
0.0
100
AcDbText
 73
     2
  0
ENDBLK
  5
67D38
330
67D30
100
AcDbEntity
  8
0
100
AcDbBlockEnd
  0
BLOCK
  5
6A4FF
330
6A4F5
100
AcDbEntity
  8
0
100
AcDbBlockBegin
  2
*D8
 70
     1
 10
0.0
 20
0.0
 30
0.0
  3
*D8
  1

  0
LINE
  5
6A845
330
6A4F5
100
AcDbEntity
  8
DIMH
 62
    30
370
    -2
100
AcDbLine
 10
-82.59519919181732
 20
-100.0651526481619
 30
0.0
 11
-88.39775920541347
 21
-89.76908875830272
 31
0.0
  0
LINE
  5
6A846
330
6A4F5
100
AcDbEntity
  8
DIMH
 62
    30
370
    -2
100
AcDbLine
 10
-57.33107563585112
 20
-85.82703265467719
 30
0.0
 11
-63.13363564944727
 21
-75.53096876481792
 31
0.0
  0
LINE
  5
6A847
330
6A4F5
100
AcDbEntity
  8
DIMH
370
    -2
100
AcDbLine
 10
-88.22352387054472
 20
-89.67089482731315
 30
0.0
 11
-63.30787098431601
 21
-75.62916269580746
 31
0.0
  0
INSERT
  5
6A848
330
6A4F5
100
AcDbEntity
  8
DIMH
370
    -2
100
AcDbBlockReference
  2
TIC
 10
-88.39775920541347
 20
-89.76908875830272
 30
0.0
 41
0.2
 42
0.2
 43
0.2
 50
209.4043341240125
  0
INSERT
  5
6A849
330
6A4F5
100
AcDbEntity
  8
DIMH
370
    -2
100
AcDbBlockReference
  2
TIC
 10
-63.13363564944727
 20
-75.53096876481792
 30
0.0
 41
0.2
 42
0.2
 43
0.2
 50
29.40433412401254
  0
MTEXT
  5
6A84A
330
6A4F5
100
AcDbEntity
  8
DIMH
 62
     4
100
AcDbMText
 10
-76.50215190985199
 20
-81.34326375004482
 30
0.0
 40
2.0
 41
0.0
 71
     5
 72
     1
  1
\A1;{\Fmonosi.shx;30}
  7
MONOSI
 11
0.8711766743436633
 21
0.4909696549477526
 31
0.0
 73
     1
 44
1.0
  0
POINT
  5
6A84B
330
6A4F5
100
AcDbEntity
  8
DEFPOINTS
 62
     0
100
AcDbPoint
 10
-81.6132598819218
 20
-101.8075059968493
 30
0.0
  0
POINT
  5
6A84C
330
6A4F5
100
AcDbEntity
  8
DEFPOINTS
 62
     0
100
AcDbPoint
 10
-56.34913632595561
 20
-87.56938600336452
 30
0.0
  0
POINT
  5
6A84D
330
6A4F5
100
AcDbEntity
  8
DEFPOINTS
 62
     0
100
AcDbPoint
 10
-63.13363564944727
 20
-75.53096876481792
 30
0.0
  0
ENDBLK
  5
6A500
330
6A4F5
100
AcDbEntity
  8
0
100
AcDbBlockEnd
  0
BLOCK
  5
6A516
330
6A50C
100
AcDbEntity
  8
0
100
AcDbBlockBegin
  2
*D9
 70
     1
 10
0.0
 20
0.0
 30
0.0
  3
*D9
  1

  0
LINE
  5
6A82A
330
6A50C
100
AcDbEntity
  8
DIMV
 62
    30
370
    -2
100
AcDbLine
 10
-59.44988897080611
 20
-170.6334371158696
 30
0.0
 11
-58.16446996880927
 21
-170.6334371158696
 31
0.0
  0
LINE
  5
6A82B
330
6A50C
100
AcDbEntity
  8
DIMV
 62
    30
370
    -2
100
AcDbLine
 10
-59.44988897080611
 20
-167.6334371158697
 30
0.0
 11
-58.16446996880927
 21
-167.6334371158697
 31
0.0
  0
LINE
  5
6A82C
330
6A50C
100
AcDbEntity
  8
DIMV
370
    -2
100
AcDbLine
 10
-58.16446996880927
 20
-170.4334371158697
 30
0.0
 11
-58.16446996880927
 21
-167.8334371158696
 31
0.0
  0
INSERT
  5
6A82D
330
6A50C
100
AcDbEntity
  8
DIMV
370
    -2
100
AcDbBlockReference
  2
TIC
 10
-58.16446996880927
 20
-170.6334371158696
 30
0.0
 41
0.2
 42
0.2
 43
0.2
 50
270.0
  0
INSERT
  5
6A82E
330
6A50C
100
AcDbEntity
  8
DIMV
370
    -2
100
AcDbBlockReference
  2
TIC
 10
-58.16446996880927
 20
-167.6334371158697
 30
0.0
 41
0.2
 42
0.2
 43
0.2
 50
90.0
  0
MTEXT
  5
6A82F
330
6A50C
100
AcDbEntity
  8
DIMV
 62
     4
100
AcDbMText
 10
-59.66446996880924
 20
-169.1334371158697
 30
0.0
 40
2.0
 41
0.0
 71
     5
 72
     1
  1
\A1;3
  7
MONOSI
 11
0.0000000000000001
 21
1.0
 31
0.0
 73
     1
 44
1.0
  0
POINT
  5
6A830
330
6A50C
100
AcDbEntity
  8
DEFPOINTS
 62
     0
100
AcDbPoint
 10
-61.44988897080612
 20
-170.6334371158696
 30
0.0
  0
POINT
  5
6A831
330
6A50C
100
AcDbEntity
  8
DEFPOINTS
 62
     0
100
AcDbPoint
 10
-61.44988897080612
 20
-167.6334371158697
 30
0.0
  0
POINT
  5
6A832
330
6A50C
100
AcDbEntity
  8
DEFPOINTS
 62
     0
100
AcDbPoint
 10
-58.16446996880927
 20
-167.6334371158697
 30
0.0
  0
ENDBLK
  5
6A517
330
6A50C
100
AcDbEntity
  8
0
100
AcDbBlockEnd
  0
BLOCK
  5
6A534
330
6A52A
100
AcDbEntity
  8
0
100
AcDbBlockBegin
  2
*D10
 70
     1
 10
0.0
 20
0.0
 30
0.0
  3
*D10
  1

  0
LINE
  5
6A83C
330
6A52A
100
AcDbEntity
  8
DIMH
 62
    30
370
    -2
100
AcDbLine
 10
-171.573608216021
 20
-165.6334371158697
 30
0.0
 11
-171.573608216021
 21
-139.5182322848487
 31
0.0
  0
LINE
  5
6A83D
330
6A52A
100
AcDbEntity
  8
DIMH
 62
    30
370
    -2
100
AcDbLine
 10
-67.11325988192186
 20
-164.1334371158698
 30
0.0
 11
-67.11325988192186
 21
-139.5182322848487
 31
0.0
  0
LINE
  5
6A83E
330
6A52A
100
AcDbEntity
  8
DIMH
370
    -2
100
AcDbLine
 10
-171.373608216021
 20
-139.5182322848487
 30
0.0
 11
-67.31325988192186
 21
-139.5182322848487
 31
0.0
  0
INSERT
  5
6A83F
330
6A52A
100
AcDbEntity
  8
DIMH
370
    -2
100
AcDbBlockReference
  2
TIC
 10
-171.573608216021
 20
-139.5182322848487
 30
0.0
 41
0.2
 42
0.2
 43
0.2
 50
180.0
  0
INSERT
  5
6A840
330
6A52A
100
AcDbEntity
  8
DIMH
370
    -2
100
AcDbBlockReference
  2
TIC
 10
-67.11325988192186
 20
-139.5182322848487
 30
0.0
 41
0.2
 42
0.2
 43
0.2
  0
MTEXT
  5
6A841
330
6A52A
100
AcDbEntity
  8
DIMH
 62
     4
100
AcDbMText
 10
-119.3434340489714
 20
-138.0182322848487
 30
0.0
 40
2.0
 41
0.0
 71
     5
 72
     1
  1
\A1;{\Fmonosi.shx;.}
  7
MONOSI
 73
     1
 44
1.0
  0
POINT
  5
6A842
330
6A52A
100
AcDbEntity
  8
DEFPOINTS
 62
     0
100
AcDbPoint
 10
-171.573608216021
 20
-167.6334371158697
 30
0.0
  0
POINT
  5
6A843
330
6A52A
100
AcDbEntity
  8
DEFPOINTS
 62
     0
100
AcDbPoint
 10
-67.11325988192186
 20
-166.1334371158698
 30
0.0
  0
POINT
  5
6A844
330
6A52A
100
AcDbEntity
  8
DEFPOINTS
 62
     0
100
AcDbPoint
 10
-67.11325988192186
 20
-139.5182322848487
 30
0.0
  0
ENDBLK
  5
6A535
330
6A52A
100
AcDbEntity
  8
0
100
AcDbBlockEnd
  0
BLOCK
  5
6A6A3
330
6A699
100
AcDbEntity
  8
0
100
AcDbBlockBegin
  2
*D11
 70
     1
 10
0.0
 20
0.0
 30
0.0
  3
*D11
  1

  0
LINE
  5
6A833
330
6A699
100
AcDbEntity
  8
DIMV
 62
    30
370
    -2
100
AcDbLine
 10
-74.45383445876756
 20
-50.80061227601269
 30
0.0
 11
-72.46069602315007
 21
-49.79905534663011
 31
0.0
  0
LINE
  5
6A834
330
6A699
100
AcDbEntity
  8
DIMV
 62
    30
370
    -2
100
AcDbLine
 10
-87.92387970140767
 20
-23.99468231338637
 30
0.0
 11
-85.93074126579017
 21
-22.99312538400378
 31
0.0
  0
LINE
  5
6A835
330
6A699
100
AcDbEntity
  8
DIMV
370
    -2
100
AcDbLine
 10
-72.55049632476766
 20
-49.62034914687926
 30
0.0
 11
-85.84094096417258
 21
-23.17183158375463
 31
0.0
  0
INSERT
  5
6A836
330
6A699
100
AcDbEntity
  8
DIMV
370
    -2
100
AcDbBlockReference
  2
TIC
 10
-72.46069602315007
 20
-49.79905534663011
 30
0.0
 41
0.2
 42
0.2
 43
0.2
 50
296.6796397752627
  0
INSERT
  5
6A837
330
6A699
100
AcDbEntity
  8
DIMV
370
    -2
100
AcDbBlockReference
  2
TIC
 10
-85.93074126579017
 20
-22.99312538400378
 30
0.0
 41
0.2
 42
0.2
 43
0.2
 50
116.6796397752627
  0
MTEXT
  5
6A838
330
6A699
100
AcDbEntity
  8
DIMV
 62
     4
100
AcDbMText
 10
-77.85542214633881
 20
-35.72258810318493
 30
0.0
 40
2.0
 41
0.0
 71
     5
 72
     1
  1
\A1;25-30
  7
MONOSI
 11
0.4490015080880038
 21
-0.8935309987542112
 31
0.0
 73
     1
 44
1.0
  0
POINT
  5
6A839
330
6A699
100
AcDbEntity
  8
DEFPOINTS
 62
     0
100
AcDbPoint
 10
-76.24089645627599
 20
-51.6986152921887
 30
0.0
  0
POINT
  5
6A83A
330
6A699
100
AcDbEntity
  8
DEFPOINTS
 62
     0
100
AcDbPoint
 10
-89.7109416989161
 20
-24.89268532956238
 30
0.0
  0
POINT
  5
6A83B
330
6A699
100
AcDbEntity
  8
DEFPOINTS
 62
     0
100
AcDbPoint
 10
-85.93074126579017
 20
-22.99312538400378
 30
0.0
  0
ENDBLK
  5
6A6A4
330
6A699
100
AcDbEntity
  8
0
100
AcDbBlockEnd
  0
BLOCK
  5
6A6AF
330
6A6A5
100
AcDbEntity
  8
0
100
AcDbBlockBegin
  2
*D12
 70
     1
 10
0.0
 20
0.0
 30
0.0
  3
*D12
  1

  0
LINE
  5
6A84E
330
6A6A5
100
AcDbEntity
  8
DIMH
 62
    30
370
    -2
100
AcDbLine
 10
-118.7149230190537
 20
-57.37374238719353
 30
0.0
 11
-117.0368129332613
 21
-60.71324872284652
 31
0.0
  0
LINE
  5
6A84F
330
6A6A5
100
AcDbEntity
  8
DIMH
 62
    30
370
    -2
100
AcDbLine
 10
-72.25131108383447
 20
-34.02566396661763
 30
0.0
 11
-70.57320099804205
 21
-37.36517030227062
 31
0.0
  0
LINE
  5
6A850
330
6A6A5
100
AcDbEntity
  8
DIMH
370
    -2
100
AcDbLine
 10
-116.8581067335105
 20
-60.62344842122893
 30
0.0
 11
-70.7519071977929
 21
-37.45497060388822
 31
0.0
  0
INSERT
  5
6A851
330
6A6A5
100
AcDbEntity
  8
DIMH
370
    -2
100
AcDbBlockReference
  2
TIC
 10
-117.0368129332613
 20
-60.71324872284652
 30
0.0
 41
0.2
 42
0.2
 43
0.2
 50
206.6796397752623
  0
INSERT
  5
6A852
330
6A6A5
100
AcDbEntity
  8
DIMH
370
    -2
100
AcDbBlockReference
  2
TIC
 10
-70.57320099804205
 20
-37.36517030227062
 30
0.0
 41
0.2
 42
0.2
 43
0.2
 50
26.67963977526234
  0
MTEXT
  5
6A853
330
6A6A5
100
AcDbEntity
  8
DIMH
 62
     4
100
AcDbMText
 10
-94.4785092277837
 20
-47.69891301442725
 30
0.0
 40
2.0
 41
0.0
 71
     5
 72
     1
  1
\A1;52
  7
MONOSI
 11
0.8935309987542147
 21
0.4490015080879968
 31
0.0
 73
     1
 44
1.0
  0
POINT
  5
6A854
330
6A6A5
100
AcDbEntity
  8
DEFPOINTS
 62
     0
100
AcDbPoint
 10
-119.6129260352297
 20
-55.5866803896851
 30
0.0
  0
POINT
  5
6A855
330
6A6A5
100
AcDbEntity
  8
DEFPOINTS
 62
     0
100
AcDbPoint
 10
-73.14931410001046
 20
-32.23860196910919
 30
0.0
  0
POINT
  5
6A856
330
6A6A5
100
AcDbEntity
  8
DEFPOINTS
 62
     0
100
AcDbPoint
 10
-70.57320099804205
 20
-37.36517030227062
 30
0.0
  0
ENDBLK
  5
6A6B0
330
6A6A5
100
AcDbEntity
  8
0
100
AcDbBlockEnd
  0
BLOCK
  5
6A752
330
6A748
100
AcDbEntity
  8
0
100
AcDbBlockBegin
  2
*D13
 70
     1
 10
0.0
 20
0.0
 30
0.0
  3
*D13
  1

  0
LINE
  5
6A749
330
6A748
100
AcDbEntity
  8
DIMH
 62
    30
370
    -2
100
AcDbLine
 10
-52.11325988192169
 20
-169.6334371158696
 30
0.0
 11
-52.11325988192169
 21
-175.6825983785397
 31
0.0
  0
LINE
  5
6A74A
330
6A748
100
AcDbEntity
  8
DIMH
 62
    30
370
    -2
100
AcDbLine
 10
-82.11325988192175
 20
-169.6334371158697
 30
0.0
 11
-82.11325988192175
 21
-175.6825983785397
 31
0.0
  0
LINE
  5
6A74B
330
6A748
100
AcDbEntity
  8
DIMH
370
    -2
100
AcDbLine
 10
-52.31325988192169
 20
-175.6825983785397
 30
0.0
 11
-81.91325988192174
 21
-175.6825983785397
 31
0.0
  0
INSERT
  5
6A74C
330
6A748
100
AcDbEntity
  8
DIMH
370
    -2
100
AcDbBlockReference
  2
TIC
 10
-52.11325988192169
 20
-175.6825983785397
 30
0.0
 41
0.2
 42
0.2
 43
0.2
  0
INSERT
  5
6A74D
330
6A748
100
AcDbEntity
  8
DIMH
370
    -2
100
AcDbBlockReference
  2
TIC
 10
-82.11325988192175
 20
-175.6825983785397
 30
0.0
 41
0.2
 42
0.2
 43
0.2
 50
180.0
  0
MTEXT
  5
6A74E
330
6A748
100
AcDbEntity
  8
DIMH
 62
     4
100
AcDbMText
 10
-67.11325988192172
 20
-174.1825983785397
 30
0.0
 40
2.0
 41
0.0
 71
     5
 72
     1
  1
\A1;31
  7
MONOSI
 73
     1
 44
1.0
  0
POINT
  5
6A74F
330
6A748
100
AcDbEntity
  8
DEFPOINTS
 62
     0
100
AcDbPoint
 10
-52.11325988192169
 20
-167.6334371158697
 30
0.0
  0
POINT
  5
6A750
330
6A748
100
AcDbEntity
  8
DEFPOINTS
 62
     0
100
AcDbPoint
 10
-82.11325988192175
 20
-167.6334371158697
 30
0.0
  0
POINT
  5
6A751
330
6A748
100
AcDbEntity
  8
DEFPOINTS
 62
     0
100
AcDbPoint
 10
-82.11325988192175
 20
-175.6825983785397
 30
0.0
  0
ENDBLK
  5
6A753
330
6A748
100
AcDbEntity
  8
0
100
AcDbBlockEnd
  0
ENDSEC
  0
SECTION
  2
ENTITIES
  0
INSERT
  5
3
330
2
100
AcDbEntity
  8
ASHADE
 62
     1
100
AcDbBlockReference
  2
AVE_RENDER
 10
0.0
 20
0.0
 30
0.0
1001
AVE_RENDER
1002
{
1070
     7
1000
Pref
1070
    30
1070
    20
1070
     1
1070
     0
1000

1070
    10
1070
     1
1070
    10
1040
1.0
1070
     1
1040
0.3
1040
0.7
1040
0.0
1040
10.0
1010
-1.0
1020
-1.0
1030
-1.0
1040
0.3
1070
    49
1070
     0
1070
     0
1010
1.0
1020
1.0
1030
1.0
1040
45.0
1070
     1
1070
     0
1000
WCS
1040
0.0
1070
     0
1040
10.0
1002
}
  0
INSERT
  5
E
330
2
100
AcDbEntity
  8
ASHADE
 62
     3
100
AcDbBlockReference
  2
AVE_RENDER
 10
0.0
 20
0.0
 30
0.0
1001
AVE_RENDER
1002
{
1070
     0
1000
Full Opt
1070
     0
1070
     1
1070
     1
1070
     1
1070
     0
1070
     0
1070
     0
1070
     1
1070
     1
1040
0.0001
1040
0.0001
1002
}
  0
INSERT
  5
F
330
2
100
AcDbEntity
  8
ASHADE
 62
     4
100
AcDbBlockReference
  2
AVE_RENDER
 10
0.0
 20
0.0
 30
0.0
1001
AVE_RENDER
1002
{
1070
     0
1000
Quick Opt
1070
     0
1070
     1
1070
     1
1070
     1
1070
     0
1070
     0
1070
     1
1002
}
  0
INSERT
  5
10
330
2
100
AcDbEntity
  8
ASHADE
 62
     5
100
AcDbBlockReference
  2
AVE_RENDER
 10
0.0
 20
0.0
 30
0.0
1001
AVE_RENDER
1002
{
1070
     1
1000
Scanl Opt
1070
     2
1070
     0
1070
     2
1040
2.0
1040
4.0
1070
     0
1070
     1
1070
     0
1040
0.03
1002
}
  0
INSERT
  5
11
330
2
100
AcDbEntity
  8
ASHADE
 62
     6
100
AcDbBlockReference
  2
AVE_RENDER
 10
0.0
 20
0.0
 30
0.0
1001
AVE_RENDER
1002
{
1070
     2
1000
Raytr Opt
1070
     2
1070
     0
1070
     2
1040
2.0
1040
4.0
1070
     0
1070
     1
1070
     1
1040
0.03
1070
     3
1040
0.03
1002
}
  0
INSERT
  5
12
330
2
100
AcDbEntity
  8
ASHADE
 62
     7
100
AcDbBlockReference
  2
AVE_RENDER
 10
0.0
 20
0.0
 30
0.0
1001
AVE_RENDER
1002
{
1070
     0
1000
RFile Opt
1070
     1
1070
   640
1070
   480
1070
 10000
1070
     1
1070
     8
1070
     8
1070
     0
1070
     0
1070
     0
1070
     0
1070
     0
1070
     0
1070
     0
1002
}
  0
INSERT
  5
13
330
2
100
AcDbEntity
  8
ASHADE
 62
     8
100
AcDbBlockReference
  2
AVE_RENDER
 10
0.0
 20
0.0
 30
0.0
1001
AVE_RENDER
1002
{
1070
     0
1000
Fog Opt
1070
     0
1070
     0
1040
0.0
1040
1.0
1040
0.0
1040
1.0
1010
0.5
1020
0.5
1030
0.5
1002
}
  0
INSERT
  5
14
330
2
100
AcDbEntity
  8
ASHADE
 62
     9
100
AcDbBlockReference
  2
AVE_RENDER
 10
0.0
 20
0.0
 30
0.0
1001
AVE_RENDER
1002
{
1070
     0
1000
BG Opt
1070
     0
1070
     1
1010
0.0
1020
0.0
1030
0.0
1010
1.0
1020
0.0
1030
0.0
1010
0.0
1020
1.0
1030
0.0
1010
0.0
1020
0.0
1030
1.0
1040
0.5
1040
0.33
1040
0.0
1000

1070
     1
1000

1070
     1
1070
     1
1040
1.0
1040
1.0
1040
0.0
1040
0.0
1070
     0
1002
}
  0
INSERT
  5
15
330
2
100
AcDbEntity
  8
ASHADE
 62
     1
100
AcDbBlockReference
  2
AVE_GLOBAL
 10
0.0
 20
0.0
 30
0.0
1001
AVE_MATERIAL
1002
{
1000
*GLOBAL*
1000
2
1000
Global finish.
1002
{
1002
}
1002
{
1070
    63
1002
{
1002
{
1010
-1.0
1020
-1.0
1030
-1.0
1002
}
1040
0.1000000014901161
1000

1040
0.0
1002
{
1002
}
1040
0.0
1002
{
1002
}
1040
0.0
1002
}
1002
{
1002
{
1010
-1.0
1020
-1.0
1030
-1.0
1002
}
1040
0.6999999880790711
1000

1040
0.0
1002
{
1002
}
1040
0.0
1002
{
1002
}
1040
0.0
1002
}
1002
{
1002
{
1010
-1.0
1020
-1.0
1030
-1.0
1002
}
1040
0.2000000029802322
1000

1040
0.0
1002
{
1002
}
1040
0.0
1002
{
1002
}
1040
0.0
1002
}
1002
{
1070
     0
1002
{
1070
     1
1002
{
1040
1.0
1040
1.0
1000

1040
0.0
1002
{
1002
}
1040
0.0
1002
{
1002
}
1040
0.0
1002
}
1002
}
1040
1.0
1040
0.0
1040
0.0
1002
}
1002
{
1040
1.0
1040
1.0
1000

1040
0.0
1002
{
1002
}
1040
0.0
1002
{
1002
}
1040
0.0
1002
}
1002
{
1040
0.5
1040
1.0
1000

1040
0.0
1002
{
1002
}
1040
0.0
1002
{
1002
}
1040
0.0
1002
}
1002
{
1070
     0
1040
0.0
1002
{
1002
}
1040
1.0
1002
{
1002
}
1040
0.0
1002
}
1002
{
1040
0.0
1002
{
1002
{
1010
0.0
1020
0.0
1030
0.0
1002
}
1040
1.0
1000

1040
0.0
1002
{
1002
}
1040
0.0
1002
{
1002
}
1040
0.0
1002
}
1002
}
1002
{
1002
{
1070
     1
1002
{
1040
0.0
1040
1.0
1000

1040
0.0
1002
{
1002
}
1040
0.0
1002
{
1002
}
1040
0.0
1002
}
1002
}
1040
0.0
1002
{
1002
}
1010
1.0
1020
0.0
1030
0.0
1010
0.0
1020
1.0
1030
0.0
1010
0.0
1020
0.0
1030
1.0
1070
     0
1002
}
1002
{
1002
{
1040
1.0
1040
1.0
1002
{
1070
     1
1002
{
1040
1.0
1040
1.0
1000

1040
0.0
1002
{
1002
}
1040
0.0
1002
{
1002
}
1040
0.0
1002
}
1002
}
1002
}
1070
     0
1040
0.0
1002
{
1002
}
1002
}
1002
{
1002
}
1002
}
1002
{
1071
        3
1070
     3
1070
     0
1002
{
1070
     2
1070
     0
1070
     0
1040
0.0
1002
}
1070
     0
1070
     2
1002
{
1002
}
1002
}
1002
{
1040
8030.0
1040
190.3000030517578
1040
0.3050000071525574
1040
228.0
1040
545.0
1040
14.0
1040
17.39999961853027
1040
0.4560000002384186
1002
}
1002
}
  0
MTEXT
  5
1A
330
2
100
AcDbEntity
  8
pit233
100
AcDbMText
 10
-61720198.69452241
 20
-39500530.05334247
 30
0.0
 40
0.18
 41
0.0
 71
     1
 72
     1
  1

 11
0.7423872808554428
 21
-0.669970988345064
 31
0.0
 73
     1
 44
1.0
  0
MTEXT
  5
1D
330
2
100
AcDbEntity
  8
pitdimh
100
AcDbMText
 10
5066.46180973722
 20
-8618.08297487448
 30
0.0
 40
0.4499999999999999
 41
0.0
 71
     1
 72
     1
  1

 11
0.7423872808554428
 21
-0.669970988345064
 31
0.0
 73
     1
 44
1.0
  0
MTEXT
  5
1F
330
2
100
AcDbEntity
  8
pitdimh
100
AcDbMText
 10
3756.750247565642
 20
-7694.416054845856
 30
0.0
 40
0.4499999999999999
 41
0.0
 71
     9
 72
     1
  1

 11
0.7423872808554428
 21
-0.669970988345064
 31
0.0
 73
     1
 44
1.0
  0
MTEXT
  5
20
330
2
100
AcDbEntity
  8
0
100
AcDbMText
 10
2899.579316941633
 20
-5252.806840666637
 30
0.0
 40
0.4499999999999999
 41
242.2384999999999
 71
     9
 72
     1
  1

 11
0.7423872808554428
 21
-0.669970988345064
 31
0.0
 73
     1
 44
1.0
  0
MTEXT
  5
21
330
2
100
AcDbEntity
  8
0
100
AcDbMText
 10
3555.607524832323
 20
-7814.189852298305
 30
0.0
 40
37.49999999999999
 41
0.0
 71
     9
 72
     1
  1

  7
MONOSI
 11
0.7423872808554428
 21
-0.669970988345064
 31
0.0
 73
     1
 44
1.0
  0
MTEXT
  5
2CD
330
2
100
AcDbEntity
  8
UP
 62
     4
100
AcDbMText
 10
-6452.242417971778
 20
-6744.128641248622
 30
0.0
 40
15.0
 41
0.0
 71
     9
 72
     1
  1

  7
MONOSI
 73
     1
 44
1.0
  0
MTEXT
  5
92A
330
2
100
AcDbEntity
  8
0
 62
     4
100
AcDbMText
 10
-9081.245691365854
 20
-8251.326955003403
 30
0.0
 40
20.0
 41
0.0
 71
     9
 72
     1
  1

  7
MONOSI
 73
     1
 44
1.0
  0
MTEXT
  5
124E1
330
2
100
AcDbEntity
  8
0
 62
     4
100
AcDbMText
 10
-5004.643845897749
 20
-5871.356187291232
 30
0.0
 40
20.0
 41
0.0
 71
     9
 72
     1
  1

  7
MONOSI
 73
     1
 44
1.0
  0
INSERT
  5
1439D
330
2
100
AcDbEntity
  8
DCA_INFO
100
AcDbBlockReference
 66
     1
  2
PROJ_NAM
 10
199963.0558105743
 20
-708765.3677992169
 30
0.0
 50
31.70789242611182
1001
SDI_SETUP
1070
   305
1040
250.0
1070
   304
1040
50.0
1070
   130
1000
None
1070
   230
1070
     0
1070
   233
1070
     0
1070
   234
1070
     1
1070
   134
1000
None
1070
   330
1040
3.0
1070
   331
1040
50.0
1070
   332
1040
25.0
1070
   333
1040
25.0
1070
   334
1040
25.0
1070
   335
1040
707.0
1070
   336
1040
1000.0
1070
   231
1070
     1
1070
   232
1070
     0
  0
ATTRIB
  5
1439E
330
1439D
100
AcDbEntity
  8
0
100
AcDbText
 10
199963.0720412761
 20
-708765.3577025626
 30
0.0
 40
0.2
  1
5909
 50
31.70789242611182
 72
     1
 11
199963.3677742591
 21
-708765.1749978693
 31
0.0
100
AcDbAttribute
  2
NAME
 70
     1
  0
SEQEND
  5
1439F
330
1439D
100
AcDbEntity
  8
DCA_INFO
  0
INSERT
  5
1454E
330
2
100
AcDbEntity
  8
DCA_INFO
100
AcDbBlockReference
 66
     1
  2
PROJ_NAM
 10
199963.0558105743
 20
-708765.3677992169
 30
0.0
 50
31.70789242611182
1001
SDI_SETUP
1070
   305
1040
250.0
1070
   304
1040
50.0
1070
   130
1000
None
1070
   230
1070
     0
1070
   233
1070
     0
1070
   234
1070
     1
1070
   134
1000
None
1070
   330
1040
3.0
1070
   331
1040
50.0
1070
   332
1040
25.0
1070
   333
1040
25.0
1070
   334
1040
25.0
1070
   335
1040
707.0
1070
   336
1040
1000.0
1070
   231
1070
     1
1070
   232
1070
     0
  0
ATTRIB
  5
1454F
330
1454E
100
AcDbEntity
  8
0
100
AcDbText
 10
199963.0639390026
 20
-708765.3627081706
 30
0.0
 40
0.2
  1
5304
 50
31.70789242611182
 72
     1
 11
199963.3677742591
 21
-708765.1749978693
 31
0.0
100
AcDbAttribute
  2
NAME
 70
     1
  0
SEQEND
  5
14550
330
1454E
100
AcDbEntity
  8
DCA_INFO
  0
INSERT
  5
1457B
330
2
100
AcDbEntity
  8
DCA_INFO
100
AcDbBlockReference
 66
     1
  2
PROJ_NAM
 10
15518.46501974822
 20
-73823.83328587293
 30
0.0
 41
0.0999999999730819
 42
0.0999999999539796
 43
0.1
 50
31.70789239687185
1001
SDI_SETUP
1070
   305
1040
250.0
1070
   304
1040
50.0
1070
   130
1000
None
1070
   230
1070
     0
1070
   233
1070
     0
1070
   234
1070
     1
1070
   134
1000
None
1070
   330
1040
3.0
1070
   331
1040
50.0
1070
   332
1040
25.0
1070
   333
1040
25.0
1070
   334
1040
25.0
1070
   335
1040
707.0
1070
   336
1040
1000.0
1070
   231
1070
     1
1070
   232
1070
     0
  0
ATTRIB
  5
1457C
330
1457B
100
AcDbEntity
  8
0
100
AcDbText
 10
15518.49054452527
 20
-73823.81750966374
 30
0.0
 40
0.02
  1
P
 50
31.70789242611182
 72
     1
 11
15518.49621611673
 21
-73823.81400573811
 31
0.0
100
AcDbAttribute
  2
NAME
 70
     1
  0
SEQEND
  5
1457D
330
1457B
100
AcDbEntity
  8
DCA_INFO
  0
INSERT
  5
1457E
330
2
100
AcDbEntity
  8
DCA_INFO
100
AcDbBlockReference
 66
     1
  2
PROJ_NAM
 10
-6507.364342549265
 20
-28659.01171070778
 30
0.0
 41
0.0999999999730819
 42
0.0999999999539796
 43
0.1
 50
31.70789239687185
1001
SDI_SETUP
1070
   305
1040
250.0
1070
   304
1040
50.0
1070
   130
1000
None
1070
   230
1070
     0
1070
   233
1070
     0
1070
   234
1070
     1
1070
   134
1000
None
1070
   330
1040
3.0
1070
   331
1040
50.0
1070
   332
1040
25.0
1070
   333
1040
25.0
1070
   334
1040
25.0
1070
   335
1040
707.0
1070
   336
1040
1000.0
1070
   231
1070
     1
1070
   232
1070
     0
  0
ATTRIB
  5
1457F
330
1457E
100
AcDbEntity
  8
0
100
AcDbText
 10
-6507.362719479058
 20
-28659.01070104231
 30
0.0
 40
0.02
  1
3966
 50
31.70789242611182
 72
     1
 11
-6507.333146180755
 21
-28658.99243057296
 31
0.0
100
AcDbAttribute
  2
NAME
 70
     1
  0
SEQEND
  5
14580
330
1457E
100
AcDbEntity
  8
DCA_INFO
  0
INSERT
  5
14581
330
2
100
AcDbEntity
  8
DCA_INFO
100
AcDbBlockReference
 66
     1
  2
PROJ_NAM
 10
-6507.364342549265
 20
-28659.01171070778
 30
0.0
 41
0.0999999999730819
 42
0.0999999999539796
 43
0.1
 50
31.70789239687185
  0
ATTRIB
  5
14582
330
14581
100
AcDbEntity
  8
0
100
AcDbText
 10
-6507.362719479058
 20
-28659.01070104231
 30
0.0
 40
0.02
  1
3256
 50
31.70789242611182
 72
     1
 11
-6507.333146180755
 21
-28658.99243057296
 31
0.0
100
AcDbAttribute
  2
NAME
 70
     1
  0
SEQEND
  5
14583
330
14581
100
AcDbEntity
  8
DCA_INFO
  0
INSERT
  5
14584
330
2
100
AcDbEntity
  8
DCA_INFO
100
AcDbBlockReference
 66
     1
  2
PROJ_NAM
 10
-6507.364342549265
 20
-28659.01171070778
 30
0.0
 41
0.0999999999730819
 42
0.0999999999539796
 43
0.1
 50
31.70789239687185
  0
ATTRIB
  5
14585
330
14584
100
AcDbEntity
  8
0
100
AcDbText
 10
-6507.363124592732
 20
-28659.01095132271
 30
0.0
 40
0.02
  1
2982
 50
31.70789242611182
 72
     1
 11
-6507.333146180755
 21
-28658.99243057296
 31
0.0
100
AcDbAttribute
  2
NAME
 70
     1
  0
SEQEND
  5
14586
330
14584
100
AcDbEntity
  8
DCA_INFO
  0
INSERT
  5
14587
330
2
100
AcDbEntity
  8
DCA_INFO
100
AcDbBlockReference
 66
     1
  2
PROJ_NAM
 10
-6507.364342549265
 20
-28659.01171070778
 30
0.0
 41
0.0999999999730819
 42
0.0999999999539796
 43
0.1
 50
31.70789239687185
1001
SDI_SETUP
1070
   305
1040
250.0
1070
   304
1040
50.0
1070
   130
1000
None
1070
   230
1070
     0
1070
   233
1070
     0
1070
   234
1070
     1
1070
   134
1000
None
1070
   330
1040
3.0
1070
   331
1040
50.0
1070
   332
1040
25.0
1070
   333
1040
25.0
1070
   334
1040
25.0
1070
   335
1040
707.0
1070
   336
1040
1000.0
1070
   231
1070
     1
1070
   232
1070
     0
  0
ATTRIB
  5
14588
330
14587
100
AcDbEntity
  8
0
100
AcDbText
 10
-6507.363124592732
 20
-28659.01095132271
 30
0.0
 40
0.02
  1
2982
 50
31.70789242611182
 72
     1
 11
-6507.333146180755
 21
-28658.99243057296
 31
0.0
100
AcDbAttribute
  2
NAME
 70
     1
  0
SEQEND
  5
14589
330
14587
100
AcDbEntity
  8
DCA_INFO
  0
INSERT
  5
1458A
330
2
100
AcDbEntity
  8
DCA_INFO
100
AcDbBlockReference
 66
     1
  2
PROJ_NAM
 10
-6507.364342549265
 20
-28659.01171070778
 30
0.0
 41
0.0999999999730819
 42
0.0999999999539796
 43
0.1
 50
31.70789239687185
1001
SDI_SETUP
1070
   305
1040
250.0
1070
   304
1040
50.0
1070
   130
1000
None
1070
   230
1070
     0
1070
   233
1070
     0
1070
   234
1070
     1
1070
   134
1000
None
1070
   330
1040
3.0
1070
   331
1040
50.0
1070
   332
1040
25.0
1070
   333
1040
25.0
1070
   334
1040
25.0
1070
   335
1040
707.0
1070
   336
1040
1000.0
1070
   231
1070
     1
1070
   232
1070
     0
  0
ATTRIB
  5
1458B
330
1458A
100
AcDbEntity
  8
0
100
AcDbText
 10
-6507.361504138031
 20
-28659.0099502011
 30
0.0
 40
0.02
  1
1365
 50
31.70789242611182
 72
     1
 11
-6507.333146180755
 21
-28658.99243057296
 31
0.0
100
AcDbAttribute
  2
NAME
 70
     1
  0
SEQEND
  5
1458C
330
1458A
100
AcDbEntity
  8
DCA_INFO
  0
INSERT
  5
1458D
330
2
100
AcDbEntity
  8
DCA_INFO
100
AcDbBlockReference
 66
     1
  2
PROJ_NAM
 10
-6507.364342549265
 20
-28659.01171070778
 30
0.0
 41
0.0999999999730819
 42
0.0999999999539796
 43
0.1
 50
31.70789239687185
1001
SDI_SETUP
1070
   305
1040
1250.0
1070
   304
1040
1.0
1070
   130
1000
FRACTION
1070
   230
1070
     0
1070
   233
1070
     0
1070
   234
1070
     1
1070
   134
1000
None
1070
   330
1040
3.0
1070
   331
1040
50.0
1070
   332
1040
25.0
1070
   333
1040
25.0
1070
   334
1040
25.0
1070
   335
1040
594.0
1070
   336
1040
841.0
1070
   231
1070
     0
1070
   232
1070
     0
  0
ATTRIB
  5
1458E
330
1458D
100
AcDbEntity
  8
0
100
AcDbText
 10
-6507.361504138031
 20
-28659.0099502011
 30
0.0
 40
0.02
  1
1480
 50
31.70789242611182
 72
     1
 11
-6507.333146180755
 21
-28658.99243057296
 31
0.0
100
AcDbAttribute
  2
NAME
 70
     1
  0
SEQEND
  5
1458F
330
1458D
100
AcDbEntity
  8
DCA_INFO
  0
INSERT
  5
14590
330
2
100
AcDbEntity
  8
DCA_INFO
100
AcDbBlockReference
 66
     1
  2
PROJ_NAM
 10
-6526.399040967402
 20
-28645.47923686388
 30
0.0
 41
0.0999999999730819
 42
0.0999999999539796
 43
0.1
 50
31.70789239687185
1001
SDI_SETUP
1070
   305
1040
250.0
1070
   304
1040
50.0
1070
   130
1000
None
1070
   230
1070
     0
1070
   233
1070
     0
1070
   234
1070
     1
1070
   134
1000
None
1070
   330
1040
3.0
1070
   331
1040
50.0
1070
   332
1040
25.0
1070
   333
1040
25.0
1070
   334
1040
25.0
1070
   335
1040
707.0
1070
   336
1040
1000.0
1070
   231
1070
     1
1070
   232
1070
     0
  0
ATTRIB
  5
14591
330
14590
100
AcDbEntity
  8
0
100
AcDbText
 10
-6526.396202556168
 20
-28645.47747635733
 30
0.0
 40
0.02
  1
4013
 50
31.70789242611182
 72
     1
 11
-6526.367844598893
 21
-28645.45995672918
 31
0.0
100
AcDbAttribute
  2
NAME
 70
     1
  0
SEQEND
  5
14592
330
14590
100
AcDbEntity
  8
DCA_INFO
  0
INSERT
  5
14593
330
2
100
AcDbEntity
  8
DCA_INFO
100
AcDbBlockReference
 66
     1
  2
PROJ_NAM
 10
-6526.399040967402
 20
-28645.47923686388
 30
0.0
 41
0.0999999999730819
 42
0.0999999999539796
 43
0.1
 50
31.70789239687185
1001
SDI_SETUP
1070
   305
1040
250.0
1070
   304
1040
50.0
1070
   130
1000
None
1070
   230
1070
     0
1070
   233
1070
     0
1070
   234
1070
     1
1070
   134
1000
None
1070
   330
1040
3.0
1070
   331
1040
50.0
1070
   332
1040
25.0
1070
   333
1040
25.0
1070
   334
1040
25.0
1070
   335
1040
707.0
1070
   336
1040
1000.0
1070
   231
1070
     1
1070
   232
1070
     0
  0
ATTRIB
  5
14594
330
14593
100
AcDbEntity
  8
0
100
AcDbText
 10
-6526.397823010869
 20
-28645.47847747893
 30
0.0
 40
0.02
  1
2307
 50
31.70789242611182
 72
     1
 11
-6526.367844598893
 21
-28645.45995672918
 31
0.0
100
AcDbAttribute
  2
NAME
 70
     1
  0
SEQEND
  5
14595
330
14593
100
AcDbEntity
  8
DCA_INFO
  0
INSERT
  5
14596
330
2
100
AcDbEntity
  8
DCA_INFO
100
AcDbBlockReference
 66
     1
  2
PROJ_NAM
 10
-6526.399040967402
 20
-28645.47923686388
 30
0.0
 41
0.0999999999730819
 42
0.0999999999539796
 43
0.1
 50
31.70789239687185
1001
SDI_SETUP
1070
   305
1040
250.0
1070
   304
1040
100.0
1070
   130
1000
None
1070
   230
1070
     1
1070
   233
1070
     0
1070
   234
1070
     1
1070
   134
1000
None
1070
   330
1040
0.000002
1070
   331
1040
0.00005
1070
   332
1040
0.000025
1070
   333
1040
0.000025
1070
   334
1040
0.000025
1070
   335
1040
420.0
1070
   336
1040
594.0
1070
   231
1070
     1
1070
   232
1070
     0
1070
   133
1000
72
  0
ATTRIB
  5
14597
330
14596
100
AcDbEntity
  8
0
100
AcDbText
 10
-6526.395797442493
 20
-28645.47722607692
 30
0.0
 40
0.02
  1
1586
 50
31.70789242611182
 72
     1
 11
-6526.367844598893
 21
-28645.45995672918
 31
0.0
100
AcDbAttribute
  2
NAME
 70
     1
  0
SEQEND
  5
14598
330
14596
100
AcDbEntity
  8
DCA_INFO
  0
INSERT
  5
14599
330
2
100
AcDbEntity
  8
0
100
AcDbBlockReference
 66
     1
  2
TR_CONF
 10
-6526.399040967402
 20
-28645.47923686388
 30
0.0
 41
0.0999999999730819
 42
0.0999999999539796
 43
0.1
 50
31.70789239687185
1001
TR_DXF
1040
1.25
1040
200.0
1040
2.1
1040
0.7
1040
1.8
1040
3.0
1040
3.0
1040
1.5
1040
1250.0
1040
1.0
1040
0.02
1040
0.0
1040
0.0
1040
0.0
1040
3.0
1040
0.001
1000

1000

  0
SEQEND
  5
1459A
330
14599
100
AcDbEntity
  8
0
  0
INSERT
  5
1459B
330
2
100
AcDbEntity
  8
DCA_INFO
100
AcDbBlockReference
 66
     1
  2
PROJ_NAM
 10
-19861.67288780326
 20
-257744.9953517214
 30
0.0
 50
31.70789242611182
1001
SDI_SETUP
1070
   305
1040
250.0
1070
   304
1040
50.0
1070
   130
1000
None
1070
   230
1070
     0
1070
   233
1070
     0
1070
   234
1070
     1
1070
   134
1000
None
1070
   330
1040
3.0
1070
   331
1040
50.0
1070
   332
1040
25.0
1070
   333
1040
25.0
1070
   334
1040
25.0
1070
   335
1040
707.0
1070
   336
1040
1000.0
1070
   231
1070
     1
1070
   232
1070
     0
  0
ATTRIB
  5
1459C
330
1459B
100
AcDbEntity
  8
0
100
AcDbText
 10
-19861.66070823825
 20
-257744.987757871
 30
0.0
 40
0.2
  1
4738
 50
31.70789242611182
 72
     1
 11
-19861.36092411848
 21
-257744.8025503735
 31
0.0
100
AcDbAttribute
  2
NAME
 70
     1
  0
SEQEND
  5
1459D
330
1459B
100
AcDbEntity
  8
DCA_INFO
  0
INSERT
  5
1459E
330
2
100
AcDbEntity
  8
DCA_INFO
100
AcDbBlockReference
 66
     1
  2
PROJ_NAM
 10
-5219.713537885052
 20
-3574.443554093461
 30
0.0
 50
27.26889038819678
1001
SDI_SETUP
1070
   305
1040
250.0
1070
   304
1040
50.0
1070
   130
1000
None
1070
   230
1070
     0
1070
   233
1070
     0
1070
   234
1070
     1
1070
   134
1000
None
1070
   330
1040
3.0
1070
   331
1040
50.0
1070
   332
1040
25.0
1070
   333
1040
25.0
1070
   334
1040
25.0
1070
   335
1040
707.0
1070
   336
1040
1000.0
1070
   231
1070
     1
1070
   232
1070
     0
  0
ATTRIB
  5
1459F
330
1459E
100
AcDbEntity
  8
0
100
AcDbText
 10
-5219.683876325066
 20
-3574.428198702658
 30
0.0
 40
0.2
  1
2153
 50
27.26889038819678
 72
     1
 11
-5219.387587614272
 21
-3574.275476369756
 31
0.0
100
AcDbAttribute
  2
NAME
 70
     1
  0
SEQEND
  5
145A0
330
1459E
100
AcDbEntity
  8
DCA_INFO
  0
TEXT
  5
145A1
330
2
100
AcDbEntity
  8
CTACK
100
AcDbText
 10
-5122.608618858245
 20
-3101.365527215409
 30
0.0
 40
0.4
  1
 
 50
27.26889038819678
  7
SIVAN
 72
     2
 11
-5122.28693397224
 21
-3101.199714396829
 31
0.0
100
AcDbText
  0
INSERT
  5
145A2
330
2
100
AcDbEntity
  8
DCA_INFO
100
AcDbBlockReference
 66
     1
  2
PROJ_NAM
 10
15518.46501974822
 20
-73823.83328587293
 30
0.0
 41
0.0999999999730819
 42
0.0999999999539796
 43
0.1
 50
31.70789239687185
1001
SDI_SETUP
1070
   305
1040
250.0
1070
   304
1040
50.0
1070
   130
1000
None
1070
   230
1070
     0
1070
   233
1070
     0
1070
   234
1070
     1
1070
   134
1000
None
1070
   330
1040
3.0
1070
   331
1040
50.0
1070
   332
1040
25.0
1070
   333
1040
25.0
1070
   334
1040
25.0
1070
   335
1040
707.0
1070
   336
1040
1000.0
1070
   231
1070
     1
1070
   232
1070
     0
  0
ATTRIB
  5
145A3
330
145A2
100
AcDbEntity
  8
0
100
AcDbText
 10
15518.49054452527
 20
-73823.81750966374
 30
0.0
 40
0.02
  1
P
 50
31.70789242611182
 72
     1
 11
15518.49621611673
 21
-73823.81400573811
 31
0.0
100
AcDbAttribute
  2
NAME
 70
     1
  0
SEQEND
  5
145A4
330
145A2
100
AcDbEntity
  8
DCA_INFO
  0
INSERT
  5
145A5
330
2
100
AcDbEntity
  8
DCA_INFO
100
AcDbBlockReference
 66
     1
  2
PROJ_NAM
 10
-6507.364342549265
 20
-28659.01171070778
 30
0.0
 41
0.0999999999730819
 42
0.0999999999539796
 43
0.1
 50
31.70789239687185
1001
SDI_SETUP
1070
   305
1040
250.0
1070
   304
1040
50.0
1070
   130
1000
None
1070
   230
1070
     0
1070
   233
1070
     0
1070
   234
1070
     1
1070
   134
1000
None
1070
   330
1040
3.0
1070
   331
1040
50.0
1070
   332
1040
25.0
1070
   333
1040
25.0
1070
   334
1040
25.0
1070
   335
1040
707.0
1070
   336
1040
1000.0
1070
   231
1070
     1
1070
   232
1070
     0
  0
ATTRIB
  5
145A6
330
145A5
100
AcDbEntity
  8
0
100
AcDbText
 10
-6507.362719479058
 20
-28659.01070104231
 30
0.0
 40
0.02
  1
3966
 50
31.70789242611182
 72
     1
 11
-6507.333146180755
 21
-28658.99243057296
 31
0.0
100
AcDbAttribute
  2
NAME
 70
     1
  0
SEQEND
  5
145A7
330
145A5
100
AcDbEntity
  8
DCA_INFO
  0
INSERT
  5
145A8
330
2
100
AcDbEntity
  8
DCA_INFO
100
AcDbBlockReference
 66
     1
  2
PROJ_NAM
 10
-6507.364342549265
 20
-28659.01171070778
 30
0.0
 41
0.0999999999730819
 42
0.0999999999539796
 43
0.1
 50
31.70789239687185
  0
ATTRIB
  5
145A9
330
145A8
100
AcDbEntity
  8
0
100
AcDbText
 10
-6507.362719479058
 20
-28659.01070104231
 30
0.0
 40
0.02
  1
3256
 50
31.70789242611182
 72
     1
 11
-6507.333146180755
 21
-28658.99243057296
 31
0.0
100
AcDbAttribute
  2
NAME
 70
     1
  0
SEQEND
  5
145AA
330
145A8
100
AcDbEntity
  8
DCA_INFO
  0
INSERT
  5
145AB
330
2
100
AcDbEntity
  8
DCA_INFO
100
AcDbBlockReference
 66
     1
  2
PROJ_NAM
 10
-6507.364342549265
 20
-28659.01171070778
 30
0.0
 41
0.0999999999730819
 42
0.0999999999539796
 43
0.1
 50
31.70789239687185
  0
ATTRIB
  5
145AC
330
145AB
100
AcDbEntity
  8
0
100
AcDbText
 10
-6507.363124592732
 20
-28659.01095132271
 30
0.0
 40
0.02
  1
2982
 50
31.70789242611182
 72
     1
 11
-6507.333146180755
 21
-28658.99243057296
 31
0.0
100
AcDbAttribute
  2
NAME
 70
     1
  0
SEQEND
  5
145AD
330
145AB
100
AcDbEntity
  8
DCA_INFO
  0
INSERT
  5
145AE
330
2
100
AcDbEntity
  8
DCA_INFO
100
AcDbBlockReference
 66
     1
  2
PROJ_NAM
 10
-6507.364342549265
 20
-28659.01171070778
 30
0.0
 41
0.0999999999730819
 42
0.0999999999539796
 43
0.1
 50
31.70789239687185
1001
SDI_SETUP
1070
   305
1040
250.0
1070
   304
1040
50.0
1070
   130
1000
None
1070
   230
1070
     0
1070
   233
1070
     0
1070
   234
1070
     1
1070
   134
1000
None
1070
   330
1040
3.0
1070
   331
1040
50.0
1070
   332
1040
25.0
1070
   333
1040
25.0
1070
   334
1040
25.0
1070
   335
1040
707.0
1070
   336
1040
1000.0
1070
   231
1070
     1
1070
   232
1070
     0
  0
ATTRIB
  5
145AF
330
145AE
100
AcDbEntity
  8
0
100
AcDbText
 10
-6507.363124592732
 20
-28659.01095132271
 30
0.0
 40
0.02
  1
2982
 50
31.70789242611182
 72
     1
 11
-6507.333146180755
 21
-28658.99243057296
 31
0.0
100
AcDbAttribute
  2
NAME
 70
     1
  0
SEQEND
  5
145B0
330
145AE
100
AcDbEntity
  8
DCA_INFO
  0
INSERT
  5
145B1
330
2
100
AcDbEntity
  8
DCA_INFO
100
AcDbBlockReference
 66
     1
  2
PROJ_NAM
 10
-6507.364342549265
 20
-28659.01171070778
 30
0.0
 41
0.0999999999730819
 42
0.0999999999539796
 43
0.1
 50
31.70789239687185
1001
SDI_SETUP
1070
   305
1040
250.0
1070
   304
1040
50.0
1070
   130
1000
None
1070
   230
1070
     0
1070
   233
1070
     0
1070
   234
1070
     1
1070
   134
1000
None
1070
   330
1040
3.0
1070
   331
1040
50.0
1070
   332
1040
25.0
1070
   333
1040
25.0
1070
   334
1040
25.0
1070
   335
1040
707.0
1070
   336
1040
1000.0
1070
   231
1070
     1
1070
   232
1070
     0
  0
ATTRIB
  5
145B2
330
145B1
100
AcDbEntity
  8
0
100
AcDbText
 10
-6507.361504138031
 20
-28659.0099502011
 30
0.0
 40
0.02
  1
1365
 50
31.70789242611182
 72
     1
 11
-6507.333146180755
 21
-28658.99243057296
 31
0.0
100
AcDbAttribute
  2
NAME
 70
     1
  0
SEQEND
  5
145B3
330
145B1
100
AcDbEntity
  8
DCA_INFO
  0
INSERT
  5
145B4
330
2
100
AcDbEntity
  8
DCA_INFO
100
AcDbBlockReference
 66
     1
  2
PROJ_NAM
 10
-6507.364342549265
 20
-28659.01171070778
 30
0.0
 41
0.0999999999730819
 42
0.0999999999539796
 43
0.1
 50
31.70789239687185
1001
SDI_SETUP
1070
   305
1040
1250.0
1070
   304
1040
1.0
1070
   130
1000
FRACTION
1070
   230
1070
     0
1070
   233
1070
     0
1070
   234
1070
     1
1070
   134
1000
None
1070
   330
1040
3.0
1070
   331
1040
50.0
1070
   332
1040
25.0
1070
   333
1040
25.0
1070
   334
1040
25.0
1070
   335
1040
594.0
1070
   336
1040
841.0
1070
   231
1070
     0
1070
   232
1070
     0
  0
ATTRIB
  5
145B5
330
145B4
100
AcDbEntity
  8
0
100
AcDbText
 10
-6507.361504138031
 20
-28659.0099502011
 30
0.0
 40
0.02
  1
1480
 50
31.70789242611182
 72
     1
 11
-6507.333146180755
 21
-28658.99243057296
 31
0.0
100
AcDbAttribute
  2
NAME
 70
     1
  0
SEQEND
  5
145B6
330
145B4
100
AcDbEntity
  8
DCA_INFO
  0
INSERT
  5
145B7
330
2
100
AcDbEntity
  8
DCA_INFO
100
AcDbBlockReference
 66
     1
  2
PROJ_NAM
 10
-6526.399040967402
 20
-28645.47923686388
 30
0.0
 41
0.0999999999730819
 42
0.0999999999539796
 43
0.1
 50
31.70789239687185
1001
SDI_SETUP
1070
   305
1040
250.0
1070
   304
1040
50.0
1070
   130
1000
None
1070
   230
1070
     0
1070
   233
1070
     0
1070
   234
1070
     1
1070
   134
1000
None
1070
   330
1040
3.0
1070
   331
1040
50.0
1070
   332
1040
25.0
1070
   333
1040
25.0
1070
   334
1040
25.0
1070
   335
1040
707.0
1070
   336
1040
1000.0
1070
   231
1070
     1
1070
   232
1070
     0
  0
ATTRIB
  5
145B8
330
145B7
100
AcDbEntity
  8
0
100
AcDbText
 10
-6526.396202556168
 20
-28645.47747635733
 30
0.0
 40
0.02
  1
4013
 50
31.70789242611182
 72
     1
 11
-6526.367844598893
 21
-28645.45995672918
 31
0.0
100
AcDbAttribute
  2
NAME
 70
     1
  0
SEQEND
  5
145B9
330
145B7
100
AcDbEntity
  8
DCA_INFO
  0
INSERT
  5
145BA
330
2
100
AcDbEntity
  8
DCA_INFO
100
AcDbBlockReference
 66
     1
  2
PROJ_NAM
 10
-6526.399040967402
 20
-28645.47923686388
 30
0.0
 41
0.0999999999730819
 42
0.0999999999539796
 43
0.1
 50
31.70789239687185
1001
SDI_SETUP
1070
   305
1040
250.0
1070
   304
1040
50.0
1070
   130
1000
None
1070
   230
1070
     0
1070
   233
1070
     0
1070
   234
1070
     1
1070
   134
1000
None
1070
   330
1040
3.0
1070
   331
1040
50.0
1070
   332
1040
25.0
1070
   333
1040
25.0
1070
   334
1040
25.0
1070
   335
1040
707.0
1070
   336
1040
1000.0
1070
   231
1070
     1
1070
   232
1070
     0
  0
ATTRIB
  5
145BB
330
145BA
100
AcDbEntity
  8
0
100
AcDbText
 10
-6526.397823010869
 20
-28645.47847747893
 30
0.0
 40
0.02
  1
2307
 50
31.70789242611182
 72
     1
 11
-6526.367844598893
 21
-28645.45995672918
 31
0.0
100
AcDbAttribute
  2
NAME
 70
     1
  0
SEQEND
  5
145BC
330
145BA
100
AcDbEntity
  8
DCA_INFO
  0
INSERT
  5
145BD
330
2
100
AcDbEntity
  8
DCA_INFO
100
AcDbBlockReference
 66
     1
  2
PROJ_NAM
 10
-6526.399040967402
 20
-28645.47923686388
 30
0.0
 41
0.0999999999730819
 42
0.0999999999539796
 43
0.1
 50
31.70789239687185
1001
SDI_SETUP
1070
   305
1040
250.0
1070
   304
1040
100.0
1070
   130
1000
None
1070
   230
1070
     1
1070
   233
1070
     0
1070
   234
1070
     1
1070
   134
1000
None
1070
   330
1040
0.000002
1070
   331
1040
0.00005
1070
   332
1040
0.000025
1070
   333
1040
0.000025
1070
   334
1040
0.000025
1070
   335
1040
420.0
1070
   336
1040
594.0
1070
   231
1070
     1
1070
   232
1070
     0
1070
   133
1000
72
  0
ATTRIB
  5
145BE
330
145BD
100
AcDbEntity
  8
0
100
AcDbText
 10
-6526.395797442493
 20
-28645.47722607692
 30
0.0
 40
0.02
  1
1586
 50
31.70789242611182
 72
     1
 11
-6526.367844598893
 21
-28645.45995672918
 31
0.0
100
AcDbAttribute
  2
NAME
 70
     1
  0
SEQEND
  5
145BF
330
145BD
100
AcDbEntity
  8
DCA_INFO
  0
INSERT
  5
14EBB
330
2
100
AcDbEntity
  8
pitDCA_INFO
100
AcDbBlockReference
 66
     1
  2
PROJ_NAM
 10
199963.0558105743
 20
-708765.3677992169
 30
0.0
 50
31.70789242611182
1001
SDI_SETUP
1070
   305
1040
250.0
1070
   304
1040
50.0
1070
   130
1000
None
1070
   230
1070
     0
1070
   233
1070
     0
1070
   234
1070
     1
1070
   134
1000
None
1070
   330
1040
3.0
1070
   331
1040
50.0
1070
   332
1040
25.0
1070
   333
1040
25.0
1070
   334
1040
25.0
1070
   335
1040
707.0
1070
   336
1040
1000.0
1070
   231
1070
     1
1070
   232
1070
     0
  0
ATTRIB
  5
14EBC
330
14EBB
100
AcDbEntity
  8
0
100
AcDbText
 10
199963.0720412761
 20
-708765.3577025626
 30
0.0
 40
0.2
  1
5909
 50
31.70789242611182
 72
     1
 11
199963.3677742591
 21
-708765.1749978693
 31
0.0
100
AcDbAttribute
  2
NAME
 70
     1
  0
SEQEND
  5
14EBD
330
14EBB
100
AcDbEntity
  8
pitDCA_INFO
  0
INSERT
  5
1506C
330
2
100
AcDbEntity
  8
pitDCA_INFO
100
AcDbBlockReference
 66
     1
  2
PROJ_NAM
 10
199963.0558105743
 20
-708765.3677992169
 30
0.0
 50
31.70789242611182
1001
SDI_SETUP
1070
   305
1040
250.0
1070
   304
1040
50.0
1070
   130
1000
None
1070
   230
1070
     0
1070
   233
1070
     0
1070
   234
1070
     1
1070
   134
1000
None
1070
   330
1040
3.0
1070
   331
1040
50.0
1070
   332
1040
25.0
1070
   333
1040
25.0
1070
   334
1040
25.0
1070
   335
1040
707.0
1070
   336
1040
1000.0
1070
   231
1070
     1
1070
   232
1070
     0
  0
ATTRIB
  5
1506D
330
1506C
100
AcDbEntity
  8
0
100
AcDbText
 10
199963.0639390026
 20
-708765.3627081706
 30
0.0
 40
0.2
  1
5304
 50
31.70789242611182
 72
     1
 11
199963.3677742591
 21
-708765.1749978693
 31
0.0
100
AcDbAttribute
  2
NAME
 70
     1
  0
SEQEND
  5
1506E
330
1506C
100
AcDbEntity
  8
pitDCA_INFO
  0
INSERT
  5
15099
330
2
100
AcDbEntity
  8
pitDCA_INFO
100
AcDbBlockReference
 66
     1
  2
PROJ_NAM
 10
15518.46501974822
 20
-73823.83328587293
 30
0.0
 41
0.0999999999730819
 42
0.0999999999539796
 43
0.1
 50
31.70789239687185
1001
SDI_SETUP
1070
   305
1040
250.0
1070
   304
1040
50.0
1070
   130
1000
None
1070
   230
1070
     0
1070
   233
1070
     0
1070
   234
1070
     1
1070
   134
1000
None
1070
   330
1040
3.0
1070
   331
1040
50.0
1070
   332
1040
25.0
1070
   333
1040
25.0
1070
   334
1040
25.0
1070
   335
1040
707.0
1070
   336
1040
1000.0
1070
   231
1070
     1
1070
   232
1070
     0
  0
ATTRIB
  5
1509A
330
15099
100
AcDbEntity
  8
0
100
AcDbText
 10
15518.49054452527
 20
-73823.81750966374
 30
0.0
 40
0.02
  1
P
 50
31.70789242611182
 72
     1
 11
15518.49621611673
 21
-73823.81400573811
 31
0.0
100
AcDbAttribute
  2
NAME
 70
     1
  0
SEQEND
  5
1509B
330
15099
100
AcDbEntity
  8
pitDCA_INFO
  0
INSERT
  5
1509C
330
2
100
AcDbEntity
  8
pitDCA_INFO
100
AcDbBlockReference
 66
     1
  2
PROJ_NAM
 10
-6507.364342549265
 20
-28659.01171070778
 30
0.0
 41
0.0999999999730819
 42
0.0999999999539796
 43
0.1
 50
31.70789239687185
1001
SDI_SETUP
1070
   305
1040
250.0
1070
   304
1040
50.0
1070
   130
1000
None
1070
   230
1070
     0
1070
   233
1070
     0
1070
   234
1070
     1
1070
   134
1000
None
1070
   330
1040
3.0
1070
   331
1040
50.0
1070
   332
1040
25.0
1070
   333
1040
25.0
1070
   334
1040
25.0
1070
   335
1040
707.0
1070
   336
1040
1000.0
1070
   231
1070
     1
1070
   232
1070
     0
  0
ATTRIB
  5
1509D
330
1509C
100
AcDbEntity
  8
0
100
AcDbText
 10
-6507.362719479058
 20
-28659.01070104231
 30
0.0
 40
0.02
  1
3966
 50
31.70789242611182
 72
     1
 11
-6507.333146180755
 21
-28658.99243057296
 31
0.0
100
AcDbAttribute
  2
NAME
 70
     1
  0
SEQEND
  5
1509E
330
1509C
100
AcDbEntity
  8
pitDCA_INFO
  0
INSERT
  5
1509F
330
2
100
AcDbEntity
  8
pitDCA_INFO
100
AcDbBlockReference
 66
     1
  2
PROJ_NAM
 10
-6507.364342549265
 20
-28659.01171070778
 30
0.0
 41
0.0999999999730819
 42
0.0999999999539796
 43
0.1
 50
31.70789239687185
  0
ATTRIB
  5
150A0
330
1509F
100
AcDbEntity
  8
0
100
AcDbText
 10
-6507.362719479058
 20
-28659.01070104231
 30
0.0
 40
0.02
  1
3256
 50
31.70789242611182
 72
     1
 11
-6507.333146180755
 21
-28658.99243057296
 31
0.0
100
AcDbAttribute
  2
NAME
 70
     1
  0
SEQEND
  5
150A1
330
1509F
100
AcDbEntity
  8
pitDCA_INFO
  0
INSERT
  5
150A2
330
2
100
AcDbEntity
  8
pitDCA_INFO
100
AcDbBlockReference
 66
     1
  2
PROJ_NAM
 10
-6507.364342549265
 20
-28659.01171070778
 30
0.0
 41
0.0999999999730819
 42
0.0999999999539796
 43
0.1
 50
31.70789239687185
  0
ATTRIB
  5
150A3
330
150A2
100
AcDbEntity
  8
0
100
AcDbText
 10
-6507.363124592732
 20
-28659.01095132271
 30
0.0
 40
0.02
  1
2982
 50
31.70789242611182
 72
     1
 11
-6507.333146180755
 21
-28658.99243057296
 31
0.0
100
AcDbAttribute
  2
NAME
 70
     1
  0
SEQEND
  5
150A4
330
150A2
100
AcDbEntity
  8
pitDCA_INFO
  0
INSERT
  5
150A5
330
2
100
AcDbEntity
  8
pitDCA_INFO
100
AcDbBlockReference
 66
     1
  2
PROJ_NAM
 10
-6507.364342549265
 20
-28659.01171070778
 30
0.0
 41
0.0999999999730819
 42
0.0999999999539796
 43
0.1
 50
31.70789239687185
1001
SDI_SETUP
1070
   305
1040
250.0
1070
   304
1040
50.0
1070
   130
1000
None
1070
   230
1070
     0
1070
   233
1070
     0
1070
   234
1070
     1
1070
   134
1000
None
1070
   330
1040
3.0
1070
   331
1040
50.0
1070
   332
1040
25.0
1070
   333
1040
25.0
1070
   334
1040
25.0
1070
   335
1040
707.0
1070
   336
1040
1000.0
1070
   231
1070
     1
1070
   232
1070
     0
  0
ATTRIB
  5
150A6
330
150A5
100
AcDbEntity
  8
0
100
AcDbText
 10
-6507.363124592732
 20
-28659.01095132271
 30
0.0
 40
0.02
  1
2982
 50
31.70789242611182
 72
     1
 11
-6507.333146180755
 21
-28658.99243057296
 31
0.0
100
AcDbAttribute
  2
NAME
 70
     1
  0
SEQEND
  5
150A7
330
150A5
100
AcDbEntity
  8
pitDCA_INFO
  0
INSERT
  5
150A8
330
2
100
AcDbEntity
  8
pitDCA_INFO
100
AcDbBlockReference
 66
     1
  2
PROJ_NAM
 10
-6507.364342549265
 20
-28659.01171070778
 30
0.0
 41
0.0999999999730819
 42
0.0999999999539796
 43
0.1
 50
31.70789239687185
1001
SDI_SETUP
1070
   305
1040
250.0
1070
   304
1040
50.0
1070
   130
1000
None
1070
   230
1070
     0
1070
   233
1070
     0
1070
   234
1070
     1
1070
   134
1000
None
1070
   330
1040
3.0
1070
   331
1040
50.0
1070
   332
1040
25.0
1070
   333
1040
25.0
1070
   334
1040
25.0
1070
   335
1040
707.0
1070
   336
1040
1000.0
1070
   231
1070
     1
1070
   232
1070
     0
  0
ATTRIB
  5
150A9
330
150A8
100
AcDbEntity
  8
0
100
AcDbText
 10
-6507.361504138031
 20
-28659.0099502011
 30
0.0
 40
0.02
  1
1365
 50
31.70789242611182
 72
     1
 11
-6507.333146180755
 21
-28658.99243057296
 31
0.0
100
AcDbAttribute
  2
NAME
 70
     1
  0
SEQEND
  5
150AA
330
150A8
100
AcDbEntity
  8
pitDCA_INFO
  0
INSERT
  5
150AB
330
2
100
AcDbEntity
  8
pitDCA_INFO
100
AcDbBlockReference
 66
     1
  2
PROJ_NAM
 10
-6507.364342549265
 20
-28659.01171070778
 30
0.0
 41
0.0999999999730819
 42
0.0999999999539796
 43
0.1
 50
31.70789239687185
1001
SDI_SETUP
1070
   305
1040
1250.0
1070
   304
1040
1.0
1070
   130
1000
FRACTION
1070
   230
1070
     0
1070
   233
1070
     0
1070
   234
1070
     1
1070
   134
1000
None
1070
   330
1040
3.0
1070
   331
1040
50.0
1070
   332
1040
25.0
1070
   333
1040
25.0
1070
   334
1040
25.0
1070
   335
1040
594.0
1070
   336
1040
841.0
1070
   231
1070
     0
1070
   232
1070
     0
  0
ATTRIB
  5
150AC
330
150AB
100
AcDbEntity
  8
0
100
AcDbText
 10
-6507.361504138031
 20
-28659.0099502011
 30
0.0
 40
0.02
  1
1480
 50
31.70789242611182
 72
     1
 11
-6507.333146180755
 21
-28658.99243057296
 31
0.0
100
AcDbAttribute
  2
NAME
 70
     1
  0
SEQEND
  5
150AD
330
150AB
100
AcDbEntity
  8
pitDCA_INFO
  0
INSERT
  5
150AE
330
2
100
AcDbEntity
  8
pitDCA_INFO
100
AcDbBlockReference
 66
     1
  2
PROJ_NAM
 10
-6526.399040967402
 20
-28645.47923686388
 30
0.0
 41
0.0999999999730819
 42
0.0999999999539796
 43
0.1
 50
31.70789239687185
1001
SDI_SETUP
1070
   305
1040
250.0
1070
   304
1040
50.0
1070
   130
1000
None
1070
   230
1070
     0
1070
   233
1070
     0
1070
   234
1070
     1
1070
   134
1000
None
1070
   330
1040
3.0
1070
   331
1040
50.0
1070
   332
1040
25.0
1070
   333
1040
25.0
1070
   334
1040
25.0
1070
   335
1040
707.0
1070
   336
1040
1000.0
1070
   231
1070
     1
1070
   232
1070
     0
  0
ATTRIB
  5
150AF
330
150AE
100
AcDbEntity
  8
0
100
AcDbText
 10
-6526.396202556168
 20
-28645.47747635733
 30
0.0
 40
0.02
  1
4013
 50
31.70789242611182
 72
     1
 11
-6526.367844598893
 21
-28645.45995672918
 31
0.0
100
AcDbAttribute
  2
NAME
 70
     1
  0
SEQEND
  5
150B0
330
150AE
100
AcDbEntity
  8
pitDCA_INFO
  0
INSERT
  5
150B1
330
2
100
AcDbEntity
  8
pitDCA_INFO
100
AcDbBlockReference
 66
     1
  2
PROJ_NAM
 10
-6526.399040967402
 20
-28645.47923686388
 30
0.0
 41
0.0999999999730819
 42
0.0999999999539796
 43
0.1
 50
31.70789239687185
1001
SDI_SETUP
1070
   305
1040
250.0
1070
   304
1040
50.0
1070
   130
1000
None
1070
   230
1070
     0
1070
   233
1070
     0
1070
   234
1070
     1
1070
   134
1000
None
1070
   330
1040
3.0
1070
   331
1040
50.0
1070
   332
1040
25.0
1070
   333
1040
25.0
1070
   334
1040
25.0
1070
   335
1040
707.0
1070
   336
1040
1000.0
1070
   231
1070
     1
1070
   232
1070
     0
  0
ATTRIB
  5
150B2
330
150B1
100
AcDbEntity
  8
0
100
AcDbText
 10
-6526.397823010869
 20
-28645.47847747893
 30
0.0
 40
0.02
  1
2307
 50
31.70789242611182
 72
     1
 11
-6526.367844598893
 21
-28645.45995672918
 31
0.0
100
AcDbAttribute
  2
NAME
 70
     1
  0
SEQEND
  5
150B3
330
150B1
100
AcDbEntity
  8
pitDCA_INFO
  0
INSERT
  5
150B4
330
2
100
AcDbEntity
  8
pitDCA_INFO
100
AcDbBlockReference
 66
     1
  2
PROJ_NAM
 10
-6526.399040967402
 20
-28645.47923686388
 30
0.0
 41
0.0999999999730819
 42
0.0999999999539796
 43
0.1
 50
31.70789239687185
1001
SDI_SETUP
1070
   305
1040
250.0
1070
   304
1040
100.0
1070
   130
1000
None
1070
   230
1070
     1
1070
   233
1070
     0
1070
   234
1070
     1
1070
   134
1000
None
1070
   330
1040
0.000002
1070
   331
1040
0.00005
1070
   332
1040
0.000025
1070
   333
1040
0.000025
1070
   334
1040
0.000025
1070
   335
1040
420.0
1070
   336
1040
594.0
1070
   231
1070
     1
1070
   232
1070
     0
1070
   133
1000
72
  0
ATTRIB
  5
150B5
330
150B4
100
AcDbEntity
  8
0
100
AcDbText
 10
-6526.395797442493
 20
-28645.47722607692
 30
0.0
 40
0.02
  1
1586
 50
31.70789242611182
 72
     1
 11
-6526.367844598893
 21
-28645.45995672918
 31
0.0
100
AcDbAttribute
  2
NAME
 70
     1
  0
SEQEND
  5
150B6
330
150B4
100
AcDbEntity
  8
pitDCA_INFO
  0
INSERT
  5
150B7
330
2
100
AcDbEntity
  8
0
100
AcDbBlockReference
 66
     1
  2
TR_CONF
 10
-6526.399040967402
 20
-28645.47923686388
 30
0.0
 41
0.0999999999730819
 42
0.0999999999539796
 43
0.1
 50
31.70789239687185
1001
TR_DXF
1040
1.25
1040
200.0
1040
2.1
1040
0.7
1040
1.8
1040
3.0
1040
3.0
1040
1.5
1040
1250.0
1040
1.0
1040
0.02
1040
0.0
1040
0.0
1040
0.0
1040
3.0
1040
0.001
1000

1000

  0
SEQEND
  5
150B8
330
150B7
100
AcDbEntity
  8
0
  0
INSERT
  5
150B9
330
2
100
AcDbEntity
  8
pitDCA_INFO
100
AcDbBlockReference
 66
     1
  2
PROJ_NAM
 10
-19861.67288780326
 20
-257744.9953517214
 30
0.0
 50
31.70789242611182
1001
SDI_SETUP
1070
   305
1040
250.0
1070
   304
1040
50.0
1070
   130
1000
None
1070
   230
1070
     0
1070
   233
1070
     0
1070
   234
1070
     1
1070
   134
1000
None
1070
   330
1040
3.0
1070
   331
1040
50.0
1070
   332
1040
25.0
1070
   333
1040
25.0
1070
   334
1040
25.0
1070
   335
1040
707.0
1070
   336
1040
1000.0
1070
   231
1070
     1
1070
   232
1070
     0
  0
ATTRIB
  5
150BA
330
150B9
100
AcDbEntity
  8
0
100
AcDbText
 10
-19861.66070823825
 20
-257744.987757871
 30
0.0
 40
0.2
  1
4738
 50
31.70789242611182
 72
     1
 11
-19861.36092411848
 21
-257744.8025503735
 31
0.0
100
AcDbAttribute
  2
NAME
 70
     1
  0
SEQEND
  5
150BB
330
150B9
100
AcDbEntity
  8
pitDCA_INFO
  0
INSERT
  5
150BC
330
2
100
AcDbEntity
  8
pitDCA_INFO
100
AcDbBlockReference
 66
     1
  2
PROJ_NAM
 10
-5219.713537885052
 20
-3574.443554093461
 30
0.0
 50
27.26889038819678
1001
SDI_SETUP
1070
   305
1040
250.0
1070
   304
1040
50.0
1070
   130
1000
None
1070
   230
1070
     0
1070
   233
1070
     0
1070
   234
1070
     1
1070
   134
1000
None
1070
   330
1040
3.0
1070
   331
1040
50.0
1070
   332
1040
25.0
1070
   333
1040
25.0
1070
   334
1040
25.0
1070
   335
1040
707.0
1070
   336
1040
1000.0
1070
   231
1070
     1
1070
   232
1070
     0
  0
ATTRIB
  5
150BD
330
150BC
100
AcDbEntity
  8
0
100
AcDbText
 10
-5219.683876325066
 20
-3574.428198702658
 30
0.0
 40
0.2
  1
2153
 50
27.26889038819678
 72
     1
 11
-5219.387587614272
 21
-3574.275476369756
 31
0.0
100
AcDbAttribute
  2
NAME
 70
     1
  0
SEQEND
  5
150BE
330
150BC
100
AcDbEntity
  8
pitDCA_INFO
  0
TEXT
  5
150BF
330
2
100
AcDbEntity
  8
pitCTACK
100
AcDbText
 10
-5122.608618858245
 20
-3101.365527215409
 30
0.0
 40
0.4
  1
 
 50
27.26889038819678
  7
SIVAN
 72
     2
 11
-5122.28693397224
 21
-3101.199714396829
 31
0.0
100
AcDbText
  0
INSERT
  5
150C0
330
2
100
AcDbEntity
  8
pitDCA_INFO
100
AcDbBlockReference
 66
     1
  2
PROJ_NAM
 10
15518.46501974822
 20
-73823.83328587293
 30
0.0
 41
0.0999999999730819
 42
0.0999999999539796
 43
0.1
 50
31.70789239687185
1001
SDI_SETUP
1070
   305
1040
250.0
1070
   304
1040
50.0
1070
   130
1000
None
1070
   230
1070
     0
1070
   233
1070
     0
1070
   234
1070
     1
1070
   134
1000
None
1070
   330
1040
3.0
1070
   331
1040
50.0
1070
   332
1040
25.0
1070
   333
1040
25.0
1070
   334
1040
25.0
1070
   335
1040
707.0
1070
   336
1040
1000.0
1070
   231
1070
     1
1070
   232
1070
     0
  0
ATTRIB
  5
150C1
330
150C0
100
AcDbEntity
  8
0
100
AcDbText
 10
15518.49054452527
 20
-73823.81750966374
 30
0.0
 40
0.02
  1
P
 50
31.70789242611182
 72
     1
 11
15518.49621611673
 21
-73823.81400573811
 31
0.0
100
AcDbAttribute
  2
NAME
 70
     1
  0
SEQEND
  5
150C2
330
150C0
100
AcDbEntity
  8
pitDCA_INFO
  0
INSERT
  5
150C3
330
2
100
AcDbEntity
  8
pitDCA_INFO
100
AcDbBlockReference
 66
     1
  2
PROJ_NAM
 10
-6507.364342549265
 20
-28659.01171070778
 30
0.0
 41
0.0999999999730819
 42
0.0999999999539796
 43
0.1
 50
31.70789239687185
1001
SDI_SETUP
1070
   305
1040
250.0
1070
   304
1040
50.0
1070
   130
1000
None
1070
   230
1070
     0
1070
   233
1070
     0
1070
   234
1070
     1
1070
   134
1000
None
1070
   330
1040
3.0
1070
   331
1040
50.0
1070
   332
1040
25.0
1070
   333
1040
25.0
1070
   334
1040
25.0
1070
   335
1040
707.0
1070
   336
1040
1000.0
1070
   231
1070
     1
1070
   232
1070
     0
  0
ATTRIB
  5
150C4
330
150C3
100
AcDbEntity
  8
0
100
AcDbText
 10
-6507.362719479058
 20
-28659.01070104231
 30
0.0
 40
0.02
  1
3966
 50
31.70789242611182
 72
     1
 11
-6507.333146180755
 21
-28658.99243057296
 31
0.0
100
AcDbAttribute
  2
NAME
 70
     1
  0
SEQEND
  5
150C5
330
150C3
100
AcDbEntity
  8
pitDCA_INFO
  0
INSERT
  5
150C6
330
2
100
AcDbEntity
  8
pitDCA_INFO
100
AcDbBlockReference
 66
     1
  2
PROJ_NAM
 10
-6507.364342549265
 20
-28659.01171070778
 30
0.0
 41
0.0999999999730819
 42
0.0999999999539796
 43
0.1
 50
31.70789239687185
  0
ATTRIB
  5
150C7
330
150C6
100
AcDbEntity
  8
0
100
AcDbText
 10
-6507.362719479058
 20
-28659.01070104231
 30
0.0
 40
0.02
  1
3256
 50
31.70789242611182
 72
     1
 11
-6507.333146180755
 21
-28658.99243057296
 31
0.0
100
AcDbAttribute
  2
NAME
 70
     1
  0
SEQEND
  5
150C8
330
150C6
100
AcDbEntity
  8
pitDCA_INFO
  0
INSERT
  5
150C9
330
2
100
AcDbEntity
  8
pitDCA_INFO
100
AcDbBlockReference
 66
     1
  2
PROJ_NAM
 10
-6507.364342549265
 20
-28659.01171070778
 30
0.0
 41
0.0999999999730819
 42
0.0999999999539796
 43
0.1
 50
31.70789239687185
  0
ATTRIB
  5
150CA
330
150C9
100
AcDbEntity
  8
0
100
AcDbText
 10
-6507.363124592732
 20
-28659.01095132271
 30
0.0
 40
0.02
  1
2982
 50
31.70789242611182
 72
     1
 11
-6507.333146180755
 21
-28658.99243057296
 31
0.0
100
AcDbAttribute
  2
NAME
 70
     1
  0
SEQEND
  5
150CB
330
150C9
100
AcDbEntity
  8
pitDCA_INFO
  0
INSERT
  5
150CC
330
2
100
AcDbEntity
  8
pitDCA_INFO
100
AcDbBlockReference
 66
     1
  2
PROJ_NAM
 10
-6507.364342549265
 20
-28659.01171070778
 30
0.0
 41
0.0999999999730819
 42
0.0999999999539796
 43
0.1
 50
31.70789239687185
1001
SDI_SETUP
1070
   305
1040
250.0
1070
   304
1040
50.0
1070
   130
1000
None
1070
   230
1070
     0
1070
   233
1070
     0
1070
   234
1070
     1
1070
   134
1000
None
1070
   330
1040
3.0
1070
   331
1040
50.0
1070
   332
1040
25.0
1070
   333
1040
25.0
1070
   334
1040
25.0
1070
   335
1040
707.0
1070
   336
1040
1000.0
1070
   231
1070
     1
1070
   232
1070
     0
  0
ATTRIB
  5
150CD
330
150CC
100
AcDbEntity
  8
0
100
AcDbText
 10
-6507.363124592732
 20
-28659.01095132271
 30
0.0
 40
0.02
  1
2982
 50
31.70789242611182
 72
     1
 11
-6507.333146180755
 21
-28658.99243057296
 31
0.0
100
AcDbAttribute
  2
NAME
 70
     1
  0
SEQEND
  5
150CE
330
150CC
100
AcDbEntity
  8
pitDCA_INFO
  0
INSERT
  5
150CF
330
2
100
AcDbEntity
  8
pitDCA_INFO
100
AcDbBlockReference
 66
     1
  2
PROJ_NAM
 10
-6507.364342549265
 20
-28659.01171070778
 30
0.0
 41
0.0999999999730819
 42
0.0999999999539796
 43
0.1
 50
31.70789239687185
1001
SDI_SETUP
1070
   305
1040
250.0
1070
   304
1040
50.0
1070
   130
1000
None
1070
   230
1070
     0
1070
   233
1070
     0
1070
   234
1070
     1
1070
   134
1000
None
1070
   330
1040
3.0
1070
   331
1040
50.0
1070
   332
1040
25.0
1070
   333
1040
25.0
1070
   334
1040
25.0
1070
   335
1040
707.0
1070
   336
1040
1000.0
1070
   231
1070
     1
1070
   232
1070
     0
  0
ATTRIB
  5
150D0
330
150CF
100
AcDbEntity
  8
0
100
AcDbText
 10
-6507.361504138031
 20
-28659.0099502011
 30
0.0
 40
0.02
  1
1365
 50
31.70789242611182
 72
     1
 11
-6507.333146180755
 21
-28658.99243057296
 31
0.0
100
AcDbAttribute
  2
NAME
 70
     1
  0
SEQEND
  5
150D1
330
150CF
100
AcDbEntity
  8
pitDCA_INFO
  0
INSERT
  5
150D2
330
2
100
AcDbEntity
  8
pitDCA_INFO
100
AcDbBlockReference
 66
     1
  2
PROJ_NAM
 10
-6507.364342549265
 20
-28659.01171070778
 30
0.0
 41
0.0999999999730819
 42
0.0999999999539796
 43
0.1
 50
31.70789239687185
1001
SDI_SETUP
1070
   305
1040
1250.0
1070
   304
1040
1.0
1070
   130
1000
FRACTION
1070
   230
1070
     0
1070
   233
1070
     0
1070
   234
1070
     1
1070
   134
1000
None
1070
   330
1040
3.0
1070
   331
1040
50.0
1070
   332
1040
25.0
1070
   333
1040
25.0
1070
   334
1040
25.0
1070
   335
1040
594.0
1070
   336
1040
841.0
1070
   231
1070
     0
1070
   232
1070
     0
  0
ATTRIB
  5
150D3
330
150D2
100
AcDbEntity
  8
0
100
AcDbText
 10
-6507.361504138031
 20
-28659.0099502011
 30
0.0
 40
0.02
  1
1480
 50
31.70789242611182
 72
     1
 11
-6507.333146180755
 21
-28658.99243057296
 31
0.0
100
AcDbAttribute
  2
NAME
 70
     1
  0
SEQEND
  5
150D4
330
150D2
100
AcDbEntity
  8
pitDCA_INFO
  0
INSERT
  5
150D5
330
2
100
AcDbEntity
  8
pitDCA_INFO
100
AcDbBlockReference
 66
     1
  2
PROJ_NAM
 10
-6526.399040967402
 20
-28645.47923686388
 30
0.0
 41
0.0999999999730819
 42
0.0999999999539796
 43
0.1
 50
31.70789239687185
1001
SDI_SETUP
1070
   305
1040
250.0
1070
   304
1040
50.0
1070
   130
1000
None
1070
   230
1070
     0
1070
   233
1070
     0
1070
   234
1070
     1
1070
   134
1000
None
1070
   330
1040
3.0
1070
   331
1040
50.0
1070
   332
1040
25.0
1070
   333
1040
25.0
1070
   334
1040
25.0
1070
   335
1040
707.0
1070
   336
1040
1000.0
1070
   231
1070
     1
1070
   232
1070
     0
  0
ATTRIB
  5
150D6
330
150D5
100
AcDbEntity
  8
0
100
AcDbText
 10
-6526.396202556168
 20
-28645.47747635733
 30
0.0
 40
0.02
  1
4013
 50
31.70789242611182
 72
     1
 11
-6526.367844598893
 21
-28645.45995672918
 31
0.0
100
AcDbAttribute
  2
NAME
 70
     1
  0
SEQEND
  5
150D7
330
150D5
100
AcDbEntity
  8
pitDCA_INFO
  0
INSERT
  5
150D8
330
2
100
AcDbEntity
  8
pitDCA_INFO
100
AcDbBlockReference
 66
     1
  2
PROJ_NAM
 10
-6526.399040967402
 20
-28645.47923686388
 30
0.0
 41
0.0999999999730819
 42
0.0999999999539796
 43
0.1
 50
31.70789239687185
1001
SDI_SETUP
1070
   305
1040
250.0
1070
   304
1040
50.0
1070
   130
1000
None
1070
   230
1070
     0
1070
   233
1070
     0
1070
   234
1070
     1
1070
   134
1000
None
1070
   330
1040
3.0
1070
   331
1040
50.0
1070
   332
1040
25.0
1070
   333
1040
25.0
1070
   334
1040
25.0
1070
   335
1040
707.0
1070
   336
1040
1000.0
1070
   231
1070
     1
1070
   232
1070
     0
  0
ATTRIB
  5
150D9
330
150D8
100
AcDbEntity
  8
0
100
AcDbText
 10
-6526.397823010869
 20
-28645.47847747893
 30
0.0
 40
0.02
  1
2307
 50
31.70789242611182
 72
     1
 11
-6526.367844598893
 21
-28645.45995672918
 31
0.0
100
AcDbAttribute
  2
NAME
 70
     1
  0
SEQEND
  5
150DA
330
150D8
100
AcDbEntity
  8
pitDCA_INFO
  0
INSERT
  5
150DB
330
2
100
AcDbEntity
  8
pitDCA_INFO
100
AcDbBlockReference
 66
     1
  2
PROJ_NAM
 10
-6526.399040967402
 20
-28645.47923686388
 30
0.0
 41
0.0999999999730819
 42
0.0999999999539796
 43
0.1
 50
31.70789239687185
1001
SDI_SETUP
1070
   305
1040
250.0
1070
   304
1040
100.0
1070
   130
1000
None
1070
   230
1070
     1
1070
   233
1070
     0
1070
   234
1070
     1
1070
   134
1000
None
1070
   330
1040
0.000002
1070
   331
1040
0.00005
1070
   332
1040
0.000025
1070
   333
1040
0.000025
1070
   334
1040
0.000025
1070
   335
1040
420.0
1070
   336
1040
594.0
1070
   231
1070
     1
1070
   232
1070
     0
1070
   133
1000
72
  0
ATTRIB
  5
150DC
330
150DB
100
AcDbEntity
  8
0
100
AcDbText
 10
-6526.395797442493
 20
-28645.47722607692
 30
0.0
 40
0.02
  1
1586
 50
31.70789242611182
 72
     1
 11
-6526.367844598893
 21
-28645.45995672918
 31
0.0
100
AcDbAttribute
  2
NAME
 70
     1
  0
SEQEND
  5
150DD
330
150DB
100
AcDbEntity
  8
pitDCA_INFO
  0
MTEXT
  5
16D04
330
2
100
AcDbEntity
  8
0
 62
     4
100
AcDbMText
 10
-3219.697727072416
 20
-2784.111636183464
 30
0.0
 40
20.0
 41
0.0
 71
     7
 72
     1
  1

  7
MONOSI
 73
     1
 44
1.0
  0
MTEXT
  5
185B1
330
2
100
AcDbEntity
  8
railm
 62
     4
100
AcDbMText
 10
-21246.0793180018
 20
75.68761986357277
 30
0.0
 40
20.0
 41
0.0
 71
     9
 72
     1
  1

  7
MONOSI
 73
     1
 44
1.0
  0
MTEXT
  5
195DE
330
2
100
AcDbEntity
  8
0
 62
     4
100
AcDbMText
 10
-49983.44263511911
 20
293.1965231125823
 30
0.0
 40
20.0
 41
0.0
 71
     7
 72
     1
  1

  7
MONOSI
 73
     1
 44
1.0
  0
MTEXT
  5
196AC
330
2
100
AcDbEntity
  8
BETON
 62
     4
100
AcDbMText
 10
-50691.65627848764
 20
234.563190772792
 30
0.0
 40
20.0
 41
0.0
 71
     9
 72
     1
  1

  7
MONOSI
 73
     1
 44
1.0
  0
MTEXT
  5
2B62A
330
2
100
AcDbEntity
  8
0
 62
     4
100
AcDbMText
 10
-21583.73385703965
 20
4705.719782104294
 30
0.0
 40
15.0
 41
0.0
 71
     9
 72
     1
  1

  7
MONOSI
 73
     1
 44
1.0
  0
MTEXT
  5
2BC60
330
2
100
AcDbEntity
  8
0
 62
     4
100
AcDbMText
 10
-18261.97070158625
 20
8609.064072192763
 30
0.0
 40
15.0
 41
0.0
 71
     7
 72
     1
  1

  7
MONOSI
 73
     1
 44
1.0
  0
MTEXT
  5
2DCD5
330
2
100
AcDbEntity
  8
0
 62
     4
100
AcDbMText
 10
-18177.49526087584
 20
6902.372654495251
 30
0.0
 40
15.0
 41
0.0
 71
     7
 72
     1
  1

  7
MONOSI
 73
     1
 44
1.0
  0
MTEXT
  5
332B4
330
2
100
AcDbEntity
  8
0
100
AcDbMText
 10
-24898.19720789647
 20
539.7917697814846
 30
0.0
 40
15.0
 41
0.0
 71
     9
 72
     1
  1

  7
MONOSI
 73
     1
 44
1.0
  0
MTEXT
  5
332C4
330
2
100
AcDbEntity
  8
0
100
AcDbMText
 10
-25370.14553679752
 20
6406.433922221811
 30
0.0
 40
15.0
 41
0.0
 71
     7
 72
     1
  1

  7
MONOSI
 73
     1
 44
1.0
  0
TEXT
  5
5CAED
330
2
100
AcDbEntity
  8
None
  6
Continuous
 62
     7
370
     0
100
AcDbText
 10
3998.768746297052
 20
1690.281680970883
 30
0.0
 40
1.264350839843749
  1

  7
Arial (italic)
100
AcDbText
  0
MTEXT
  5
672EC
330
2
100
AcDbEntity
  8
0
 62
     4
100
AcDbMText
 10
413.966623388004
 20
344.58767274219
 30
0.0
 40
15.0
 41
0.0
 71
     9
 72
     1
  1

  7
MONOSI
 73
     1
 44
1.0
  0
LWPOLYLINE
  5
6791A
330
2
100
AcDbEntity
  8
MABAT2
100
AcDbPolyline
 90
        4
 70
     1
 43
0.0
 10
-266.6242834908248
 20
-14.03185910384763
 10
0.0
 20
-14.03185910384763
 10
0.0
 20
-215.7554255700995
 10
-266.6242834908248
 20
-215.7554255700995
  0
TEXT
  5
6791B
330
2
100
AcDbEntity
  8
TEXT04
100
AcDbText
 10
-27.17114718286609
 20
-25.89254060530638
 30
0.0
 40
2.699999999999999
  1
1:10 "
  7
TOV
 72
     2
 11
-3.160812537196761
 21
-24.54254060530638
 31
0.0
100
AcDbText
 73
     2
  0
TEXT
  5
6791C
330
2
100
AcDbEntity
  8
TEXT05
100
AcDbText
 10
-233.4981353718429
 20
-20.80754415399979
 30
0.0
 40
3.1
  1
%%U      TVL-12@ ""   
  7
TOV
 72
     2
 11
-3.160812537196761
 21
-19.25754415399978
 31
0.0
100
AcDbText
 73
     2
  0
INSERT
  5
67D39
330
2
100
AcDbEntity
  8
0
100
AcDbBlockReference
  2
LOGO
 10
0.0
 20
-217.3008586550331
 30
0.0
  0
MTEXT
  5
6800F
330
2
100
AcDbEntity
  8
TIN
100
AcDbMText
 10
-1572.682271784386
 20
666.2532262899174
 30
0.0
 40
0.18
 41
0.0
 71
     6
 72
     1
  1
\A1;
 73
     1
 44
1.0
1001
ACAD
1000
MTEXTBEGIN
1070
    73
1070
     1
1070
    44
1040
1.0
1070
    74
1070
     0
1000
MTEXTEND
  0
MTEXT
  5
68010
330
2
100
AcDbEntity
  8
TIN
100
AcDbMText
 10
-1573.51079837786
 20
643.0904670796356
 30
0.0
 40
0.18
 41
0.0
 71
     6
 72
     1
  1
\A1;
 73
     1
 44
1.0
1001
ACAD
1000
MTEXTBEGIN
1070
    73
1070
     1
1070
    44
1040
1.0
1070
    74
1070
     0
1000
MTEXTEND
  0
MTEXT
  5
68011
330
2
100
AcDbEntity
  8
TIN
100
AcDbMText
 10
827.8993160968541
 20
-122.0275398600883
 30
0.0
 40
0.0432
 41
0.0
 71
     6
 72
     1
  1
\A1;
 73
     1
 44
1.0
1001
ACAD
1000
MTEXTBEGIN
1070
    73
1070
     1
1070
    44
1040
1.0
1070
    74
1070
     0
1000
MTEXTEND
  0
MTEXT
  5
68012
330
2
100
AcDbEntity
  8
TIN
100
AcDbMText
 10
827.7004697144203
 20
-127.5866020705559
 30
0.0
 40
0.0432
 41
0.0
 71
     6
 72
     1
  1
\A1;
 73
     1
 44
1.0
1001
ACAD
1000
MTEXTBEGIN
1070
    73
1070
     1
1070
    44
1040
1.0
1070
    74
1070
     0
1000
MTEXTEND
  0
MTEXT
  5
68013
330
2
100
AcDbEntity
  8
TIN
100
AcDbMText
 10
464.1446936133245
 20
-100.9383455752636
 30
0.0
 40
0.0432
 41
0.0
 71
     6
 72
     1
  1
\A1;
 73
     1
 44
1.0
1001
ACAD
1000
MTEXTBEGIN
1070
    73
1070
     1
1070
    44
1040
1.0
1070
    74
1070
     0
1000
MTEXTEND
  0
MTEXT
  5
68014
330
2
100
AcDbEntity
  8
TIN
100
AcDbMText
 10
463.9458472308907
 20
-106.4974077857311
 30
0.0
 40
0.0432
 41
0.0
 71
     6
 72
     1
  1
\A1;
 73
     1
 44
1.0
1001
ACAD
1000
MTEXTBEGIN
1070
    73
1070
     1
1070
    44
1040
1.0
1070
    74
1070
     0
1000
MTEXTEND
  0
HATCH
  5
68016
330
2
100
AcDbEntity
  8
WOD-HT
  6
HIDDEN
370
    50
100
AcDbHatch
 10
0.0
 20
0.0
 30
0.0
210
0.0
220
0.0
230
1.0
  2
ANSI31
 70
     0
 71
     0
 91
        1
 92
        7
 72
     0
 73
     1
 93
        4
 10
-196.8104153085587
 20
-132.5600195213626
 10
-196.8104153085587
 20
-134.6019644749474
 10
-195.0736082160215
 20
-133.7368138234767
 10
-195.0736082160215
 20
-131.8879503399509
 97
        0
 75
     0
 76
     1
 52
0.0
 41
1.0
 77
     0
 78
     1
 53
45.0
 43
1934.979596771115
 44
-547.9604941435606
 45
-0.0883883476483184
 46
0.0883883476483185
 79
     0
 47
0.0175053931136098
 98
        1
 10
-195.895547266095
 20
-132.6989286830455
  0
HATCH
  5
68018
330
2
100
AcDbEntity
  8
WOD-HT
370
    50
100
AcDbHatch
 10
0.0
 20
0.0
 30
0.0
210
0.0
220
0.0
230
1.0
  2
ANSI31
 70
     0
 71
     1
 91
        1
 92
        1
 93
        4
 72
     1
 10
-225.0697199899382
 20
-136.5108651056041
 11
-220.7155077655929
 21
-134.0530539034641
 72
     1
 10
-220.7155077655929
 20
-134.0530539034641
 11
-219.4866021645229
 21
-136.2301600156367
 72
     1
 10
-219.4866021645229
 20
-136.2301600156367
 11
-223.8408143888682
 21
-138.6879712177767
 72
     1
 10
-223.8408143888682
 20
-138.6879712177767
 11
-225.0697199899382
 21
-136.5108651056041
 97
        1
330
68041
 75
     0
 76
     1
 52
47.44331491972115
 41
4.0
 77
     0
 78
     1
 53
92.44331491972078
 43
875.7621791697438
 44
-707.5500361828887
 45
-0.4995454435517131
 46
-0.0213154832626978
 79
     0
 98
        1
 10
875.7621791697438
 20
-707.5500361828887
  0
HATCH
  5
68019
330
2
100
AcDbEntity
  8
WOD-HT
370
    50
100
AcDbHatch
 10
0.0
 20
0.0
 30
0.0
210
0.0
220
0.0
230
1.0
  2
ANSI31
 70
     0
 71
     1
 91
        1
 92
        1
 93
        4
 72
     1
 10
-194.7983251867867
 20
-119.7103308292505
 11
-190.4441129624419
 21
-117.2525196271105
 72
     1
 10
-190.4441129624419
 20
-117.2525196271105
 11
-189.215207361372
 21
-119.4296257392832
 72
     1
 10
-189.215207361372
 20
-119.4296257392832
 11
-193.5694195857172
 21
-121.8874369414231
 72
     1
 10
-193.5694195857172
 20
-121.8874369414231
 11
-194.7983251867867
 21
-119.7103308292505
 97
        1
330
68043
 75
     0
 76
     1
 52
47.44331491972115
 41
4.0
 77
     0
 78
     1
 53
92.44331491972076
 43
906.033573972895
 44
-690.7495019065351
 45
-0.4995454435517131
 46
-0.0213154832626978
 79
     0
 98
        1
 10
906.033573972895
 20
-690.7495019065351
  0
HATCH
  5
6801A
330
2
100
AcDbEntity
  8
WOD-HT
370
    50
100
AcDbHatch
 10
0.0
 20
0.0
 30
0.0
210
0.0
220
0.0
230
1.0
  2
ANSI31
 70
     0
 71
     1
 91
        1
 92
        1
 93
        4
 72
     1
 10
-164.7411742798351
 20
-102.7980237547353
 11
-160.3869620554903
 21
-100.3402125525953
 72
     1
 10
-160.3869620554903
 20
-100.3402125525953
 11
-159.1580564544199
 21
-102.5173186647679
 72
     1
 10
-159.1580564544199
 20
-102.5173186647679
 11
-163.5122686787652
 21
-104.9751298669079
 72
     1
 10
-163.5122686787652
 20
-104.9751298669079
 11
-164.7411742798351
 21
-102.7980237547353
 97
        1
330
68044
 75
     0
 76
     1
 52
47.44331491972115
 41
4.0
 77
     0
 78
     1
 53
92.44331491972076
 43
936.0907248798469
 44
-673.8371948320199
 45
-0.4995454435517131
 46
-0.0213154832626978
 79
     0
 98
        1
 10
936.0907248798469
 20
-673.8371948320199
  0
HATCH
  5
6801C
330
2
100
AcDbEntity
  8
HATCH
370
    50
100
AcDbHatch
 10
0.0
 20
0.0
 30
0.0
210
0.0
220
0.0
230
1.0
  2
ANSI31
 70
     0
 71
     1
 91
        1
 92
        1
 93
       36
 72
     2
 10
-166.3712924856879
 20
-100.6049835286053
 40
0.1000000000002685
 50
65.92551571382805
 51
155.925515713828
 73
     0
 72
     1
 10
-166.4625940786709
 20
-100.6457759190577
 11
-167.0336875450088
 21
-99.36755361730298
 72
     2
 10
-165.9380684292179
 20
-98.8780449318706
 40
1.200000000000068
 50
155.9255157136061
 51
245.9255157136061
 73
     0
 72
     1
 10
-166.4275771146503
 20
-97.78242581607969
 11
-129.2678287707499
 21
-81.17992290182224
 72
     2
 10
-129.2270363802972
 20
-81.27122449480543
 40
0.1000000000005689
 50
245.9255157137622
 51
335.9255157137622
 73
     0
 72
     1
 10
-129.135734787314
 20
-81.23043210435275
 11
-128.1159250259956
 21
-83.51297192891593
 72
     2
 10
-128.2072266189788
 20
-83.55376431936861
 40
0.1000000000005689
 50
335.9255157137622
 51
425.9255157137621
 73
     0
 72
     1
 10
-128.1664342285262
 20
-83.64506591235182
 11
-129.4627185777576
 21
-84.22422927176535
 72
     2
 10
-129.5035109682103
 20
-84.13292767878292
 40
0.0999999999999031
 50
65.92551571353827
 51
143.3967080043873
 73
     0
 72
     1
 10
-129.5837892899176
 20
-84.19255477886213
 11
-130.3127290066699
 21
-83.21115442551649
 72
     2
 10
-130.3930073283771
 20
-83.2707815255957
 40
0.0999999999999031
 50
36.60329199561267
 51
114.0744842864617
 73
     1
 72
     1
 10
-130.4337997188299
 20
-83.17947993261327
 11
-130.9500694058665
 21
-83.4101426621935
 72
     2
 10
-131.0368341048269
 20
-83.45986073752255
 40
0.1000000000005416
 50
330.1863452359784
 51
425.925515713238
 73
     0
 72
     1
 10
-130.9960417143734
 20
-83.55116233050535
 11
-133.5524863178857
 21
-84.69334926318129
 72
     2
 10
-133.593278708338
 20
-84.60204767019948
 40
0.0999999999991583
 50
65.92551571361513
 51
161.664686190885
 73
     0
 72
     1
 10
-133.688201885388
 20
-84.63350542693092
 11
-160.0658451894482
 21
-96.41870095015997
 72
     2
 10
-160.0250527989956
 20
-96.51000254314123
 40
0.0999999999987566
 50
114.0744842866482
 51
179.8467389686894
 73
     1
 72
     1
 10
-160.1250524412375
 20
-96.50973505249908
 11
-160.1276397939313
 21
-97.47700008000879
 72
     2
 10
-160.2276394361749
 20
-97.4767325893657
 40
0.1000000000003781
 50
0.1532610318536211
 51
65.92551571389094
 73
     0
 72
     1
 10
-160.1868470457225
 20
-97.56803418234881
 11
-160.7074911514601
 21
-97.80065134656684
 72
     2
 10
-160.7482835419128
 20
-97.70934975358338
 40
0.1000000000008372
 50
65.9255157137774
 51
132.0497259630822
 73
     0
 72
     1
 10
-160.8152610735264
 20
-97.78360613552536
 11
-161.5306421349432
 21
-97.13834903568454
 72
     2
 10
-161.5976196665559
 20
-97.2126054176266
 40
0.1000000000002843
 50
47.95027403733736
 51
114.0744842866531
 73
     1
 72
     1
 10
-161.6384120570091
 20
-97.12130382464398
 11
-162.1657818280468
 21
-97.35692593057207
 72
     2
 10
-162.1249894375935
 20
-97.44822752355377
 40
0.0999999999994616
 50
114.0744842869136
 51
179.846738968951
 73
     1
 72
     1
 10
-162.2249890798361
 20
-97.44796003291208
 11
-162.2275764325299
 21
-98.41522506042089
 72
     2
 10
-162.3275760747735
 20
-98.41495756977778
 40
0.1000000000003781
 50
0.1532610318536211
 51
65.92551571389094
 73
     0
 72
     1
 10
-162.2867836843211
 20
-98.5062591627609
 11
-162.8074277900591
 21
-98.73887632697893
 72
     2
 10
-162.8482201805116
 20
-98.64757473399583
 40
0.1000000000004201
 50
65.92551571381328
 51
132.0497259631219
 73
     0
 72
     1
 10
-162.915197712125
 20
-98.72183111593745
 11
-163.6305787735423
 21
-98.07657401609754
 72
     2
 10
-163.697556305155
 20
-98.1508303980396
 40
0.1000000000002843
 50
47.95027403733736
 51
114.0744842866531
 73
     1
 72
     1
 10
-163.7383486956082
 20
-98.05952880505698
 11
-164.8979819980491
 21
-98.57763821486948
 72
     2
 10
-164.8571896075966
 20
-98.66893980785258
 40
0.1000000000003751
 50
114.074484286109
 51
179.8467389681463
 73
     1
 72
     1
 10
-164.9571892498402
 20
-98.66867231720949
 11
-164.9608032448968
 21
-100.0197409351201
 72
     2
 10
-165.0608028871401
 20
-100.0194734444773
 40
0.1000000000001498
 50
0.1532610316504219
 51
65.925515713689
 73
     0
 72
     1
 10
-165.0200104966875
 20
-100.1107750374601
 11
-166.3305000952354
 21
-100.6962851215882
 97
        1
330
6804F
 75
     0
 76
     1
 52
30.07448428640825
 41
0.14
 77
     0
 78
     1
 53
75.07448428640825
 43
-95.32044445129441
 44
-495.0998702148997
 45
-0.429503225070971
 46
0.1144868099548363
 79
     0
 98
        1
 10
-95.32044445129441
 20
-495.0998702148997
  0
HATCH
  5
6801D
330
2
100
AcDbEntity
  8
HATCH
370
    50
100
AcDbHatch
 10
0.0
 20
0.0
 30
0.0
210
0.0
220
0.0
230
1.0
  2
ANSI31
 70
     0
 71
     1
 91
        1
 92
        1
 93
       36
 72
     2
 10
-196.4789419549206
 20
-117.428137099879
 40
0.0999999999997385
 50
65.92551571354963
 51
155.9255157135496
 73
     0
 72
     1
 10
-196.5702435479029
 20
-117.4689294903316
 11
-197.1413370142413
 21
-116.1907071885768
 72
     2
 10
-196.0457178984497
 20
-115.7011985031442
 40
1.200000000000784
 50
155.9255157136095
 51
245.9255157136094
 73
     0
 72
     1
 10
-196.5352265838823
 20
-114.6055793873526
 11
-159.3754782399814
 21
-98.00307647309615
 72
     2
 10
-159.3346858495283
 20
-98.09437806607888
 40
0.1000000000003392
 50
245.925515713418
 51
335.9255157134179
 73
     0
 72
     1
 10
-159.2433842565456
 20
-98.05358567562576
 11
-158.2235744952281
 21
-100.3361255001898
 72
     2
 10
-158.3148760882108
 20
-100.376917890642
 40
0.0999999999999682
 50
335.9255157138937
 51
425.9255157138937
 73
     0
 72
     1
 10
-158.2740836977586
 20
-100.4682194836248
 11
-159.5703680469901
 21
-101.0473828430383
 72
     2
 10
-159.6111604374428
 20
-100.9560812500559
 40
0.0999999999999031
 50
65.92551571353827
 51
143.3967080043873
 73
     0
 72
     1
 10
-159.69143875915
 20
-101.0157083501351
 11
-160.4203784759024
 21
-100.0343079967894
 72
     2
 10
-160.5006567976096
 20
-100.0939350968687
 40
0.0999999999999031
 50
36.60329199561267
 51
114.0744842864617
 73
     1
 72
     1
 10
-160.5414491880624
 20
-100.0026335038862
 11
-161.0577188750981
 21
-100.2332962334673
 72
     2
 10
-161.1444835740589
 20
-100.283014308796
 40
0.1000000000007313
 50
330.1863452363129
 51
425.9255157135722
 73
     0
 72
     1
 10
-161.1036911836058
 20
-100.3743159017792
 11
-163.6601357871172
 21
-101.5165028344551
 72
     2
 10
-163.7009281775696
 20
-101.4252012414725
 40
0.0999999999999859
 50
65.9255157137913
 51
161.6646861910542
 73
     0
 72
     1
 10
-163.7958513546204
 20
-101.4566589982039
 11
-190.1734946586807
 21
-113.2418545214329
 72
     2
 10
-190.1327022682274
 20
-113.3331561144146
 40
0.0999999999994616
 50
114.0744842869136
 51
179.846738968951
 73
     1
 72
     1
 10
-190.23270191047
 20
-113.3328886237729
 11
-190.2352892631638
 21
-114.3001536512817
 72
     2
 10
-190.3352889054073
 20
-114.2998861606386
 40
0.1000000000003781
 50
0.1532610318536211
 51
65.92551571389094
 73
     0
 72
     1
 10
-190.2944965149549
 20
-114.3911877536218
 11
-190.815140620692
 21
-114.6238049178398
 72
     2
 10
-190.8559330111451
 20
-114.532503324856
 40
0.1000000000012414
 50
65.92551571373816
 51
132.0497259630481
 73
     0
 72
     1
 10
-190.9229105427589
 20
-114.6067597067983
 11
-191.6382916041752
 21
-113.9615026069584
 72
     2
 10
-191.7052691357886
 20
-114.0357589889
 40
0.1000000000004035
 50
47.95027403687264
 51
114.07448428619
 73
     1
 72
     1
 10
-191.7460615262411
 20
-113.9444573959169
 11
-192.2734312972793
 21
-114.1800795018459
 72
     2
 10
-192.232638906826
 20
-114.2713810948276
 40
0.0999999999994616
 50
114.0744842869136
 51
179.846738968951
 73
     1
 72
     1
 10
-192.3326385490686
 20
-114.2711136041859
 11
-192.3352259017624
 21
-115.2383786316938
 72
     2
 10
-192.4352255440066
 20
-115.2381111410512
 40
0.1000000000010874
 50
0.1532610315920014
 51
65.92551571362555
 73
     0
 72
     1
 10
-192.3944331535535
 20
-115.3294127340348
 11
-192.9150772592915
 21
-115.5620298982519
 72
     2
 10
-192.9558696497448
 20
-115.4707283052692
 40
0.1000000000002832
 50
65.92551571335019
 51
132.0497259626571
 73
     0
 72
     1
 10
-193.0228471813575
 20
-115.5449846872113
 11
-193.7382282427743
 21
-114.8997275873714
 72
     2
 10
-193.8052057743879
 20
-114.9739839693134
 40
0.1000000000008302
 50
47.95027403691769
 51
114.0744842862225
 73
     1
 72
     1
 10
-193.8459981648406
 20
-114.8826823763299
 11
-195.0056314672815
 21
-115.4007917861424
 72
     2
 10
-194.9648390768291
 20
-115.4920933791255
 40
0.1000000000003751
 50
114.074484286109
 51
179.8467389681463
 73
     1
 72
     1
 10
-195.0648387190726
 20
-115.4918258884824
 11
-195.0684527141288
 21
-116.842894506394
 72
     2
 10
-195.1684523563723
 20
-116.8426270157509
 40
0.1000000000003781
 50
0.1532610318536211
 51
65.92551571389094
 73
     0
 72
     1
 10
-195.1276599659199
 20
-116.933928608734
 11
-196.4381495644679
 21
-117.5194386928612
 97
        1
330
68052
 75
     0
 76
     1
 52
30.07448428640825
 41
0.14
 77
     0
 78
     1
 53
75.07448428640825
 43
-125.4280939205268
 44
-511.9230237861736
 45
-0.429503225070971
 46
0.1144868099548363
 79
     0
 98
        1
 10
-125.4280939205268
 20
-511.9230237861736
  0
HATCH
  5
6801E
330
2
100
AcDbEntity
  8
WOD-HT
370
    50
100
AcDbHatch
 10
0.0
 20
0.0
 30
0.0
210
0.0
220
0.0
230
1.0
  2
ANSI31
 70
     0
 71
     1
 91
        1
 92
        1
 93
        4
 72
     1
 10
-134.6972517120193
 20
-85.86224431206188
 11
-130.3430394876741
 21
-83.4044331099219
 72
     1
 10
-130.3430394876741
 20
-83.4044331099219
 11
-129.1141338866036
 21
-85.58153922209454
 72
     1
 10
-129.1141338866036
 20
-85.58153922209454
 11
-133.4683461109489
 21
-88.0393504242345
 72
     1
 10
-133.4683461109489
 20
-88.0393504242345
 11
-134.6972517120193
 21
-85.86224431206188
 97
        1
330
68057
 75
     0
 76
     1
 52
47.44331491972115
 41
4.0
 77
     0
 78
     1
 53
92.44331491972074
 43
966.1346474476628
 44
-656.9014153893465
 45
-0.4995454435517131
 46
-0.0213154832626978
 79
     0
 98
        1
 10
966.1346474476628
 20
-656.9014153893465
  0
HATCH
  5
68021
330
2
100
AcDbEntity
  8
HATCH
370
    50
100
AcDbHatch
 10
0.0
 20
0.0
 30
0.0
210
0.0
220
0.0
230
1.0
  2
ANSI31
 70
     0
 71
     1
 91
        1
 92
        1
 93
       36
 72
     2
 10
-256.8584194806412
 20
-151.1547375093334
 40
0.0999999999997385
 50
65.92551571354963
 51
155.9255157135496
 73
     0
 72
     1
 10
-256.9497210736235
 20
-151.1955298997861
 11
-257.5208145399619
 21
-149.9173075980313
 72
     2
 10
-256.4251954241703
 20
-149.4277989125987
 40
1.200000000000784
 50
155.9255157136095
 51
245.9255157136094
 73
     0
 72
     1
 10
-256.914704109603
 20
-148.3321797968071
 11
-219.754955765702
 21
-131.7296768825506
 72
     2
 10
-219.7141633752489
 20
-131.8209784755333
 40
0.1000000000003392
 50
245.925515713418
 51
335.9255157134179
 73
     0
 72
     1
 10
-219.6228617822662
 20
-131.7801860850802
 11
-218.6030520209488
 21
-134.0627259096443
 72
     2
 10
-218.6943536139315
 20
-134.1035183000965
 40
0.0999999999999682
 50
335.9255157138937
 51
425.9255157138937
 73
     0
 72
     1
 10
-218.6535612234793
 20
-134.1948198930792
 11
-219.9498455727107
 21
-134.7739832524928
 72
     2
 10
-219.9906379631634
 20
-134.6826816595104
 40
0.0999999999999031
 50
65.92551571353827
 51
143.3967080043873
 73
     0
 72
     1
 10
-220.0709162848706
 20
-134.7423087595896
 11
-220.7998560016231
 21
-133.7609084062439
 72
     2
 10
-220.8801343233302
 20
-133.8205355063231
 40
0.0999999999999031
 50
36.60329199561267
 51
114.0744842864617
 73
     1
 72
     1
 10
-220.920926713783
 20
-133.7292339133407
 11
-221.4371964008187
 21
-133.9598966429218
 72
     2
 10
-221.5239610997795
 20
-134.0096147182505
 40
0.1000000000007383
 50
330.1863452363058
 51
425.9255157135688
 73
     0
 72
     1
 10
-221.4831687093265
 20
-134.1009163112337
 11
-224.0396133128379
 21
-135.2431032439096
 72
     2
 10
-224.0804057032903
 20
-135.1518016509269
 40
0.0999999999999859
 50
65.9255157137913
 51
161.6646861910542
 73
     0
 72
     1
 10
-224.1753288803411
 20
-135.1832594076584
 11
-250.5529721844013
 21
-146.9684549308874
 72
     2
 10
-250.512179793948
 20
-147.0597565238691
 40
0.0999999999994746
 50
114.0744842869103
 51
179.8467389689428
 73
     1
 72
     1
 10
-250.6121794361906
 20
-147.0594890332274
 11
-250.6147667888845
 21
-148.0267540607362
 72
     2
 10
-250.7147664311279
 20
-148.0264865700931
 40
0.1000000000003781
 50
0.1532610318536211
 51
65.92551571389094
 73
     0
 72
     1
 10
-250.6739740406755
 20
-148.1177881630762
 11
-251.1946181464127
 21
-148.3504053272943
 72
     2
 10
-251.2354105368657
 20
-148.2591037343105
 40
0.1000000000012414
 50
65.92551571373816
 51
132.0497259630481
 73
     0
 72
     1
 10
-251.3023880684795
 20
-148.3333601162528
 11
-252.0177691298958
 21
-147.6881030164129
 72
     2
 10
-252.0847466615093
 20
-147.7623593983545
 40
0.1000000000004035
 50
47.95027403687264
 51
114.07448428619
 73
     1
 72
     1
 10
-252.1255390519618
 20
-147.6710578053714
 11
-252.6529088229999
 21
-147.9066799113004
 72
     2
 10
-252.6121164325466
 20
-147.9979815042821
 40
0.0999999999994746
 50
114.0744842869103
 51
179.8467389689428
 73
     1
 72
     1
 10
-252.7121160747892
 20
-147.9977140136404
 11
-252.714703427483
 21
-148.9649790411483
 72
     2
 10
-252.8147030697272
 20
-148.9647115505057
 40
0.1000000000010874
 50
0.1532610315920014
 51
65.92551571362555
 73
     0
 72
     1
 10
-252.7739106792742
 20
-149.0560131434892
 11
-253.2945547850122
 21
-149.2886303077064
 72
     2
 10
-253.3353471754654
 20
-149.1973287147237
 40
0.1000000000002702
 50
65.92551571334684
 51
132.0497259626626
 73
     0
 72
     1
 10
-253.4023247070781
 20
-149.2715850966658
 11
-254.1177057684949
 21
-148.6263279968259
 72
     2
 10
-254.1846833001085
 20
-148.7005843787678
 40
0.1000000000008091
 50
47.95027403690679
 51
114.0744842862292
 73
     1
 72
     1
 10
-254.2254756905613
 20
-148.6092827857844
 11
-255.3851089930021
 21
-149.1273921955969
 72
     2
 10
-255.3443166025497
 20
-149.21869378858
 40
0.1000000000003751
 50
114.074484286109
 51
179.8467389681463
 73
     1
 72
     1
 10
-255.4443162447932
 20
-149.2184262979369
 11
-255.4479302398494
 21
-150.5694949158485
 72
     2
 10
-255.547929882093
 20
-150.5692274252054
 40
0.1000000000003781
 50
0.1532610318536211
 51
65.92551571389094
 73
     0
 72
     1
 10
-255.5071374916406
 20
-150.6605290181885
 11
-256.8176270901886
 21
-151.2460391023157
 97
        1
330
6805F
 75
     0
 76
     1
 52
30.07448428640825
 41
0.14
 77
     0
 78
     1
 53
75.07448428640825
 43
-185.8075714462474
 44
-545.6496241956281
 45
-0.429503225070971
 46
0.1144868099548363
 79
     0
 98
        1
 10
-185.8075714462474
 20
-545.6496241956281
  0
HATCH
  5
68022
330
2
100
AcDbEntity
  8
WOD-HT
370
    50
100
AcDbHatch
 10
0.0
 20
0.0
 30
0.0
210
0.0
220
0.0
230
1.0
  2
ANSI31
 70
     0
 71
     1
 91
        1
 92
        1
 93
        4
 72
     1
 10
-250.9953605447845
 20
-148.4674536598565
 11
-248.8182544326118
 21
-147.238548058787
 72
     1
 10
-248.8182544326118
 20
-147.238548058787
 11
-241.5875874911143
 21
-160.0658690427969
 72
     1
 10
-241.5875874911143
 20
-160.0658690427969
 11
-243.7653815155085
 21
-161.2932099624902
 72
     1
 10
-243.7653815155085
 20
-161.2932099624902
 11
-250.9953605447845
 21
-148.4674536598565
 97
        1
330
68065
 75
     0
 76
     1
 52
47.44331491972115
 41
4.0
 77
     0
 78
     1
 53
92.44331491972074
 43
848.1504021576729
 44
-721.6067070125553
 45
-0.4995454435517131
 46
-0.0213154832626978
 79
     0
 98
        1
 10
848.1504021576729
 20
-721.6067070125553
  0
HATCH
  5
68023
330
2
100
AcDbEntity
  8
FILLINING
100
AcDbHatch
 10
0.0
 20
0.0
 30
0.0
210
0.0
220
0.0
230
1.0
  2
ANSI31
 70
     0
 71
     1
 91
        1
 92
        1
 93
        4
 72
     1
 10
-195.0736082160215
 20
-147.8436741024277
 11
-185.3948124272351
 21
-147.8436741024277
 72
     1
 10
-185.3948124272351
 20
-147.8436741024277
 11
-185.3948124272351
 21
-130.9925223812995
 72
     1
 10
-185.3948124272351
 20
-130.9925223812995
 11
-195.0736082160215
 21
-130.9925223812995
 72
     1
 10
-195.0736082160215
 20
-130.9925223812995
 11
-195.0736082160215
 21
-147.8436741024277
 97
        1
330
68070
 75
     0
 76
     1
 52
90.0
 41
6.0
 77
     0
 78
     1
 53
135.0
 43
1935.736657468389
 44
-551.2957457370901
 45
-0.5303300858899107
 46
-0.5303300858899106
 79
     0
 98
        1
 10
1935.736657468389
 20
-551.2957457370901
  0
HATCH
  5
68024
330
2
100
AcDbEntity
  8
WOD-HT
 48
2.0
370
    50
100
AcDbHatch
 10
0.0
 20
0.0
 30
0.0
210
0.0
220
0.0
230
1.0
  2
ANSI31
 70
     0
 71
     1
 91
        1
 92
       33
 93
        4
 72
     1
 10
-235.0107857124157
 20
-151.7149664202177
 11
-234.3234364224804
 21
-152.9345991663237
 72
     1
 10
-234.3234364224804
 20
-152.9345991663237
 11
-242.3400648412339
 21
-157.4525361181665
 72
     1
 10
-242.3400648412339
 20
-157.4525361181665
 11
-243.0034544794998
 21
-156.2194004142108
 72
     1
 10
-243.0034544794998
 20
-156.2194004142108
 11
-235.0184614861532
 21
-151.7493552597177
 97
        1
330
68071
 75
     0
 76
     1
 52
309.4120116591351
 41
10.0
 77
     0
 78
     1
 53
354.4120116591351
 43
2325.927014877265
 44
-1401.804551417733
 45
0.1217178189474215
 46
1.244059794604215
 79
     0
 98
        1
 10
2325.927014877265
 20
-1401.804551417733
  0
HATCH
  5
68025
330
2
100
AcDbEntity
  8
WOD-HT
 48
2.0
370
    50
100
AcDbHatch
 10
0.0
 20
0.0
 30
0.0
210
0.0
220
0.0
230
1.0
  2
ANSI31
 70
     0
 71
     0
 91
        1
 92
       33
 93
        4
 72
     1
 10
-235.0107857124162
 20
-151.7149664202177
 11
-234.3234364224804
 21
-152.9345991663237
 72
     1
 10
-234.3234364224804
 20
-152.9345991663237
 11
-226.3068080037246
 21
-148.4166622144855
 72
     1
 10
-226.3068080037246
 20
-148.4166622144855
 11
-227.0181169453294
 21
-147.2105324262281
 72
     1
 10
-227.0181169453294
 20
-147.2105324262281
 11
-234.9773927686078
 21
-151.7262101335034
 97
        0
 75
     0
 76
     1
 52
309.4120116591351
 41
10.0
 77
     0
 78
     1
 53
244.3966565888685
 43
-490.7631872609145
 44
-2989.39139465042
 45
-1.127259138924894
 46
0.5401729664749109
 79
     0
 98
        1
 10
-490.7631872609145
 20
-2989.39139465042
  0
HATCH
  5
68026
330
2
100
AcDbEntity
  8
WOD-HT
 48
2.0
370
    50
100
AcDbHatch
 10
0.0
 20
0.0
 30
0.0
210
0.0
220
0.0
230
1.0
  2
ANSI31
 70
     0
 71
     1
 91
        1
 92
       33
 93
        4
 72
     1
 10
-219.0254481782453
 20
-142.7060984322349
 11
-218.33809888831
 21
-143.925731178341
 72
     1
 10
-218.33809888831
 20
-143.925731178341
 11
-226.3547273070634
 21
-148.4436681301838
 72
     1
 10
-226.3547273070634
 20
-148.4436681301838
 11
-227.0181169453294
 21
-147.2105324262281
 72
     1
 10
-227.0181169453294
 20
-147.2105324262281
 11
-219.0331239519827
 21
-142.7404872717349
 97
        1
330
68073
 75
     0
 76
     1
 52
309.4120116591351
 41
10.0
 77
     0
 78
     1
 53
354.4120116591351
 43
2341.912352411435
 44
-1392.795683429751
 45
0.1217178189474215
 46
1.244059794604215
 79
     0
 98
        1
 10
2341.912352411435
 20
-1392.795683429751
  0
HATCH
  5
68027
330
2
100
AcDbEntity
  8
WOD-HT
 48
2.0
370
    50
100
AcDbHatch
 10
0.0
 20
0.0
 30
0.0
210
0.0
220
0.0
230
1.0
  2
ANSI31
 70
     0
 71
     1
 91
        1
 92
       33
 93
        4
 72
     1
 10
-219.0254481782458
 20
-142.7060984322349
 11
-218.33809888831
 21
-143.925731178341
 72
     1
 10
-218.33809888831
 20
-143.925731178341
 11
-210.3214704695542
 21
-139.4077942265028
 72
     1
 10
-210.3214704695542
 20
-139.4077942265028
 11
-211.032779411159
 21
-138.2016644382454
 72
     1
 10
-211.032779411159
 20
-138.2016644382454
 11
-218.9920552344374
 21
-142.7173421455206
 97
        1
330
68074
 75
     0
 76
     1
 52
309.4120116591351
 41
10.0
 77
     0
 78
     1
 53
244.3966565888685
 43
-474.777849726744
 44
-2980.382526662437
 45
-1.127259138924894
 46
0.5401729664749109
 79
     0
 98
        1
 10
-474.777849726744
 20
-2980.382526662437
  0
HATCH
  5
68028
330
2
100
AcDbEntity
  8
WOD-HT
 48
2.0
370
    50
100
AcDbHatch
 10
0.0
 20
0.0
 30
0.0
210
0.0
220
0.0
230
1.0
  2
ANSI31
 70
     0
 71
     1
 91
        1
 92
       33
 93
        4
 72
     1
 10
-203.0401106440749
 20
-133.6972304442522
 11
-202.3527613541395
 21
-134.9168631903582
 72
     1
 10
-202.3527613541395
 20
-134.9168631903582
 11
-210.3693897728931
 21
-139.434800142201
 72
     1
 10
-210.3693897728931
 20
-139.434800142201
 11
-211.032779411159
 21
-138.2016644382454
 72
     1
 10
-211.032779411159
 20
-138.2016644382454
 11
-203.0477864178124
 21
-133.7316192837522
 97
        1
330
68075
 75
     0
 76
     1
 52
309.4120116591351
 41
10.0
 77
     0
 78
     1
 53
354.4120116591351
 43
2357.974094044766
 44
-1383.922386893775
 45
0.1217178189474215
 46
1.244059794604215
 79
     0
 98
        1
 10
2357.974094044766
 20
-1383.922386893775
  0
HATCH
  5
68029
330
2
100
AcDbEntity
  8
WOD-HT
 48
2.0
370
    50
100
AcDbHatch
 10
0.0
 20
0.0
 30
0.0
210
0.0
220
0.0
230
1.0
  2
ANSI31
 70
     0
 71
     1
 91
        1
 92
       33
 93
        4
 72
     1
 10
-203.0401106440754
 20
-133.6972304442522
 11
-202.3527613541395
 21
-134.9168631903582
 72
     1
 10
-202.3527613541395
 20
-134.9168631903582
 11
-194.3361329353838
 21
-130.39892623852
 72
     1
 10
-194.3361329353838
 20
-130.39892623852
 11
-195.0474418769886
 21
-129.1927964502626
 72
     1
 10
-195.0474418769886
 20
-129.1927964502626
 11
-203.006717700267
 21
-133.7084741575379
 97
        1
330
68076
 75
     0
 76
     1
 52
309.4120116591351
 41
10.0
 77
     0
 78
     1
 53
244.3966565888685
 43
-458.7925121925736
 44
-2971.373658674454
 45
-1.127259138924894
 46
0.5401729664749109
 79
     0
 98
        1
 10
-458.7925121925736
 20
-2971.373658674454
  0
HATCH
  5
68031
330
2
100
AcDbEntity
  8
WOD-HT
370
    50
100
AcDbHatch
 10
0.0
 20
0.0
 30
0.0
210
0.0
220
0.0
230
1.0
  2
ANSI31
 70
     0
 71
     1
 91
        1
 92
        1
 93
        4
 72
     1
 10
-108.9052137037506
 20
-71.33051193416282
 11
-104.5510014794053
 21
-68.87270073202285
 72
     1
 10
-104.5510014794053
 20
-68.87270073202285
 11
-103.3220958783349
 21
-71.04980684419547
 72
     1
 10
-103.3220958783349
 20
-71.04980684419547
 11
-107.6763081026802
 21
-73.50761804633544
 72
     1
 10
-107.6763081026802
 20
-73.50761804633544
 11
-108.9052137037506
 21
-71.33051193416282
 97
        1
330
6807F
 75
     0
 76
     1
 52
47.44331491972115
 41
4.0
 77
     0
 78
     1
 53
92.44331491972074
 43
991.9266854559316
 44
-642.3696830114474
 45
-0.4995454435517131
 46
-0.0213154832626978
 79
     0
 98
        1
 10
991.9266854559316
 20
-642.3696830114474
  0
LINE
  5
68033
330
2
100
AcDbEntity
  8
WOD-HT
  6
HIDDEN
370
    50
100
AcDbLine
 10
-253.2831076341226
 20
-149.2541929417673
 30
0.0
 11
-253.2871819592937
 21
-149.2469634581991
 31
0.0
  0
LINE
  5
68034
330
2
100
AcDbEntity
  8
WOD-HT
  6
HIDDEN
370
    50
100
AcDbLine
 10
-248.8182544326118
 20
-147.238548058787
 30
0.0
 11
-248.8206586185069
 21
-147.2342820707533
 31
0.0
  0
LINE
  5
68038
102
{ACAD_REACTORS
330
6A5F0
102
}
330
2
100
AcDbEntity
  8
BETON
370
    50
100
AcDbLine
 10
-195.0736082160215
 20
-147.8436741024277
 30
0.0
 11
-195.0736082160215
 21
-211.884363301076
 31
0.0
  0
LINE
  5
68039
102
{ACAD_REACTORS
330
6A5F0
102
}
330
2
100
AcDbEntity
  8
BETON
370
    50
100
AcDbLine
 10
-173.0736082160215
 20
-199.183878247313
 30
0.0
 11
-173.0736082160215
 21
-166.1334371158698
 31
0.0
  0
LINE
  5
6803B
330
2
100
AcDbEntity
  8
BETON
370
    50
100
AcDbLine
 10
-25.80673973620901
 20
-147.8436741024277
 30
0.0
 11
-52.11325988192175
 21
-147.8436741024277
 31
0.0
  0
LINE
  5
6803C
102
{ACAD_REACTORS
330
6A5F0
102
}
330
2
100
AcDbEntity
  8
BETON
370
    50
100
AcDbLine
 10
-195.0736082160215
 20
-166.1334371158698
 30
0.0
 11
-82.11325988192175
 21
-166.1334371158698
 31
0.0
  0
LWPOLYLINE
  5
6803E
330
2
100
AcDbEntity
  8
AK-TIH
370
    50
100
AcDbPolyline
 90
        3
 70
     0
 43
0.0
 10
-195.0736082160215
 20
-131.8879503399509
 10
-196.8104153085591
 20
-132.5600195213626
 10
-196.8104153085591
 20
-212.8873102356076
  0
LWPOLYLINE
  5
68041
102
{ACAD_REACTORS
330
68018
102
}
330
2
100
AcDbEntity
  8
MABAT3
370
    50
100
AcDbPolyline
 90
        4
 70
     1
 43
0.0
 10
-225.0697199899382
 20
-136.5108651056041
 10
-220.7155077655929
 20
-134.0530539034641
 10
-219.4866021645229
 20
-136.2301600156367
 10
-223.8408143888682
 20
-138.6879712177767
  0
LINE
  5
68042
330
2
100
AcDbEntity
  8
MABAT3
100
AcDbLine
 10
-196.4601030646017
 20
-123.5396594739311
 30
0.0
 11
-100.4375126428764
 21
-69.42414022858223
 31
0.0
  0
LWPOLYLINE
  5
68043
102
{ACAD_REACTORS
330
68019
102
}
330
2
100
AcDbEntity
  8
MABAT3
370
    50
100
AcDbPolyline
 90
        4
 70
     1
 43
0.0
 10
-194.7983251867867
 20
-119.7103308292505
 10
-190.4441129624419
 20
-117.2525196271105
 10
-189.215207361372
 20
-119.4296257392832
 10
-193.5694195857172
 20
-121.8874369414231
  0
LWPOLYLINE
  5
68044
102
{ACAD_REACTORS
330
6801A
102
}
330
2
100
AcDbEntity
  8
MABAT3
370
    50
100
AcDbPolyline
 90
        4
 70
     1
 43
0.0
 10
-164.7411742798351
 20
-102.7980237547353
 10
-160.3869620554903
 20
-100.3402125525953
 10
-159.1580564544199
 20
-102.5173186647679
 10
-163.5122686787652
 20
-104.9751298669079
  0
LWPOLYLINE
  5
68045
102
{ACAD_REACTORS
330
6A39E
102
}
330
2
100
AcDbEntity
  8
CLAY
370
    50
100
AcDbPolyline
 90
       26
 70
     0
 43
0.0
 10
-205.6113245596275
 20
-123.5023659169516
 10
-220.2051895724935
 20
-130.0227191810288
 42
0.2951328942983046
 10
-220.264396824285
 20
-130.1137532833679
 10
-220.2669841769789
 20
-131.0810183108776
 42
-0.2951328942983102
 10
-220.3261914287686
 20
-131.1720524132167
 10
-220.8468355345075
 20
-131.4046695774347
 42
-0.2968031128494221
 10
-220.9546054565721
 20
-131.3876243663942
 10
-221.6699865179894
 20
-130.7423672665533
 42
0.296803112849422
 10
-221.7777564400553
 20
-130.7253220555128
 10
-222.3051262110934
 20
-130.9609441614409
 42
0.2951328942983209
 10
-222.3643334628827
 20
-131.0519782637809
 10
-222.3669208155774
 20
-132.0192432912897
 42
-0.2951328942983102
 10
-222.4261280673677
 20
-132.1102773936297
 10
-222.9467721731066
 20
-132.3428945578477
 42
-0.2968031128494221
 10
-223.0545420951725
 20
-132.3258493468072
 10
-223.7699231565898
 20
-131.6805922469663
 42
0.296803112849422
 10
-223.8776930786548
 20
-131.6635470359249
 10
-225.0373263810961
 20
-132.1816564457383
 42
0.2951328942983101
 10
-225.0965336328858
 20
-132.2726905480783
 10
-225.1001476279447
 20
-133.6237591659889
 42
-0.2951328942983284
 10
-225.1593548797332
 20
-133.714793268329
 10
-226.4698444782829
 20
-134.3003033524571
 42
-0.4142135623730951
 10
-226.601938461717
 20
-134.2497941499266
 10
-227.1730319280545
 20
-132.9715718481718
 42
-0.4142135623730924
 10
-226.5669214976965
 20
-131.3864440469485
 10
-206.1620218307393
 20
-122.2697944116869
  0
LWPOLYLINE
  5
6804E
102
{ACAD_REACTORS
330
6A39E
102
}
330
2
100
AcDbEntity
  8
CLAY
370
    50
100
AcDbPolyline
 90
       14
 70
     0
 43
0.0
 10
-206.1620218307393
 20
-122.2697944116878
 10
-189.4071731537956
 20
-114.7839411326911
 42
-0.4142135623730951
 10
-189.2750791703606
 20
-114.8344503352216
 10
-188.2552694090431
 20
-117.1169901597847
 42
-0.4142135623730951
 10
-188.3057786115728
 20
-117.2490841432206
 10
-189.6020629608042
 20
-117.8282475026342
 42
-0.3515239862758888
 10
-189.7231336729642
 20
-117.7965730097309
 10
-190.4520733897165
 20
-116.8151726563853
 42
0.3515239862758764
 10
-190.5731441018765
 20
-116.7834981634821
 10
-191.0894137889131
 20
-117.0141608930632
 42
-0.4438656911931739
 10
-191.13538609742
 20
-117.1551805613742
 10
-193.6918307009314
 20
-118.2973674940501
 42
-0.4438656911931651
 10
-193.8275462684355
 20
-118.2375236577988
 10
-205.6113245596275
 20
-123.5023659169516
  0
LWPOLYLINE
  5
6804F
102
{ACAD_REACTORS
330
6801C
102
}
330
2
100
AcDbEntity
  8
CLAY
370
    50
100
AcDbPolyline
 90
       36
 70
     1
 43
0.0
 10
-166.3305000952354
 20
-100.6962851215882
 42
-0.4142135623730906
 10
-166.4625940786709
 20
-100.6457759190577
 10
-167.0336875450088
 20
-99.36755361730298
 42
-0.4142135623730921
 10
-166.4275771146503
 20
-97.78242581607969
 10
-129.2678287707499
 20
-81.17992290182224
 42
-0.4142135623730966
 10
-129.135734787314
 20
-81.23043210435275
 10
-128.1159250259956
 20
-83.51297192891593
 42
-0.4142135623730906
 10
-128.1664342285262
 20
-83.64506591235182
 10
-129.4627185777576
 20
-84.22422927176535
 42
-0.3515239862758961
 10
-129.5837892899176
 20
-84.19255477886213
 10
-130.3127290066699
 20
-83.21115442551649
 42
0.3515239862758932
 10
-130.4337997188299
 20
-83.17947993261327
 10
-130.9500694058665
 20
-83.4101426621935
 42
-0.443865691193171
 10
-130.9960417143734
 20
-83.55116233050535
 10
-133.5524863178857
 20
-84.69334926318129
 42
-0.4438656911931694
 10
-133.688201885388
 20
-84.63350542693092
 10
-160.0658451894482
 20
-96.41870095015997
 42
0.2951328942983379
 10
-160.1250524412375
 20
-96.50973505249908
 10
-160.1276397939313
 20
-97.47700008000879
 42
-0.2951328942983392
 10
-160.1868470457225
 20
-97.56803418234881
 10
-160.7074911514601
 20
-97.80065134656684
 42
-0.2968031128494228
 10
-160.8152610735264
 20
-97.78360613552536
 10
-161.5306421349432
 20
-97.13834903568454
 42
0.2968031128494321
 10
-161.6384120570091
 20
-97.12130382464398
 10
-162.1657818280468
 20
-97.35692593057207
 42
0.2951328942983389
 10
-162.2249890798361
 20
-97.44796003291208
 10
-162.2275764325299
 20
-98.41522506042089
 42
-0.2951328942983325
 10
-162.2867836843211
 20
-98.5062591627609
 10
-162.8074277900591
 20
-98.73887632697893
 42
-0.2968031128494286
 10
-162.915197712125
 20
-98.72183111593745
 10
-163.6305787735423
 20
-98.07657401609754
 42
0.2968031128494321
 10
-163.7383486956082
 20
-98.05952880505698
 10
-164.8979819980491
 20
-98.57763821486948
 42
0.2951328942983365
 10
-164.9571892498402
 20
-98.66867231720949
 10
-164.9608032448968
 20
-100.0197409351201
 42
-0.2951328942983412
 10
-165.0200104966875
 20
-100.1107750374601
  0
LWPOLYLINE
  5
68052
102
{ACAD_REACTORS
330
6801D
102
}
330
2
100
AcDbEntity
  8
CLAY
370
    50
100
AcDbPolyline
 90
       36
 70
     1
 43
0.0
 10
-196.4381495644679
 20
-117.5194386928612
 42
-0.4142135623730906
 10
-196.5702435479029
 20
-117.4689294903316
 10
-197.1413370142413
 20
-116.1907071885768
 42
-0.4142135623730921
 10
-196.5352265838823
 20
-114.6055793873526
 10
-159.3754782399814
 20
-98.00307647309615
 42
-0.4142135623730966
 10
-159.2433842565456
 20
-98.05358567562576
 10
-158.2235744952281
 20
-100.3361255001898
 42
-0.4142135623730906
 10
-158.2740836977586
 20
-100.4682194836248
 10
-159.5703680469901
 20
-101.0473828430383
 42
-0.3515239862758961
 10
-159.69143875915
 20
-101.0157083501351
 10
-160.4203784759024
 20
-100.0343079967894
 42
0.3515239862758932
 10
-160.5414491880624
 20
-100.0026335038862
 10
-161.0577188750981
 20
-100.2332962334673
 42
-0.443865691193171
 10
-161.1036911836058
 20
-100.3743159017792
 10
-163.6601357871172
 20
-101.5165028344551
 42
-0.4438656911931694
 10
-163.7958513546204
 20
-101.4566589982039
 10
-190.1734946586807
 20
-113.2418545214329
 42
0.2951328942983379
 10
-190.23270191047
 20
-113.3328886237729
 10
-190.2352892631638
 20
-114.3001536512817
 42
-0.2951328942983392
 10
-190.2944965149549
 20
-114.3911877536218
 10
-190.815140620692
 20
-114.6238049178398
 42
-0.2968031128494228
 10
-190.9229105427589
 20
-114.6067597067983
 10
-191.6382916041752
 20
-113.9615026069584
 42
0.2968031128494321
 10
-191.7460615262411
 20
-113.9444573959169
 10
-192.2734312972793
 20
-114.1800795018459
 42
0.2951328942983389
 10
-192.3326385490686
 20
-114.2711136041859
 10
-192.3352259017624
 20
-115.2383786316938
 42
-0.2951328942983325
 10
-192.3944331535535
 20
-115.3294127340348
 10
-192.9150772592915
 20
-115.5620298982519
 42
-0.2968031128494286
 10
-193.0228471813575
 20
-115.5449846872113
 10
-193.7382282427743
 20
-114.8997275873714
 42
0.2968031128494321
 10
-193.8459981648406
 20
-114.8826823763299
 10
-195.0056314672815
 20
-115.4007917861424
 42
0.2951328942983365
 10
-195.0648387190726
 20
-115.4918258884824
 10
-195.0684527141288
 20
-116.842894506394
 42
-0.2951328942983412
 10
-195.1276599659199
 20
-116.933928608734
  0
LWPOLYLINE
  5
68057
102
{ACAD_REACTORS
330
6801E
102
}
330
2
100
AcDbEntity
  8
MABAT3
370
    50
100
AcDbPolyline
 90
        4
 70
     1
 43
0.0
 10
-134.6972517120193
 20
-85.86224431206188
 10
-130.3430394876741
 20
-83.4044331099219
 10
-129.1141338866036
 20
-85.58153922209454
 10
-133.4683461109489
 20
-88.0393504242345
  0
LINE
  5
6805C
330
2
100
AcDbEntity
  8
MABAT3
 48
50.0
100
AcDbLine
 10
-179.132678462515
 20
-130.9925223812995
 30
0.0
 11
-145.2415860175167
 21
-111.8924954251613
 31
0.0
  0
LINE
  5
6805D
330
2
100
AcDbEntity
  8
MABAT3
100
AcDbLine
 10
-192.2598878410251
 20
-130.9925223812995
 30
0.0
 11
-196.4601030646017
 21
-123.5396594739311
 31
0.0
  0
LINE
  5
6805E
330
2
100
AcDbEntity
  8
MABAT3
100
AcDbLine
 10
-235.3376562363487
 20
-170.7045063828288
 30
0.0
 11
-242.7022010605646
 21
-157.6368562676741
 31
0.0
  0
LWPOLYLINE
  5
6805F
102
{ACAD_REACTORS
330
68021
102
}
330
2
100
AcDbEntity
  8
CLAY
370
    50
100
AcDbPolyline
 90
       36
 70
     1
 43
0.0
 10
-256.8176270901886
 20
-151.2460391023157
 42
-0.4142135623730906
 10
-256.9497210736235
 20
-151.1955298997861
 10
-257.5208145399619
 20
-149.9173075980313
 42
-0.4142135623730921
 10
-256.914704109603
 20
-148.3321797968071
 10
-219.754955765702
 20
-131.7296768825506
 42
-0.4142135623730966
 10
-219.6228617822662
 20
-131.7801860850802
 10
-218.6030520209488
 20
-134.0627259096443
 42
-0.4142135623730906
 10
-218.6535612234793
 20
-134.1948198930792
 10
-219.9498455727107
 20
-134.7739832524928
 42
-0.3515239862758961
 10
-220.0709162848706
 20
-134.7423087595896
 10
-220.7998560016231
 20
-133.7609084062439
 42
0.3515239862758932
 10
-220.920926713783
 20
-133.7292339133407
 10
-221.4371964008187
 20
-133.9598966429218
 42
-0.443865691193171
 10
-221.4831687093265
 20
-134.1009163112337
 10
-224.0396133128379
 20
-135.2431032439096
 42
-0.4438656911931694
 10
-224.1753288803411
 20
-135.1832594076584
 10
-250.5529721844013
 20
-146.9684549308874
 42
0.2951328942983379
 10
-250.6121794361906
 20
-147.0594890332274
 10
-250.6147667888845
 20
-148.0267540607362
 42
-0.2951328942983392
 10
-250.6739740406755
 20
-148.1177881630762
 10
-251.1946181464127
 20
-148.3504053272943
 42
-0.2968031128494228
 10
-251.3023880684795
 20
-148.3333601162528
 10
-252.0177691298958
 20
-147.6881030164129
 42
0.2968031128494321
 10
-252.1255390519618
 20
-147.6710578053714
 10
-252.6529088229999
 20
-147.9066799113004
 42
0.2951328942983389
 10
-252.7121160747892
 20
-147.9977140136404
 10
-252.714703427483
 20
-148.9649790411483
 42
-0.2951328942983325
 10
-252.7739106792742
 20
-149.0560131434892
 10
-253.2945547850122
 20
-149.2886303077064
 42
-0.2968031128494286
 10
-253.4023247070781
 20
-149.2715850966658
 10
-254.1177057684949
 20
-148.6263279968259
 42
0.2968031128494321
 10
-254.2254756905613
 20
-148.6092827857844
 10
-255.3851089930021
 20
-149.1273921955969
 42
0.2951328942983365
 10
-255.4443162447932
 20
-149.2184262979369
 10
-255.4479302398494
 20
-150.5694949158485
 42
-0.2951328942983412
 10
-255.5071374916406
 20
-150.6605290181885
  0
LINE
  5
68064
330
2
100
AcDbEntity
  8
MABAT3
100
AcDbLine
 10
-235.3376562363487
 20
-170.7045063828288
 30
0.0
 11
-196.8104153085591
 21
-148.9916819449433
 31
0.0
  0
LWPOLYLINE
  5
68065
102
{ACAD_REACTORS
330
68022
102
}
330
2
100
AcDbEntity
  8
MABAT3
370
    50
100
AcDbPolyline
 90
        4
 70
     1
 43
0.0
 10
-250.9953605447845
 20
-148.4674536598565
 10
-248.8182544326118
 20
-147.238548058787
 10
-241.5875874911143
 20
-160.0658690427969
 10
-243.7653815155085
 20
-161.2932099624902
  0
LINE
  5
68066
330
2
100
AcDbEntity
  8
TIN
100
AcDbLine
 10
-243.5370482101329
 20
-156.1559679231665
 30
0.0
 11
-216.6849057135989
 21
-141.0228869714026
 31
0.0
  0
LINE
  5
68067
330
2
100
AcDbEntity
  8
TIN
100
AcDbLine
 10
-246.318763647369
 20
-151.9250557941775
 30
0.0
 11
-219.1650928469753
 21
-136.6220423227966
 31
0.0
  0
LWPOLYLINE
  5
68070
102
{ACAD_REACTORS
330
68023
102
}
330
2
100
AcDbEntity
  8
MABAT3
370
    50
100
AcDbPolyline
 90
        4
 70
     1
 43
0.0
 10
-195.0736082160215
 20
-147.8436741024277
 10
-185.3948124272351
 20
-147.8436741024277
 10
-185.3948124272351
 20
-130.9925223812995
 10
-195.0736082160215
 20
-130.9925223812995
  0
LWPOLYLINE
  5
68071
102
{ACAD_REACTORS
330
68024
102
}
330
2
100
AcDbEntity
  8
MABAT3
100
AcDbPolyline
 90
        5
 70
     0
 43
0.0
 10
-235.0107857124157
 20
-151.7149664202177
 10
-234.3234364224804
 20
-152.9345991663237
 10
-242.3400648412339
 20
-157.4525361181665
 10
-243.0034544794998
 20
-156.2194004142108
 10
-235.0184614861532
 20
-151.7493552597177
  0
LWPOLYLINE
  5
68073
102
{ACAD_REACTORS
330
68026
102
}
330
2
100
AcDbEntity
  8
MABAT3
100
AcDbPolyline
 90
        5
 70
     0
 43
0.0
 10
-219.0254481782453
 20
-142.7060984322349
 10
-218.33809888831
 20
-143.925731178341
 10
-226.3547273070634
 20
-148.4436681301838
 10
-227.0181169453294
 20
-147.2105324262281
 10
-219.0331239519827
 20
-142.7404872717349
  0
LWPOLYLINE
  5
68074
102
{ACAD_REACTORS
330
68027
102
}
330
2
100
AcDbEntity
  8
MABAT3
100
AcDbPolyline
 90
        5
 70
     0
 43
0.0
 10
-219.0254481782458
 20
-142.7060984322349
 10
-218.33809888831
 20
-143.925731178341
 10
-210.3214704695542
 20
-139.4077942265028
 10
-211.032779411159
 20
-138.2016644382454
 10
-218.9920552344374
 20
-142.7173421455206
  0
LWPOLYLINE
  5
68075
102
{ACAD_REACTORS
330
68028
102
}
330
2
100
AcDbEntity
  8
MABAT3
100
AcDbPolyline
 90
        5
 70
     0
 43
0.0
 10
-203.0401106440749
 20
-133.6972304442522
 10
-202.3527613541395
 20
-134.9168631903582
 10
-210.3693897728931
 20
-139.434800142201
 10
-211.032779411159
 20
-138.2016644382454
 10
-203.0477864178124
 20
-133.7316192837522
  0
LWPOLYLINE
  5
68076
102
{ACAD_REACTORS
330
68029
102
}
330
2
100
AcDbEntity
  8
MABAT3
100
AcDbPolyline
 90
        5
 70
     0
 43
0.0
 10
-203.0401106440754
 20
-133.6972304442522
 10
-202.3527613541395
 20
-134.9168631903582
 10
-194.3361329353838
 20
-130.39892623852
 10
-195.0474418769886
 20
-129.1927964502626
 10
-203.006717700267
 20
-133.7084741575379
  0
LINE
  5
68077
330
2
100
AcDbEntity
  8
TIN
100
AcDbLine
 10
-216.6849057135989
 20
-141.0228869714026
 30
0.0
 11
-219.1777622762935
 21
-136.5995616843536
 31
0.0
  0
LWPOLYLINE
  5
6807F
102
{ACAD_REACTORS
330
68031
102
}
330
2
100
AcDbEntity
  8
MABAT3
370
    50
100
AcDbPolyline
 90
        4
 70
     1
 43
0.0
 10
-108.9052137037506
 20
-71.33051193416282
 10
-104.5510014794053
 20
-68.87270073202285
 10
-103.3220958783349
 20
-71.04980684419547
 10
-107.6763081026802
 20
-73.50761804633544
  0
LINE
  5
680A4
330
2
100
AcDbEntity
  8
TIN
100
AcDbLine
 10
-245.0913395099996
 20
-154.1029974800373
 30
0.0
 11
-217.937668709606
 21
-138.7999840086556
 31
0.0
  0
LINE
  5
680AA
330
2
100
AcDbEntity
  8
MABAT3
 48
50.0
100
AcDbLine
 10
-192.2598878410251
 20
-130.9925223812995
 30
0.0
 11
-179.132678462515
 21
-130.9925223812995
 31
0.0
  0
LINE
  5
680AB
330
2
100
AcDbEntity
  8
MABAT3
100
AcDbLine
 10
-145.2415860175167
 20
-111.8924954251613
 30
0.0
 11
-93.07296781866
 21
-82.49179034373753
 31
0.0
  0
HATCH
  5
680B0
330
2
100
AcDbEntity
  8
WOD-HT
370
    50
100
AcDbHatch
 10
0.0
 20
0.0
 30
0.0
210
0.0
220
0.0
230
1.0
  2
ANSI31
 70
     0
 71
     1
 91
        1
 92
        1
 93
        4
 72
     1
 10
-246.1875091818942
 20
-151.6007496393319
 11
-248.6453203840342
 21
-147.2465374149867
 72
     1
 10
-248.6453203840342
 20
-147.2465374149867
 11
-246.4682142718615
 21
-146.0176318139172
 72
     1
 10
-246.4682142718615
 20
-146.0176318139172
 11
-244.0104030697216
 21
-150.3718440382624
 72
     1
 10
-244.0104030697216
 20
-150.3718440382624
 11
-246.1875091818942
 21
-151.6007496393319
 97
        1
330
680B1
 75
     0
 76
     1
 52
137.4433149197211
 41
4.0
 77
     0
 78
     1
 53
182.4433149197209
 43
324.8516618953904
 44
949.2311495203496
 45
0.0213154832626978
 46
-0.4995454435517131
 79
     0
 98
        1
 10
324.8516618953904
 20
949.2311495203496
  0
LWPOLYLINE
  5
680B1
102
{ACAD_REACTORS
330
680B0
102
}
330
2
100
AcDbEntity
  8
MABAT3
370
    50
100
AcDbPolyline
 90
        4
 70
     1
 43
0.0
 10
-246.1875091818942
 20
-151.6007496393319
 10
-248.6453203840342
 20
-147.2465374149867
 10
-246.4682142718615
 20
-146.0176318139172
 10
-244.0104030697216
 20
-150.3718440382624
  0
HATCH
  5
680C7
330
2
100
AcDbEntity
  8
HATCH
370
    50
100
AcDbHatch
 10
0.0
 20
0.0
 30
0.0
210
0.0
220
0.0
230
1.0
  2
ANSI31
 70
     0
 71
     1
 91
        1
 92
        1
 93
       36
 72
     2
 10
-140.5792544774192
 20
-86.07325115070626
 40
0.1000000000002685
 50
65.92551571382805
 51
155.925515713828
 73
     0
 72
     1
 10
-140.6705560704021
 20
-86.11404354115871
 11
-141.2416495367401
 21
-84.83582123940392
 72
     2
 10
-140.1460304209492
 20
-84.34631255397153
 40
1.200000000000068
 50
155.9255157136061
 51
245.9255157136061
 73
     0
 72
     1
 10
-140.6355391063816
 20
-83.25069343818062
 11
-103.4757907624812
 21
-66.64819052392317
 72
     2
 10
-103.4349983720285
 20
-66.73949211690637
 40
0.1000000000005689
 50
245.9255157137622
 51
335.9255157137622
 73
     0
 72
     1
 10
-103.3436967790453
 20
-66.69869972645369
 11
-102.3238870177269
 21
-68.98123955101687
 72
     2
 10
-102.4151886107101
 20
-69.02203194146955
 40
0.1000000000005689
 50
335.9255157137622
 51
425.9255157137621
 73
     0
 72
     1
 10
-102.3743962202575
 20
-69.11333353445275
 11
-103.6706805694889
 21
-69.69249689386629
 72
     2
 10
-103.7114729599416
 20
-69.60119530088386
 40
0.0999999999999031
 50
65.92551571353827
 51
143.3967080043873
 73
     0
 72
     1
 10
-103.7917512816488
 20
-69.66082240096307
 11
-104.5206909984012
 21
-68.67942204761743
 72
     2
 10
-104.6009693201084
 20
-68.73904914769664
 40
0.0999999999999031
 50
36.60329199561267
 51
114.0744842864617
 73
     1
 72
     1
 10
-104.6417617105612
 20
-68.64774755471422
 11
-105.1580313975978
 21
-68.87841028429443
 72
     2
 10
-105.2447960965581
 20
-68.92812835962349
 40
0.1000000000005416
 50
330.1863452359784
 51
425.925515713238
 73
     0
 72
     1
 10
-105.2040037061046
 20
-69.01942995260629
 11
-107.7604483096169
 21
-70.16161688528223
 72
     2
 10
-107.8012407000693
 20
-70.07031529230042
 40
0.0999999999991583
 50
65.92551571361513
 51
161.664686190885
 73
     0
 72
     1
 10
-107.8961638771193
 20
-70.10177304903186
 11
-134.2738071811795
 21
-81.88696857226091
 72
     2
 10
-134.2330147907269
 20
-81.97827016524216
 40
0.0999999999987566
 50
114.0744842866482
 51
179.8467389686894
 73
     1
 72
     1
 10
-134.3330144329688
 20
-81.97800267460001
 11
-134.3356017856626
 21
-82.94526770210973
 72
     2
 10
-134.4356014279062
 20
-82.94500021146664
 40
0.1000000000003781
 50
0.1532610318536211
 51
65.92551571389094
 73
     0
 72
     1
 10
-134.3948090374537
 20
-83.03630180444974
 11
-134.9154531431913
 21
-83.26891896866777
 72
     2
 10
-134.9562455336441
 20
-83.17761737568432
 40
0.1000000000008372
 50
65.9255157137774
 51
132.0497259630822
 73
     0
 72
     1
 10
-135.0232230652577
 20
-83.25187375762629
 11
-135.7386041266745
 21
-82.60661665778547
 72
     2
 10
-135.8055816582872
 20
-82.68087303972754
 40
0.1000000000002843
 50
47.95027403733736
 51
114.0744842866531
 73
     1
 72
     1
 10
-135.8463740487404
 20
-82.58957144674491
 11
-136.3737438197781
 21
-82.825193552673
 72
     2
 10
-136.3329514293248
 20
-82.9164951456547
 40
0.0999999999994616
 50
114.0744842869136
 51
179.846738968951
 73
     1
 72
     1
 10
-136.4329510715674
 20
-82.91622765501301
 11
-136.4355384242612
 21
-83.88349268252182
 72
     2
 10
-136.5355380665047
 20
-83.88322519187871
 40
0.1000000000003781
 50
0.1532610318536211
 51
65.92551571389094
 73
     0
 72
     1
 10
-136.4947456760523
 20
-83.97452678486184
 11
-137.0153897817904
 21
-84.20714394907987
 72
     2
 10
-137.0561821722429
 20
-84.11584235609677
 40
0.1000000000004201
 50
65.92551571381328
 51
132.0497259631219
 73
     0
 72
     1
 10
-137.1231597038563
 20
-84.19009873803839
 11
-137.8385407652735
 21
-83.54484163819847
 72
     2
 10
-137.9055182968863
 20
-83.61909802014054
 40
0.1000000000002843
 50
47.95027403733736
 51
114.0744842866531
 73
     1
 72
     1
 10
-137.9463106873395
 20
-83.52779642715791
 11
-139.1059439897803
 21
-84.04590583697041
 72
     2
 10
-139.0651515993279
 20
-84.13720742995351
 40
0.1000000000003751
 50
114.074484286109
 51
179.8467389681463
 73
     1
 72
     1
 10
-139.1651512415714
 20
-84.13693993931042
 11
-139.1687652366281
 21
-85.48800855722106
 72
     2
 10
-139.2687648788714
 20
-85.48774106657832
 40
0.1000000000001498
 50
0.1532610316504219
 51
65.925515713689
 73
     0
 72
     1
 10
-139.2279724884188
 20
-85.57904265956109
 11
-140.5384620869667
 21
-86.16455274368922
 97
        1
330
680C8
 75
     0
 76
     1
 52
30.07448428640825
 41
0.14
 77
     0
 78
     1
 53
75.07448428640825
 43
-69.52840644302568
 44
-480.5681378370007
 45
-0.429503225070971
 46
0.1144868099548363
 79
     0
 98
        1
 10
-69.52840644302568
 20
-480.5681378370007
  0
LWPOLYLINE
  5
680C8
102
{ACAD_REACTORS
330
680C7
102
}
330
2
100
AcDbEntity
  8
CLAY
370
    50
100
AcDbPolyline
 90
       36
 70
     1
 43
0.0
 10
-140.5384620869667
 20
-86.16455274368922
 42
-0.4142135623730906
 10
-140.6705560704021
 20
-86.11404354115871
 10
-141.2416495367401
 20
-84.83582123940392
 42
-0.4142135623730921
 10
-140.6355391063816
 20
-83.25069343818062
 10
-103.4757907624812
 20
-66.64819052392317
 42
-0.4142135623730966
 10
-103.3436967790453
 20
-66.69869972645369
 10
-102.3238870177269
 20
-68.98123955101687
 42
-0.4142135623730906
 10
-102.3743962202575
 20
-69.11333353445275
 10
-103.6706805694889
 20
-69.69249689386629
 42
-0.3515239862758961
 10
-103.7917512816488
 20
-69.66082240096307
 10
-104.5206909984012
 20
-68.67942204761743
 42
0.3515239862758932
 10
-104.6417617105612
 20
-68.64774755471422
 10
-105.1580313975978
 20
-68.87841028429443
 42
-0.443865691193171
 10
-105.2040037061046
 20
-69.01942995260629
 10
-107.7604483096169
 20
-70.16161688528223
 42
-0.4438656911931694
 10
-107.8961638771193
 20
-70.10177304903186
 10
-134.2738071811795
 20
-81.88696857226091
 42
0.2951328942983379
 10
-134.3330144329688
 20
-81.97800267460001
 10
-134.3356017856626
 20
-82.94526770210973
 42
-0.2951328942983392
 10
-134.3948090374537
 20
-83.03630180444974
 10
-134.9154531431913
 20
-83.26891896866777
 42
-0.2968031128494228
 10
-135.0232230652577
 20
-83.25187375762629
 10
-135.7386041266745
 20
-82.60661665778547
 42
0.2968031128494321
 10
-135.8463740487404
 20
-82.58957144674491
 10
-136.3737438197781
 20
-82.825193552673
 42
0.2951328942983389
 10
-136.4329510715674
 20
-82.91622765501301
 10
-136.4355384242612
 20
-83.88349268252182
 42
-0.2951328942983325
 10
-136.4947456760523
 20
-83.97452678486184
 10
-137.0153897817904
 20
-84.20714394907987
 42
-0.2968031128494286
 10
-137.1231597038563
 20
-84.19009873803839
 10
-137.8385407652735
 20
-83.54484163819847
 42
0.2968031128494321
 10
-137.9463106873395
 20
-83.52779642715791
 10
-139.1059439897803
 20
-84.04590583697041
 42
0.2951328942983365
 10
-139.1651512415714
 20
-84.13693993931042
 10
-139.1687652366281
 20
-85.48800855722106
 42
-0.2951328942983412
 10
-139.2279724884188
 20
-85.57904265956109
  0
TEXT
  5
6A28E
330
2
100
AcDbEntity
  8
TEXT03
100
AcDbText
 10
-125.40654954251
 20
-110.2524539159012
 30
0.0
 40
2.0
  1
 
  7
ORON
 72
     1
 11
-119.454168590129
 21
-109.2524539159012
 31
0.0
100
AcDbText
 73
     2
  0
TEXT
  5
6A2C6
330
2
100
AcDbEntity
  8
TEXT03
100
AcDbText
 10
-189.2963530284271
 20
-97.69988438255523
 30
0.0
 40
1.6
  1

  7
ORON
100
AcDbText
  0
LEADER
  5
6A2C7
330
2
100
AcDbEntity
  8
TEXT03
100
AcDbLeader
  3
LEADER-10
 40
15.0
 76
     3
 10
-164.6047605061144
 20
-103.0396918375346
 30
0.0
 10
-180.3881441749415
 20
-98.12090715912665
 30
0.0
 10
-189.7813035730037
 20
-98.12090715912665
 30
0.0
213
4.697365185055105
223
0.0
233
0.0
  0
LEADER
  5
6A2C9
330
2
100
AcDbEntity
  8
TEXT03
100
AcDbLeader
  3
LEADER-10
 40
15.0
 76
     3
 10
-142.7533734472813
 20
-98.47147604968064
 30
0.0
 10
-126.5962649003763
 20
-110.7192080625666
 30
0.0
 10
-113.0673930000007
 20
-110.7192080625666
 30
0.0
211
-1.0
221
0.0
231
0.0
210
0.0
220
0.0
230
-1.0
213
-4.697365185055105
223
0.0
233
0.0
  0
LWPOLYLINE
  5
6A2CA
330
2
100
AcDbEntity
  8
TEXT03
100
AcDbPolyline
 90
        2
 70
     1
 43
0.75
 10
-156.5664043413494
 20
-158.8723726011662
 42
-1.0
 10
-157.3164043413494
 20
-158.8723726011662
 42
-1.0
  0
TEXT
  5
6A2CB
330
2
100
AcDbEntity
  8
TEXT03
100
AcDbText
 10
-150.3413240760463
 20
-172.4590117606452
 30
0.0
 40
2.001
  1
 
 41
1.1
  7
ORON
 72
     4
 11
-141.9037740760463
 21
-171.7920117606452
 31
0.0
100
AcDbText
  0
LWPOLYLINE
  5
6A2CC
330
2
100
AcDbEntity
  8
TEXT03
100
AcDbPolyline
 90
        3
 70
     0
 43
0.0
 10
-156.9414043413494
 20
-158.8723726011662
 10
-151.1671710046634
 20
-173.1464997375278
 10
-132.6896530872095
 20
-173.1464997375278
  0
LWPOLYLINE
  5
6A2CE
330
2
100
AcDbEntity
  8
MABAT2
100
AcDbPolyline
 90
        6
 70
     0
 43
0.0
 10
-25.80760926179277
 20
-169.561767534117
 10
-25.80880709543339
 20
-155.7532941895383
 10
-20.32550979920665
 20
-153.2904453175028
 10
-31.61679336770862
 20
-155.2814032574601
 10
-25.80673973620901
 20
-152.6730313505663
 10
-25.80673973620901
 20
-138.4071390477185
  0
HATCH
  5
6A39E
330
2
100
AcDbEntity
  8
HATCH
100
AcDbHatch
 10
0.0
 20
0.0
 30
0.0
210
0.0
220
0.0
230
1.0
  2
_USER
 70
     0
 71
     1
 91
        1
 92
        7
 72
     1
 73
     1
 93
       32
 10
-206.1620218307393
 20
-122.2697944116878
 42
0.0
 10
-226.5669214976965
 20
-131.3864440469485
 42
0.4142135623730613
 10
-227.1730319280546
 20
-132.9715718481717
 42
0.0
 10
-226.6019384617167
 20
-134.2497941499273
 42
0.414213562373163
 10
-226.4698444782822
 20
-134.3003033524568
 42
0.0
 10
-225.1593548797346
 20
-133.7147932683296
 42
0.2951328942978788
 10
-225.1001476279447
 20
-133.6237591659907
 42
0.0
 10
-225.0963606772855
 20
-132.2080322184011
 42
0.0
 10
-223.8182603297064
 20
-131.6369932396374
 42
0.0
 10
-223.0545420951728
 20
-132.3258493468069
 42
0.2968031128492115
 10
-222.946772173107
 20
-132.3428945578479
 42
0.0
 10
-222.4261280673679
 20
-132.1102773936298
 42
0.2951328942981214
 10
-222.3669208155774
 20
-132.01924329129
 42
0.0
 10
-222.3641605072824
 20
-130.9873199341035
 42
0.0
 10
-221.7183236911056
 20
-130.6987682592247
 42
0.0
 10
-220.9546054565723
 20
-131.387624366394
 42
0.2968031128493839
 10
-220.8468355345078
 20
-131.4046695774349
 42
0.0
 10
-220.3261914287687
 20
-131.1720524132167
 42
0.2951328942983836
 10
-220.2669841769789
 20
-131.0810183108777
 42
0.0
 10
-220.2642238686848
 20
-130.0490949536925
 42
0.0
 10
-205.6113245596275
 20
-123.5023659169516
 42
0.0
 10
-193.6458583924236
 20
-118.1563478257384
 42
-0.4438656911934716
 10
-193.6918307009313
 20
-118.2973674940501
 42
0.0
 10
-191.1353860974203
 20
-117.1551805613743
 42
2.252933758651276
 10
-191.2711016649239
 20
-117.095336725123
 42
0.0
 10
-190.4999045563699
 20
-116.7507756661052
 42
0.0
 10
-189.7231336729642
 20
-117.7965730097309
 42
0.3515239862758936
 10
-189.6020629608043
 20
-117.8282475026342
 42
0.0
 10
-188.305778611573
 20
-117.2490841432207
 42
0.4142135623730791
 10
-188.255269409043
 20
-117.116990159785
 42
0.0
 10
-189.2750791703608
 20
-114.8344503352211
 42
0.4142135623731857
 10
-189.407173153796
 20
-114.7839411326913
 42
0.0
 97
        2
330
6804E
330
68045
 75
     0
 76
     0
 52
60.0
 41
0.5
 77
     0
 78
     1
 53
60.0
 43
285.8649515440442
 44
-54.5409871377708
 45
-0.4330127018922193
 46
0.25
 79
     0
 47
0.1100364792689063
 98
        1
 10
-198.2409620928706
 20
-119.1712102726817
  0
TEXT
  5
6A3A0
330
2
100
AcDbEntity
  8
TEXT04
100
AcDbText
 10
-163.836686113735
 20
-185.8206766468959
 30
0.0
 40
4.0
  1
%%u
  7
ORONB
 72
     4
 11
-156.5319242089731
 21
-184.2206766468959
 31
0.0
100
AcDbText
  0
TEXT
  5
6A3A1
330
2
100
AcDbEntity
  8
TEXT04
100
AcDbText
 10
-218.8653365562426
 20
-185.5540099802293
 30
0.0
 40
4.0
  1
%%U
  7
ORONB
 72
     4
 11
-213.1796222705284
 21
-184.2206766468959
 31
0.0
100
AcDbText
  0
LWPOLYLINE
  5
6A3A3
102
{ACAD_REACTORS
330
6A592
102
}
330
2
100
AcDbEntity
  8
MABAT2
100
AcDbPolyline
 90
        6
 70
     0
 43
0.0
 10
-18.40535498004226
 20
-44.35311240339638
 10
-28.41964323096419
 20
-34.8458536833345
 10
-26.42997781826057
 20
-29.1736931292965
 10
-32.76105985507774
 20
-38.73268880803241
 10
-30.65192784996634
 20
-32.72337192584112
 10
-40.2709453216843
 20
-23.58978458023738
  0
TEXT
  5
6A3A5
330
2
100
AcDbEntity
  8
TEXT03
100
AcDbText
 10
-162.0507128389654
 20
-190.2884135953824
 30
0.0
 40
1.6
  1
 
  7
ORON
100
AcDbText
  0
LEADER
  5
6A3A6
330
2
100
AcDbEntity
  8
TEXT03
100
AcDbLeader
  3
LEADER-10
 40
15.0
 76
     3
 10
-171.573608216021
 20
-186.0007528799258
 30
0.0
 10
-162.069244661375
 20
-190.797247311973
 30
0.0
 10
-152.0614138776091
 20
-190.797247311973
 30
0.0
211
-1.0
221
0.0
231
0.0
210
0.0
220
0.0
230
-1.0
213
-4.697365185055105
223
0.0
233
0.0
  0
LINE
  5
6A3AF
330
2
100
AcDbEntity
  8
AK-TIH
100
AcDbLine
 10
-171.573608216021
 20
-167.6334371158697
 30
0.0
 11
-82.11325988192175
 21
-167.6334371158697
 31
0.0
  0
LINE
  5
6A3B0
330
2
100
AcDbEntity
  8
AK-TIH
100
AcDbLine
 10
-171.573608216021
 20
-167.6334371158697
 30
0.0
 11
-171.573608216021
 21
-198.3178528435283
 31
0.0
  0
LINE
  5
6A3B1
330
2
100
AcDbEntity
  8
MABAT2
100
AcDbLine
 10
-172.0002687304254
 20
-167.1626114728642
 30
0.0
 11
-173.0736082160215
 21
-166.1334371158698
 31
0.0
  0
LWPOLYLINE
  5
6A3B2
330
2
100
AcDbEntity
  8
MABAT2
100
AcDbPolyline
 90
        3
 70
     0
 43
0.0
 10
-172.0002687304254
 20
-168.4126114728644
 10
-172.0002687304254
 20
-167.1626114728642
 10
-170.7502687304254
 20
-167.1626114728644
  0
LWPOLYLINE
  5
6A3B3
102
{ACAD_REACTORS
330
6A5F0
102
}
330
2
100
AcDbEntity
  8
MABAT2
100
AcDbPolyline
 90
        6
 70
     0
 43
0.0
 10
-200.0405633659598
 20
-214.7526107092025
 10
-184.9902878598587
 20
-206.0615892667196
 10
-180.1157495228807
 20
-209.5788395857367
 10
-187.4856114610011
 20
-200.7957801440588
 10
-182.3216683113636
 20
-204.5232482328406
 10
-169.9670431694445
 20
-197.3903020814168
  0
HATCH
  5
6A3BC
330
2
100
AcDbEntity
  8
WOD-HT
370
    50
100
AcDbHatch
 10
0.0
 20
0.0
 30
0.0
210
0.0
220
0.0
230
1.0
  2
ANSI31
 70
     0
 71
     1
 91
        1
 92
        1
 93
        4
 72
     1
 10
-43.93545296689888
 20
-34.7232673666252
 11
-39.58124074255363
 21
-32.26545616448614
 72
     1
 10
-39.58124074255363
 20
-32.26545616448614
 11
-38.35233514148319
 21
-34.44256227665785
 72
     1
 10
-38.35233514148319
 20
-34.44256227665785
 11
-42.70654736582844
 21
-36.90037347879782
 72
     1
 10
-42.70654736582844
 20
-36.90037347879782
 11
-43.93545296689888
 21
-34.7232673666252
 97
        1
330
6A3BD
 75
     0
 76
     1
 52
47.44331491972115
 41
4.0
 77
     0
 78
     1
 53
92.44331491972069
 43
1056.896446192783
 44
-605.7624384439108
 45
-0.4995454435517131
 46
-0.0213154832626978
 79
     0
 98
        1
 10
1056.896446192783
 20
-605.7624384439108
  0
LWPOLYLINE
  5
6A3BD
102
{ACAD_REACTORS
330
6A3BC
102
}
330
2
100
AcDbEntity
  8
MABAT3
370
    50
100
AcDbPolyline
 90
        4
 70
     1
 43
0.0
 10
-43.93545296689888
 20
-34.7232673666252
 10
-39.58124074255363
 20
-32.26545616448614
 10
-38.35233514148319
 20
-34.44256227665785
 10
-42.70654736582844
 20
-36.90037347879782
  0
HATCH
  5
6A3BE
330
2
100
AcDbEntity
  8
HATCH
370
    50
100
AcDbHatch
 10
0.0
 20
0.0
 30
0.0
210
0.0
220
0.0
230
1.0
  2
ANSI31
 70
     0
 71
     1
 91
        1
 92
        1
 93
       36
 72
     2
 10
-75.60949374056747
 20
-49.46600658316864
 40
0.1000000000002685
 50
65.92551571382805
 51
155.925515713828
 73
     0
 72
     1
 10
-75.70079533355045
 20
-49.5067989736211
 11
-76.27188879988842
 21
-48.2285766718663
 72
     2
 10
-75.1762696840975
 20
-47.73906798643392
 40
1.200000000000079
 50
155.9255157136067
 51
245.9255157136056
 73
     0
 72
     1
 10
-75.66577836952991
 20
-46.64344887064301
 11
-38.50603002562945
 21
-30.04094595638556
 72
     2
 10
-38.46523763517677
 20
-30.13224754936876
 40
0.1000000000005689
 50
245.9255157137622
 51
335.9255157137622
 73
     0
 72
     1
 10
-38.37393604219357
 20
-30.09145515891608
 11
-37.35412628087522
 21
-32.37399498347925
 72
     2
 10
-37.44542787385842
 20
-32.41478737393193
 40
0.1000000000005689
 50
335.9255157137622
 51
425.9255157137621
 73
     0
 72
     1
 10
-37.40463548340574
 20
-32.50608896691513
 11
-38.70091983263717
 21
-33.08525232632868
 72
     2
 10
-38.74171222308993
 20
-32.99395073334624
 40
0.0999999999999031
 50
65.92551571353827
 51
143.3967080043873
 73
     0
 72
     1
 10
-38.82199054479713
 20
-33.05357783342545
 11
-39.55093026154952
 21
-32.07217748007982
 72
     2
 10
-39.63120858325672
 20
-32.13180458015903
 40
0.0999999999999031
 50
36.60329199561267
 51
114.0744842864617
 73
     1
 72
     1
 10
-39.67200097370948
 20
-32.0405029871766
 11
-40.18827066074607
 21
-32.27116571675681
 72
     2
 10
-40.27503535970644
 20
-32.32088379208587
 40
0.1000000000005416
 50
330.1863452359784
 51
425.925515713238
 73
     0
 72
     1
 10
-40.23424296925293
 20
-32.41218538506867
 11
-42.79068757276525
 21
-33.55437231774461
 72
     2
 10
-42.83147996321758
 20
-33.4630707247628
 40
0.0999999999991648
 50
65.9255157136168
 51
161.6646861908812
 73
     0
 72
     1
 10
-42.92640314026755
 20
-33.49452848149425
 11
-69.30404644432781
 21
-45.2797240047233
 72
     2
 10
-69.26325405387522
 20
-45.37102559770455
 40
0.0999999999987566
 50
114.0744842866482
 51
179.8467389686894
 73
     1
 72
     1
 10
-69.36325369611711
 20
-45.3707581070624
 11
-69.36584104881092
 21
-46.33802313457212
 72
     2
 10
-69.46584069105442
 20
-46.33775564392903
 40
0.1000000000003639
 50
0.1532610318496009
 51
65.92551571389674
 73
     0
 72
     1
 10
-69.42504830060205
 20
-46.42905723691213
 11
-69.94569240633961
 21
-46.66167440113016
 72
     2
 10
-69.98648479679238
 20
-46.57037280814671
 40
0.1000000000008307
 50
65.92551571377573
 51
132.049725963085
 73
     0
 72
     1
 10
-70.053462328406
 20
-46.64462919008868
 11
-70.76884338982279
 21
-45.99937209024786
 72
     2
 10
-70.83582092143548
 20
-46.07362847218993
 40
0.1000000000002801
 50
47.95027403734614
 51
114.0744842866588
 73
     1
 72
     1
 10
-70.87661331188872
 20
-45.9823268792073
 11
-71.4039830829264
 21
-46.21794898513538
 72
     2
 10
-71.36319069247311
 20
-46.30925057811708
 40
0.0999999999994494
 50
114.0744842869078
 51
179.846738968955
 73
     1
 72
     1
 10
-71.4631903347157
 20
-46.3089830874754
 11
-71.46577768740951
 21
-47.2762481149842
 72
     2
 10
-71.56577732965303
 20
-47.2759806243411
 40
0.1000000000003781
 50
0.1532610318536211
 51
65.92551571389094
 73
     0
 72
     1
 10
-71.52498493920063
 20
-47.36728221732422
 11
-72.04562904493866
 21
-47.59989938154225
 72
     2
 10
-72.0864214353912
 20
-47.50859778855915
 40
0.1000000000004136
 50
65.92551571381164
 51
132.0497259631246
 73
     0
 72
     1
 10
-72.15339896700459
 20
-47.58285417050077
 11
-72.86878002842184
 21
-46.93759707066086
 72
     2
 10
-72.93575756003453
 20
-47.01185345260293
 40
0.1000000000002801
 50
47.95027403734614
 51
114.0744842866588
 73
     1
 72
     1
 10
-72.97654995048777
 20
-46.92055185962029
 11
-74.13618325292862
 21
-47.43866126943279
 72
     2
 10
-74.09539086247623
 20
-47.5299628624159
 40
0.1000000000003693
 50
114.0744842861016
 51
179.8467389681463
 73
     1
 72
     1
 10
-74.19539050471974
 20
-47.52969537177281
 11
-74.19900449977638
 21
-48.88076398968345
 72
     2
 10
-74.29900414201966
 20
-48.88049649904071
 40
0.1000000000001356
 50
0.1532610316504728
 51
65.92551571369644
 73
     0
 72
     1
 10
-74.25821175156705
 20
-48.97179809202347
 11
-75.56870135011502
 21
-49.55730817615162
 97
        1
330
6A3BF
 75
     0
 76
     1
 52
30.07448428640825
 41
0.14
 77
     0
 78
     1
 53
75.07448428640825
 43
-4.558645706173933
 44
-443.960893269463
 45
-0.429503225070971
 46
0.1144868099548363
 79
     0
 98
        1
 10
-4.558645706173933
 20
-443.960893269463
  0
LWPOLYLINE
  5
6A3BF
102
{ACAD_REACTORS
330
6A3BE
102
}
330
2
100
AcDbEntity
  8
CLAY
370
    50
100
AcDbPolyline
 90
       36
 70
     1
 43
0.0
 10
-75.56870135011502
 20
-49.55730817615162
 42
-0.4142135623730906
 10
-75.70079533355045
 20
-49.5067989736211
 10
-76.27188879988842
 20
-48.2285766718663
 42
-0.4142135623730921
 10
-75.66577836952991
 20
-46.64344887064301
 10
-38.50603002562945
 20
-30.04094595638556
 42
-0.4142135623730966
 10
-38.37393604219357
 20
-30.09145515891608
 10
-37.35412628087522
 20
-32.37399498347925
 42
-0.4142135623730906
 10
-37.40463548340574
 20
-32.50608896691513
 10
-38.70091983263717
 20
-33.08525232632868
 42
-0.3515239862758961
 10
-38.82199054479713
 20
-33.05357783342545
 10
-39.55093026154952
 20
-32.07217748007982
 42
0.3515239862758932
 10
-39.67200097370948
 20
-32.0405029871766
 10
-40.18827066074607
 20
-32.27116571675681
 42
-0.443865691193171
 10
-40.23424296925293
 20
-32.41218538506867
 10
-42.79068757276525
 20
-33.55437231774461
 42
-0.4438656911931694
 10
-42.92640314026755
 20
-33.49452848149425
 10
-69.30404644432781
 20
-45.2797240047233
 42
0.2951328942983379
 10
-69.36325369611711
 20
-45.3707581070624
 10
-69.36584104881092
 20
-46.33802313457212
 42
-0.2951328942983392
 10
-69.42504830060205
 20
-46.42905723691213
 10
-69.94569240633961
 20
-46.66167440113016
 42
-0.2968031128494228
 10
-70.053462328406
 20
-46.64462919008868
 10
-70.76884338982279
 20
-45.99937209024786
 42
0.2968031128494321
 10
-70.87661331188872
 20
-45.9823268792073
 10
-71.4039830829264
 20
-46.21794898513538
 42
0.2951328942983389
 10
-71.4631903347157
 20
-46.3089830874754
 10
-71.46577768740951
 20
-47.2762481149842
 42
-0.2951328942983325
 10
-71.52498493920063
 20
-47.36728221732422
 10
-72.04562904493866
 20
-47.59989938154225
 42
-0.2968031128494286
 10
-72.15339896700459
 20
-47.58285417050077
 10
-72.86878002842184
 20
-46.93759707066086
 42
0.2968031128494321
 10
-72.97654995048777
 20
-46.92055185962029
 10
-74.13618325292862
 20
-47.43866126943279
 42
0.2951328942983365
 10
-74.19539050471974
 20
-47.52969537177281
 10
-74.19900449977638
 20
-48.88076398968345
 42
-0.2951328942983412
 10
-74.25821175156705
 20
-48.97179809202347
  0
LINE
  5
6A3C8
330
2
100
AcDbEntity
  8
BETON
100
AcDbLine
 10
-52.1132598819218
 20
-167.6334371158697
 30
0.0
 11
-52.11325988192175
 21
-147.8436741024277
 31
0.0
  0
LINE
  5
6A3C9
330
2
100
AcDbEntity
  8
BETON
100
AcDbLine
 10
-82.11325988192175
 20
-166.1334371158698
 30
0.0
 11
-82.1132598819218
 21
-147.8436741024277
 31
0.0
  0
LINE
  5
6A3CA
330
2
100
AcDbEntity
  8
BETON
370
    50
100
AcDbLine
 10
-82.11325988192175
 20
-147.8436741024277
 30
0.0
 11
-195.0736082160215
 21
-147.8436741024277
 31
0.0
  0
LINE
  5
6A3CB
330
2
100
AcDbEntity
  8
BETON
370
    50
100
AcDbLine
 10
-52.11325988192175
 20
-166.1334371158698
 30
0.0
 11
-25.80790665668962
 21
-166.1334371158698
 31
0.0
  0
LINE
  5
6A3CD
330
2
100
AcDbEntity
  8
AK-TIH
100
AcDbLine
 10
-82.11325988192175
 20
-166.1334371158698
 30
0.0
 11
-82.11325988192175
 21
-167.6334371158697
 31
0.0
  0
LWPOLYLINE
  5
6A3CE
330
2
100
AcDbEntity
  8
MABAT2
100
AcDbPolyline
 90
        3
 70
     0
 43
0.0
 10
-82.33006777816013
 20
-166.370948507227
 10
-83.58006777816013
 20
-166.3709485072267
 10
-83.58006777816013
 20
-167.4001228642214
  0
LINE
  5
6A3D0
330
2
100
AcDbEntity
  8
AK-TIH
100
AcDbLine
 10
-52.11325988192175
 20
-166.1334371158698
 30
0.0
 11
-52.11325988192175
 21
-167.6334371158697
 31
0.0
  0
LWPOLYLINE
  5
6A3D1
330
2
100
AcDbEntity
  8
MABAT2
100
AcDbPolyline
 90
        3
 70
     0
 43
0.0
 10
-51.89645198568337
 20
-166.370948507227
 10
-50.64645198568337
 20
-166.3709485072267
 10
-50.64645198568337
 20
-167.4001228642214
  0
LINE
  5
6A3D2
330
2
100
AcDbEntity
  8
AK-TIH
100
AcDbLine
 10
-52.11325988192169
 20
-167.6334371158697
 30
0.0
 11
-25.80777653727557
 21
-167.6334371158696
 31
0.0
  0
LINE
  5
6A3D4
330
2
100
AcDbEntity
  8
HIDDEN
100
AcDbLine
 10
-52.1132598819218
 20
-166.1334371158698
 30
0.0
 11
-82.1132598819217
 21
-166.1334371158697
 31
0.0
  0
LINE
  5
6A3D6
330
2
100
AcDbEntity
  8
MABAT
100
AcDbLine
 10
-52.1132598819218
 20
-167.6334371158697
 30
0.0
 11
-82.1132598819217
 21
-167.6334371158697
 31
0.0
  0
LINE
  5
6A3D9
330
2
100
AcDbEntity
  8
MABAT8
100
AcDbLine
 10
-80.61325988192185
 20
-167.6334371158697
 30
0.0
 11
-80.61325988192152
 21
-101.5451204820661
 31
0.0
  0
LINE
  5
6A3DA
330
2
100
AcDbEntity
  8
MABAT8
100
AcDbLine
 10
-78.11325988192186
 20
-167.6334371158697
 30
0.0
 11
-78.11325988192158
 21
-100.8891566951084
 31
0.0
  0
LINE
  5
6A3DB
330
2
100
AcDbEntity
  8
MABAT8
100
AcDbLine
 10
-74.11325988192186
 20
-167.6334371158697
 30
0.0
 11
-74.11325988192158
 21
-99.83961463597621
 31
0.0
  0
LINE
  5
6A3DC
330
2
100
AcDbEntity
  8
MABAT8
100
AcDbLine
 10
-67.11325988192186
 20
-167.6334371158697
 30
0.0
 11
-67.11325988192147
 21
-98.00291603249469
 31
0.0
  0
LINE
  5
6A3DD
330
2
100
AcDbEntity
  8
HIDDEN
100
AcDbLine
 10
-52.1132598819218
 20
-147.8436741024276
 30
0.0
 11
-82.1132598819217
 21
-147.8436741024276
 31
0.0
  0
LINE
  5
6A3DF
330
2
100
AcDbEntity
  8
MABAT8
100
AcDbLine
 10
-53.61325988192169
 20
-167.6334371158696
 30
0.0
 11
-53.61325988192186
 21
-94.46071158292335
 31
0.0
  0
LINE
  5
6A3E0
330
2
100
AcDbEntity
  8
MABAT8
100
AcDbLine
 10
-56.11325988192175
 20
-167.6334371158696
 30
0.0
 11
-56.11325988192175
 21
-95.11667536988101
 31
0.0
  0
LINE
  5
6A3E1
330
2
100
AcDbEntity
  8
MABAT8
100
AcDbLine
 10
-60.11325988192169
 20
-167.6334371158696
 30
0.0
 11
-60.11325988192192
 21
-96.16621742901331
 31
0.0
  0
LINE
  5
6A433
330
2
100
AcDbEntity
  8
MABAT
100
AcDbLine
 10
-81.61325988192174
 20
-167.1334371158696
 30
0.0
 11
-81.6132598819218
 21
-101.8075059968493
 31
0.0
  0
LINE
  5
6A434
330
2
100
AcDbEntity
  8
MABAT
100
AcDbLine
 10
-52.61325988192175
 20
-167.1334371158697
 30
0.0
 11
-52.61325988192175
 21
-94.19832606814026
 31
0.0
  0
LINE
  5
6A435
330
2
100
AcDbEntity
  8
MABAT
100
AcDbLine
 10
-52.61325988192175
 20
-167.1334371158697
 30
0.0
 11
-81.61325988192174
 21
-167.1334371158696
 31
0.0
  0
LWPOLYLINE
  5
6A436
330
2
100
AcDbEntity
  8
MABAT2
100
AcDbPolyline
 90
        4
 70
     1
 43
0.0
 10
-90.11325988192174
 20
-170.6334371158696
 10
-44.11325988192174
 20
-170.6334371158696
 10
-44.11325988192174
 20
-171.6334371158696
 10
-90.11325988192174
 20
-171.6334371158696
  0
LINE
  5
6A437
330
2
100
AcDbEntity
  8
MABAT2
100
AcDbLine
 10
-87.1132598819217
 20
-171.8334371158696
 30
0.0
 11
-87.1132598819217
 21
-171.6334371158696
 31
0.0
  0
LINE
  5
6A43A
330
2
100
AcDbEntity
  8
MABAT2
100
AcDbLine
 10
-86.61325988192169
 20
-171.8334371158696
 30
0.0
 11
-86.61325988192169
 21
-171.6334371158696
 31
0.0
  0
LINE
  5
6A43C
330
2
100
AcDbEntity
  8
HIDDEN
370
    50
100
AcDbLine
 10
-87.11325988192191
 20
-165.5744475906378
 30
0.0
 11
-86.61325988192187
 21
-165.5744475906379
 31
0.0
  0
LINE
  5
6A442
330
2
100
AcDbEntity
  8
HIDDEN
100
AcDbLine
 10
-87.11325988192186
 20
-167.6334371158697
 30
0.0
 11
-87.11325988192191
 21
-165.5744475906378
 31
0.0
  0
LINE
  5
6A443
330
2
100
AcDbEntity
  8
HIDDEN
100
AcDbLine
 10
-86.61325988192187
 20
-167.6334371158697
 30
0.0
 11
-86.61325988192187
 21
-165.5744475906379
 31
0.0
  0
LWPOLYLINE
  5
6A447
330
2
100
AcDbEntity
  8
MABAT2
100
AcDbPolyline
 90
        2
 70
     0
 43
0.0
 10
-86.11325988192168
 20
-171.8334371158696
 10
-87.61325988192169
 20
-171.8334371158696
  0
LWPOLYLINE
  5
6A448
330
2
100
AcDbEntity
  8
MABAT2
100
AcDbPolyline
 90
        2
 70
     0
 43
0.0
 10
-86.11325988192168
 20
-172.3334371158696
 10
-87.61325988192169
 20
-172.3334371158696
  0
LINE
  5
6A449
330
2
100
AcDbEntity
  8
MABAT2
100
AcDbLine
 10
-87.61325988192169
 20
-172.3334371158696
 30
0.0
 11
-87.61325988192169
 21
-171.8334371158696
 31
0.0
  0
LINE
  5
6A44A
330
2
100
AcDbEntity
  8
MABAT2
100
AcDbLine
 10
-86.11325988192168
 20
-172.3334371158696
 30
0.0
 11
-86.11325988192168
 21
-171.8334371158696
 31
0.0
  0
LINE
  5
6A44F
330
2
100
AcDbEntity
  8
MABAT2
100
AcDbLine
 10
-87.11325988192175
 20
-170.6334371158696
 30
0.0
 11
-87.11325988192186
 21
-167.6334371158697
 31
0.0
  0
LINE
  5
6A450
330
2
100
AcDbEntity
  8
MABAT2
100
AcDbLine
 10
-86.61325988192174
 20
-170.6334371158696
 30
0.0
 11
-86.61325988192187
 21
-167.6334371158697
 31
0.0
  0
LINE
  5
6A451
330
2
100
AcDbEntity
  8
HIDDEN
100
AcDbLine
 10
-87.11325988192191
 20
-165.5744475906378
 30
0.0
 11
-87.50042671054007
 21
-164.2546107624368
 31
0.0
  0
LINE
  5
6A452
330
2
100
AcDbEntity
  8
HIDDEN
100
AcDbLine
 10
-86.6132598819218
 20
-165.5744475906378
 30
0.0
 11
-86.22609305330366
 21
-164.2546107624368
 31
0.0
  0
LINE
  5
6A453
330
2
100
AcDbEntity
  8
MABAT2
100
AcDbLine
 10
-47.1132598819218
 20
-171.8334371158696
 30
0.0
 11
-47.1132598819218
 21
-171.6334371158696
 31
0.0
  0
LINE
  5
6A454
330
2
100
AcDbEntity
  8
MABAT2
100
AcDbLine
 10
-47.6132598819218
 20
-171.8334371158696
 30
0.0
 11
-47.6132598819218
 21
-171.6334371158696
 31
0.0
  0
LINE
  5
6A455
330
2
100
AcDbEntity
  8
HIDDEN
370
    50
100
AcDbLine
 10
-47.11325988192157
 20
-165.5744475906378
 30
0.0
 11
-47.61325988192163
 21
-165.5744475906379
 31
0.0
  0
LINE
  5
6A456
330
2
100
AcDbEntity
  8
HIDDEN
100
AcDbLine
 10
-47.11325988192164
 20
-167.6334371158697
 30
0.0
 11
-47.11325988192157
 21
-165.5744475906378
 31
0.0
  0
LINE
  5
6A457
330
2
100
AcDbEntity
  8
HIDDEN
100
AcDbLine
 10
-47.61325988192163
 20
-167.6334371158697
 30
0.0
 11
-47.61325988192163
 21
-165.5744475906379
 31
0.0
  0
LWPOLYLINE
  5
6A458
330
2
100
AcDbEntity
  8
MABAT2
100
AcDbPolyline
 90
        2
 70
     0
 43
0.0
 10
-48.1132598819218
 20
-171.8334371158696
 10
-46.61325988192181
 20
-171.8334371158696
  0
LWPOLYLINE
  5
6A459
330
2
100
AcDbEntity
  8
MABAT2
100
AcDbPolyline
 90
        2
 70
     0
 43
0.0
 10
-48.1132598819218
 20
-172.3334371158696
 10
-46.61325988192181
 20
-172.3334371158696
  0
LINE
  5
6A45A
330
2
100
AcDbEntity
  8
MABAT2
100
AcDbLine
 10
-46.61325988192181
 20
-172.3334371158696
 30
0.0
 11
-46.61325988192181
 21
-171.8334371158696
 31
0.0
  0
LINE
  5
6A45B
330
2
100
AcDbEntity
  8
MABAT2
100
AcDbLine
 10
-48.1132598819218
 20
-172.3334371158696
 30
0.0
 11
-48.1132598819218
 21
-171.8334371158696
 31
0.0
  0
LINE
  5
6A45C
330
2
100
AcDbEntity
  8
MABAT2
100
AcDbLine
 10
-47.11325988192174
 20
-170.6334371158696
 30
0.0
 11
-47.11325988192164
 21
-167.6334371158697
 31
0.0
  0
LINE
  5
6A45D
330
2
100
AcDbEntity
  8
MABAT2
100
AcDbLine
 10
-47.61325988192175
 20
-170.6334371158696
 30
0.0
 11
-47.61325988192163
 21
-167.6334371158697
 31
0.0
  0
LINE
  5
6A45E
330
2
100
AcDbEntity
  8
HIDDEN
100
AcDbLine
 10
-47.11325988192157
 20
-165.5744475906378
 30
0.0
 11
-46.72609305330342
 21
-164.2546107624368
 31
0.0
  0
LINE
  5
6A45F
330
2
100
AcDbEntity
  8
HIDDEN
100
AcDbLine
 10
-47.61325988192169
 20
-165.5744475906378
 30
0.0
 11
-48.00042671053984
 21
-164.2546107624368
 31
0.0
  0
LWPOLYLINE
  5
6A47E
102
{ACAD_REACTORS
330
6A592
102
}
330
2
100
AcDbEntity
  8
CLAY
370
    50
100
AcDbPolyline
 90
       26
 70
     0
 43
0.0
 10
-36.18152837624637
 20
-27.47282637463787
 10
-43.51200843605909
 20
-30.74799162682424
 42
0.2951328942983379
 10
-43.57121568784839
 20
-30.83902572916334
 10
-43.5738030405422
 20
-31.80629075667305
 42
-0.2951328942983392
 10
-43.63301029233332
 20
-31.89732485901307
 10
-44.15365439807089
 20
-32.1299420232311
 42
-0.2968031128494228
 10
-44.26142432013728
 20
-32.11289681218962
 10
-44.97680538155407
 20
-31.4676397123488
 42
0.2968031128494321
 10
-45.08457530362
 20
-31.45059450130823
 10
-45.61194507465768
 20
-31.68621660723632
 42
0.2951328942983389
 10
-45.67115232644698
 20
-31.77725070957634
 10
-45.67373967914079
 20
-32.74451573708514
 42
-0.2951328942983325
 10
-45.73294693093191
 20
-32.83554983942516
 10
-46.25359103666994
 20
-33.06816700364318
 42
-0.2968031128494286
 10
-46.36136095873587
 20
-33.05112179260171
 10
-47.07674202015311
 20
-32.4058646927618
 42
0.2968031128494321
 10
-47.18451194221905
 20
-32.38881948172123
 10
-48.3441452446599
 20
-32.90692889153373
 42
0.2951328942983365
 10
-48.40335249645102
 20
-32.99796299387375
 10
-48.40696649150766
 20
-34.34903161178439
 42
-0.2951328942983412
 10
-48.46617374329833
 20
-34.4400657141244
 10
-49.7766633418463
 20
-35.02557579825255
 42
-0.4142135623730951
 10
-49.90875732528173
 20
-34.97506659572203
 10
-50.4798507916197
 20
-33.69684429396723
 42
-0.4142135623730921
 10
-49.87374036126118
 20
-32.11171649274396
 10
-37.24046496097747
 20
-26.46732973025246
  0
HATCH
  5
6A480
330
2
100
AcDbEntity
  8
WOD-HT
370
    50
100
AcDbHatch
 10
0.0
 20
0.0
 30
0.0
210
0.0
220
0.0
230
1.0
  2
ANSI31
 70
     0
 71
     1
 91
        1
 92
        1
 93
        4
 72
     1
 10
-69.7274909751676
 20
-49.25499974452426
 11
-65.37327875082235
 21
-46.79718854238521
 72
     1
 10
-65.37327875082235
 20
-46.79718854238521
 11
-64.14437314975192
 21
-48.97429465455692
 72
     1
 10
-64.14437314975192
 20
-48.97429465455692
 11
-68.49858537409716
 21
-51.43210585669688
 72
     1
 10
-68.49858537409716
 20
-51.43210585669688
 11
-69.7274909751676
 21
-49.25499974452426
 97
        1
330
6A481
 75
     0
 76
     1
 52
47.44331491972115
 41
4.0
 77
     0
 78
     1
 53
92.44331491972067
 43
1031.104408184514
 44
-620.2941708218098
 45
-0.4995454435517131
 46
-0.0213154832626978
 79
     0
 98
        1
 10
1031.104408184514
 20
-620.2941708218098
  0
LWPOLYLINE
  5
6A481
102
{ACAD_REACTORS
330
6A480
102
}
330
2
100
AcDbEntity
  8
MABAT3
370
    50
100
AcDbPolyline
 90
        4
 70
     1
 43
0.0
 10
-69.7274909751676
 20
-49.25499974452426
 10
-65.37327875082235
 20
-46.79718854238521
 10
-64.14437314975192
 20
-48.97429465455692
 10
-68.49858537409716
 20
-51.43210585669688
  0
LINE
  5
6A49A
330
2
100
AcDbEntity
  8
MABAT3
100
AcDbLine
 10
-74.30221241256657
 20
-54.69505058014977
 30
0.0
 11
-32.38898049256272
 21
-31.07398080229714
 31
0.0
  0
LINE
  5
6A49B
330
2
100
AcDbEntity
  8
MABAT3
100
AcDbLine
 10
-66.93766758835005
 20
-67.76270069530506
 30
0.0
 11
-21.01074661590894
 21
-41.87963333742388
 31
0.0
  0
LINE
  5
6A49C
330
2
100
AcDbEntity
  8
HIDDEN
100
AcDbLine
 10
-66.93766758835005
 20
-67.76270069530507
 30
0.0
 11
-93.07296781866
 21
-82.49179034373755
 31
0.0
  0
LINE
  5
6A49D
330
2
100
AcDbEntity
  8
HIDDEN
100
AcDbLine
 10
-74.30221241256652
 20
-54.69505058014981
 30
0.0
 11
-100.4375126428764
 21
-69.42414022858227
 31
0.0
  0
LINE
  5
6A49E
330
2
100
AcDbEntity
  8
MABAT
100
AcDbLine
 10
-81.6132598819218
 20
-101.8075059968493
 30
0.0
 11
-102.1893203559065
 21
-65.29733932121718
 31
0.0
  0
LINE
  5
6A49F
330
2
100
AcDbEntity
  8
MABAT
100
AcDbLine
 10
-52.61325988192175
 20
-94.19832606814026
 30
0.0
 11
-76.24759373607119
 21
-52.2615583679515
 31
0.0
  0
LINE
  5
6A4A0
330
2
100
AcDbEntity
  8
MABAT3
100
AcDbLine
 10
-100.4375126428764
 20
-69.42414022858226
 30
0.0
 11
-93.07296781866
 21
-82.49179034373755
 31
0.0
  0
LINE
  5
6A4A1
330
2
100
AcDbEntity
  8
MABAT3
100
AcDbLine
 10
-74.30221241256652
 20
-54.69505058014981
 30
0.0
 11
-66.93766758835005
 21
-67.7627006953051
 31
0.0
  0
TEXT
  5
6A4C4
330
2
100
AcDbEntity
  8
TEXT03
100
AcDbText
 10
-148.465856232402
 20
-37.93811896720643
 30
0.0
 40
1.6
  1
 
  7
ORON
100
AcDbText
  0
LEADER
  5
6A4C5
330
2
100
AcDbEntity
  8
TEXT03
100
AcDbLeader
  3
LEADER-10
 40
15.0
 76
     3
 10
-118.4760889587883
 20
-44.83696721266435
 30
0.0
 10
-134.9420437012386
 20
-38.35914174377785
 30
0.0
 10
-149.2191201363648
 20
-38.35914174377785
 30
0.0
213
4.697365185055105
223
0.0
233
0.0
  0
TEXT
  5
6A4C6
330
2
100
AcDbEntity
  8
TEXT03
100
AcDbText
 10
-149.7175447093763
 20
-30.97852649487589
 30
0.0
 40
1.6
  1
  
  7
ORON
100
AcDbText
  0
LEADER
  5
6A4C7
330
2
100
AcDbEntity
  8
TEXT03
100
AcDbLeader
  3
LEADER-10
 40
15.0
 76
     3
 10
-109.9473804025424
 20
-40.5408572713361
 30
0.0
 10
-128.3706769643526
 20
-31.55594394678928
 30
0.0
 10
-150.6272707893465
 20
-31.55594394678928
 30
0.0
213
4.697365185055105
223
0.0
233
0.0
  0
TEXT
  5
6A4C9
330
2
100
AcDbEntity
  8
TEXT03
100
AcDbText
 10
-41.8661941844417
 20
-103.0220524036275
 30
0.0
 40
1.6
  1
  
  7
ORON
100
AcDbText
  0
LEADER
  5
6A4CA
330
2
100
AcDbEntity
  8
TEXT03
100
AcDbLeader
  3
LEADER-10
 40
15.0
 76
     3
 10
-58.17289523992315
 20
-108.8154063784062
 30
0.0
 10
-42.38951157109602
 20
-103.8966216999982
 30
0.0
 10
-11.08164345609463
 20
-103.8966216999982
 30
0.0
211
-1.0
221
0.0
231
0.0
210
0.0
220
0.0
230
-1.0
213
-4.697365185055105
223
0.0
233
0.0
  0
LINE
  5
6A4CD
330
2
100
AcDbEntity
  8
MABAT8
100
AcDbLine
 10
-67.11325988192147
 20
-98.00291603249469
 30
0.0
 11
-89.46421971321257
 21
-58.34336750848119
 31
0.0
  0
LINE
  5
6A4CE
330
2
100
AcDbEntity
  8
MABAT8
100
AcDbLine
 10
-74.11325988192158
 20
-99.83961463597623
 30
0.0
 11
-95.72601579386256
 21
-61.48993532478712
 31
0.0
  0
LINE
  5
6A4CF
330
2
100
AcDbEntity
  8
MABAT8
100
AcDbLine
 10
-78.11325988192158
 20
-100.8891566951084
 30
0.0
 11
-99.30418498280532
 21
-63.28797407696192
 31
0.0
  0
LINE
  5
6A4D0
330
2
100
AcDbEntity
  8
MABAT8
100
AcDbLine
 10
-80.61325988192152
 20
-101.5451204820661
 30
0.0
 11
-101.5405407258945
 21
-64.41174829707112
 31
0.0
  0
LINE
  5
6A4D1
330
2
100
AcDbEntity
  8
MABAT8
100
AcDbLine
 10
-60.11325988192192
 20
-96.16621742901331
 30
0.0
 11
-83.20242363256307
 21
-55.1967996921755
 31
0.0
  0
LINE
  5
6A4D2
330
2
100
AcDbEntity
  8
MABAT8
100
AcDbLine
 10
-56.11325988192175
 20
-95.11667536988101
 30
0.0
 11
-79.62425444362018
 21
-53.39876094000064
 31
0.0
  0
LINE
  5
6A4D3
330
2
100
AcDbEntity
  8
MABAT8
100
AcDbLine
 10
-53.61325988192186
 20
-94.46071158292337
 30
0.0
 11
-77.38789870053103
 21
-52.27498671989145
 31
0.0
  0
DIMENSION
  5
6A4F4
330
2
100
AcDbEntity
  8
DIMH
100
AcDbDimension
  2
*D8
 10
-63.13363564944727
 20
-75.53096876481792
 30
0.0
 11
-76.50215190985199
 21
-81.34326375004482
 31
0.0
 70
    33
  1
{\Fmonosi.shx;30}
 71
     5
 42
28.99999999999995
  3
DIM10A
100
AcDbAlignedDimension
 13
-81.6132598819218
 23
-101.8075059968493
 33
0.0
 14
-56.34913632595561
 24
-87.56938600336452
 34
0.0
  0
DIMENSION
  5
6A50B
330
2
100
AcDbEntity
  8
DIMV
100
AcDbDimension
  2
*D9
 10
-58.16446996880927
 20
-167.6334371158697
 30
0.0
 11
-59.66446996880924
 21
-169.1334371158697
 31
0.0
 70
    32
 71
     5
 42
3.0
  3
DIM10A
100
AcDbAlignedDimension
 13
-61.44988897080612
 23
-170.6334371158696
 33
0.0
 14
-61.44988897080612
 24
-167.6334371158697
 34
0.0
 50
90.0
100
AcDbRotatedDimension
  0
TEXT
  5
6A522
330
2
100
AcDbEntity
  8
TEXT03
100
AcDbText
 10
-117.7493476840871
 20
-184.3308969125925
 30
0.0
 40
1.6
  1
  
  7
ORON
100
AcDbText
  0
LEADER
  5
6A523
330
2
100
AcDbEntity
  8
TEXT03
100
AcDbLeader
  3
LEADER-10
 40
15.0
 76
     3
 10
-83.99692221123165
 20
-171.6334371158696
 30
0.0
 10
-91.06582964209781
 20
-184.8891612142418
 30
0.0
 10
-118.3273926466578
 20
-184.8891612142418
 30
0.0
213
4.697365185055105
223
0.0
233
0.0
  0
TEXT
  5
6A525
330
2
100
AcDbEntity
  8
TEXT03
100
AcDbText
 10
-108.6415741338619
 20
-171.7953223060797
 30
0.0
 40
1.6
  1

  7
ORON
100
AcDbText
  0
LEADER
  5
6A526
330
2
100
AcDbEntity
  8
TEXT03
100
AcDbLeader
  3
LEADER-10
 40
15.0
 76
     3
 10
-87.11325988192186
 20
-168.7354309011017
 30
0.0
 10
-100.494400829277
 20
-172.353586607729
 30
0.0
 10
-109.2196190964325
 20
-172.353586607729
 30
0.0
213
4.697365185055105
223
0.0
233
0.0
  0
DIMENSION
  5
6A529
330
2
100
AcDbEntity
  8
DIMH
100
AcDbDimension
  2
*D10
 10
-67.11325988192186
 20
-139.5182322848487
 30
0.0
 11
-119.3434340489714
 21
-138.0182322848487
 31
0.0
 70
    32
  1
{\Fmonosi.shx;.}
 71
     5
 42
104.4603483340992
  3
DIM10A
100
AcDbAlignedDimension
 13
-171.573608216021
 23
-167.6334371158697
 33
0.0
 14
-67.11325988192186
 24
-166.1334371158698
 34
0.0
100
AcDbRotatedDimension
  0
TEXT
  5
6A548
330
2
100
AcDbEntity
  8
TEXT03
100
AcDbText
 10
-145.6073138750875
 20
-138.3986848705833
 30
0.0
 40
1.6
  1
" 27 ( )     
  7
ORON
100
AcDbText
  0
TEXT
  5
6A54A
330
2
100
AcDbEntity
  8
TEXT03
100
AcDbText
 10
-141.7375558461326
 20
-189.8069624343113
 30
0.0
 40
1.6
  1
      
  7
ORON
100
AcDbText
  0
HATCH
  5
6A592
330
2
100
AcDbEntity
  8
HATCH
100
AcDbHatch
 10
0.0
 20
0.0
 30
0.0
210
0.0
220
0.0
230
1.0
  2
_USER
 70
     0
 71
     1
 91
        1
 92
        7
 72
     1
 73
     1
 93
       21
 10
-36.18152837624636
 20
-27.47282637463786
 42
0.0
 10
-37.24046496097748
 20
-26.46732973025246
 42
0.0
 10
-49.87374036126148
 20
-32.11171649274409
 42
0.414213562373156
 10
-50.47985079161946
 20
-33.69684429396778
 42
0.0
 10
-49.90875732528155
 20
-34.97506659572243
 42
0.4142135623731129
 10
-49.7766633418459
 20
-35.02557579825237
 42
0.0
 10
-48.46617374329813
 20
-34.44006571412432
 42
0.29513289429826
 10
-48.40696649150766
 20
-34.3490316117842
 42
0.0
 10
-48.40317954085075
 20
-32.93330466419717
 42
0.0
 10
-47.12507919326939
 20
-32.3622656854332
 42
0.0
 10
-46.36136095873553
 20
-33.05112179260202
 42
0.2968031128493203
 10
-46.25359103666956
 20
-33.06816700364302
 42
0.0
 10
-45.7329469309314
 20
-32.83554983942493
 42
0.2951328942982394
 10
-45.67373967914079
 20
-32.74451573708462
 42
0.0
 10
-45.6709793708467
 20
-31.71259237989896
 42
0.0
 10
-45.02514255467031
 20
-31.42404070502016
 42
0.0
 10
-44.26142432013706
 20
-32.11289681218982
 42
0.2968031128496945
 10
-44.15365439807053
 20
-32.12994202323093
 42
0.0
 10
-43.63301029233278
 20
-31.89732485901283
 42
0.2951328942981768
 10
-43.5738030405422
 20
-31.80629075667252
 42
0.0
 10
-43.57104273224811
 20
-30.77436739948686
 42
0.0
 97
        2
330
6A3A3
330
6A47E
 75
     0
 76
     0
 52
80.0
 41
0.5
 77
     0
 78
     1
 53
80.0
 43
285.8649515440442
 44
-16.41610615397917
 45
-0.492403876506104
 46
0.0868240888334652
 79
     0
 47
0.0581618900017867
 98
        1
 10
-38.18194635735471
 20
-28.10929184930751
  0
HATCH
  5
6A5C9
330
2
100
AcDbEntity
  8
HATCH9
100
AcDbHatch
 10
0.0
 20
0.0
 30
0.0
210
0.0
220
0.0
230
1.0
  2
_USER
 70
     0
 71
     0
 91
        2
 92
        7
 72
     0
 73
     1
 93
       12
 10
-31.61679336770864
 20
-155.2814032574601
 10
-25.80673973620901
 20
-152.6730313505663
 10
-25.80673973620901
 20
-147.8436741024277
 10
-52.11325988192175
 20
-147.8436741024277
 10
-52.11325988192179
 20
-166.1334371158698
 10
-45.61325988192163
 20
-166.1334371158698
 10
-45.61325988192164
 20
-165.5744475906379
 10
-45.11325988192157
 20
-165.5744475906378
 10
-45.11325988192159
 20
-166.1334371158698
 10
-25.80790665668964
 20
-166.1334371158698
 10
-25.80880709543339
 20
-155.7532941895383
 10
-20.32550979920658
 20
-153.2904453175028
 97
        0
 92
        7
 72
     0
 73
     1
 93
        9
 10
-194.7733899154732
 20
-147.8436741024277
 10
-195.0736082160215
 20
-148.0128683425515
 10
-195.0736082160215
 20
-166.1334371158698
 10
-89.1132598819219
 20
-166.1334371158698
 10
-89.11325988192194
 20
-165.5744475906379
 10
-88.61325988192184
 20
-165.5744475906379
 10
-88.61325988192184
 20
-166.1334371158698
 10
-82.11325988192177
 20
-166.1334371158698
 10
-82.11325988192182
 20
-147.8436741024277
 97
        0
 75
     0
 76
     0
 52
45.0
 41
3.0
 77
     1
 78
     2
 53
45.0
 43
285.8649515440442
 44
-16.41610615397917
 45
-2.121320343559642
 46
2.121320343559642
 79
     0
 53
135.0
 43
285.8649515440442
 44
-16.41610615397917
 45
-2.121320343559642
 46
-2.121320343559642
 79
     0
 47
0.5187039646372785
 98
        2
 10
-40.34901589227593
 20
-156.9887178408476
 10
-92.76013845477223
 20
-153.8764942018128
  0
HATCH
  5
6A5F0
330
2
100
AcDbEntity
  8
HATCH9
100
AcDbHatch
 10
0.0
 20
0.0
 30
0.0
210
0.0
220
0.0
230
1.0
  2
_USER
 70
     0
 71
     1
 91
        1
 92
        7
 72
     0
 73
     1
 93
        8
 10
-173.0736082160214
 20
-166.1334371158698
 10
-195.0736082160215
 20
-166.1334371158698
 10
-195.0736082160215
 20
-211.884363301076
 10
-184.9902878598587
 20
-206.0615892667195
 10
-180.1157495228808
 20
-209.5788395857367
 10
-187.4856114610012
 20
-200.7957801440586
 10
-182.3216683113636
 20
-204.5232482328406
 10
-173.0736082160215
 20
-199.183878247313
 97
        4
330
6803C
330
68038
330
6A3B3
330
68039
 75
     0
 76
     0
 52
45.0
 41
4.0
 77
     0
 78
     1
 53
45.0
 43
285.8649515440442
 44
-16.41610615397917
 45
-2.828427124746189
 46
2.82842712474619
 79
     0
 47
0.5187039646372785
 98
        1
 10
-179.4201143280572
 20
-175.1433575330828
  0
LINE
  5
6A66C
330
2
100
AcDbEntity
  8
MABAT
100
AcDbLine
 10
-119.6129260352297
 20
-55.5866803896851
 30
0.0
 11
-109.3373195495562
 21
-50.42316304667315
 31
0.0
  0
ARC
  5
6A66D
330
2
100
AcDbEntity
  8
MABAT
100
AcDbCircle
 10
-110.6776160476875
 20
-51.0966653088051
 30
0.0
 40
10.00000000000005
100
AcDbArc
 50
116.6796397752623
 51
206.6796397752621
  0
ARC
  5
6A66E
330
2
100
AcDbEntity
  8
MABAT
100
AcDbCircle
 10
-82.08462408755258
 20
-36.72861704998929
 30
0.0
 40
10.00000000000005
100
AcDbArc
 50
26.67963977526289
 51
116.6796397752627
  0
LINE
  5
6A66F
330
2
100
AcDbEntity
  8
MABAT
100
AcDbLine
 10
-86.57463916843278
 20
-27.79330706244712
 30
0.0
 11
-87.47264218460879
 21
-26.00624506493877
 31
0.0
  0
LINE
  5
6A670
330
2
100
AcDbEntity
  8
MABAT
100
AcDbLine
 10
-115.1676311285673
 20
-42.16135532126298
 30
0.0
 11
-116.0656341447434
 21
-40.37429332375461
 31
0.0
  0
LINE
  5
6A671
330
2
100
AcDbEntity
  8
MABAT
100
AcDbLine
 10
-116.0656341447434
 20
-40.37429332375461
 30
0.0
 11
-114.2785721472349
 21
-39.47629030757859
 31
0.0
  0
LINE
  5
6A672
330
2
100
AcDbEntity
  8
MABAT
100
AcDbLine
 10
-115.1765751634109
 20
-37.68922831007017
 30
0.0
 11
-90.15770719829317
 21
-25.11718608360635
 31
0.0
  0
LINE
  5
6A673
330
2
100
AcDbEntity
  8
MABAT
100
AcDbLine
 10
-114.2785721472349
 20
-39.47629030757863
 30
0.0
 11
-115.1765751634109
 21
-37.68922831007017
 31
0.0
  0
LINE
  5
6A674
330
2
100
AcDbEntity
  8
MABAT
100
AcDbLine
 10
-89.25970418211713
 20
-26.90424808111474
 30
0.0
 11
-90.15770719829317
 21
-25.11718608360635
 31
0.0
  0
LINE
  5
6A675
330
2
100
AcDbEntity
  8
MABAT
100
AcDbLine
 10
-83.42492058568408
 20
-37.40211931212124
 30
0.0
 11
-73.14931410001046
 21
-32.23860196910919
 31
0.0
  0
LINE
  5
6A676
330
2
100
AcDbEntity
  8
HIDDEN
100
AcDbLine
 10
-83.42492058568408
 20
-37.40211931212127
 30
0.0
 11
-109.3373195495562
 21
-50.42316304667318
 31
0.0
  0
LINE
  5
6A677
330
2
100
AcDbEntity
  8
MABAT
100
AcDbLine
 10
-113.3783331223483
 20
-42.38138405788528
 30
0.0
 11
-87.46593415847611
 21
-29.36034032333335
 31
0.0
  0
LINE
  5
6A678
330
2
100
AcDbEntity
  8
MABAT
100
AcDbLine
 10
-89.25970418211718
 20
-26.90424808111471
 30
0.0
 11
-87.47264218460879
 21
-26.00624506493875
 31
0.0
  0
LINE
  5
6A679
330
2
100
AcDbEntity
  8
MABAT2
100
AcDbLine
 10
-89.25970418211708
 20
-26.90424808111471
 30
0.0
 11
-114.278572147235
 21
-39.47629030757862
 31
0.0
  0
LINE
  5
6A67A
330
2
100
AcDbEntity
  8
MABAT2
100
AcDbLine
 10
-115.1676311285673
 20
-42.16135532126304
 30
0.0
 11
-86.57463916843278
 21
-27.79330706244715
 31
0.0
  0
LWPOLYLINE
  5
6A67B
330
2
100
AcDbEntity
  8
MABAT2
100
AcDbPolyline
 90
        4
 70
     1
 43
0.0
 10
-112.4825661148832
 20
-43.05041430259556
 10
-111.5890351161289
 20
-42.60141279450768
 10
-107.997023051425
 20
-49.74966078454134
 10
-108.8905540501792
 20
-50.19866229262925
  0
LWPOLYLINE
  5
6A67C
330
2
100
AcDbEntity
  8
MABAT2
100
AcDbPolyline
 90
        4
 70
     1
 43
0.0
 10
-111.1422696167518
 20
-42.37691204046358
 10
-110.2487386179976
 20
-41.92791053237567
 10
-106.6567265532937
 20
-49.07615852240934
 10
-107.5502575520478
 20
-49.52516003049726
  0
LWPOLYLINE
  5
6A67D
330
2
100
AcDbEntity
  8
MABAT2
100
AcDbPolyline
 90
        4
 70
     1
 43
0.0
 10
-109.8019731186205
 20
-41.70340977833155
 10
-108.9084421198663
 20
-41.25440827024367
 10
-105.3164300551624
 20
-48.40265626027733
 10
-106.2099610539165
 20
-48.85165776836524
  0
LWPOLYLINE
  5
6A67E
330
2
100
AcDbEntity
  8
MABAT2
100
AcDbPolyline
 90
        4
 70
     1
 43
0.0
 10
-108.4616766204892
 20
-41.02990751619955
 10
-107.568145621735
 20
-40.58090600811167
 10
-103.976133557031
 20
-47.72915399814535
 10
-104.8696645557852
 20
-48.17815550623326
  0
LWPOLYLINE
  5
6A67F
330
2
100
AcDbEntity
  8
MABAT2
100
AcDbPolyline
 90
        4
 70
     1
 43
0.0
 10
-107.1213801223579
 20
-40.35640525406757
 10
-106.2278491236036
 20
-39.90740374597967
 10
-102.6358370588997
 20
-47.05565173601335
 10
-103.5293680576538
 20
-47.50465324410126
  0
LWPOLYLINE
  5
6A680
330
2
100
AcDbEntity
  8
MABAT2
100
AcDbPolyline
 90
        4
 70
     1
 43
0.0
 10
-105.7810836242265
 20
-39.68290299193554
 10
-104.8875526254723
 20
-39.23390148384768
 10
-101.2955405607684
 20
-46.38214947388135
 10
-102.1890715595225
 20
-46.83115098196926
  0
LWPOLYLINE
  5
6A681
330
2
100
AcDbEntity
  8
MABAT2
100
AcDbPolyline
 90
        4
 70
     1
 43
0.0
 10
-104.4407871260952
 20
-39.00940072980357
 10
-103.547256127341
 20
-38.5603992217157
 10
-99.95524406263712
 20
-45.70864721174935
 10
-100.8487750613912
 20
-46.15764871983725
  0
LWPOLYLINE
  5
6A682
330
2
100
AcDbEntity
  8
MABAT2
100
AcDbPolyline
 90
        4
 70
     1
 43
0.0
 10
-103.1004906279639
 20
-38.33589846767157
 10
-102.2069596292097
 20
-37.88689695958369
 10
-98.6149475645058
 20
-45.03514494961733
 10
-99.50847856325992
 20
-45.48414645770527
  0
LWPOLYLINE
  5
6A683
330
2
100
AcDbEntity
  8
MABAT2
100
AcDbPolyline
 90
        4
 70
     1
 43
0.0
 10
-101.7601941298326
 20
-37.66239620553958
 10
-100.8666631310783
 20
-37.21339469745169
 10
-97.27465106637451
 20
-44.36164268748536
 10
-98.16818206512863
 20
-44.81064419557326
  0
LWPOLYLINE
  5
6A684
330
2
100
AcDbEntity
  8
MABAT2
100
AcDbPolyline
 90
        4
 70
     1
 43
0.0
 10
-100.4198976317013
 20
-36.98889394340757
 10
-99.52636663294706
 20
-36.5398924353197
 10
-95.93435456824318
 20
-43.68814042535335
 10
-96.82788556699732
 20
-44.13714193344127
  0
LWPOLYLINE
  5
6A685
330
2
100
AcDbEntity
  8
MABAT2
100
AcDbPolyline
 90
        4
 70
     1
 43
0.0
 10
-99.07960113357001
 20
-36.31539168127557
 10
-98.18607013481576
 20
-35.86639017318771
 10
-94.59405807011183
 20
-43.01463816322135
 10
-95.48758906886599
 20
-43.46363967130926
  0
LWPOLYLINE
  5
6A686
330
2
100
AcDbEntity
  8
MABAT2
100
AcDbPolyline
 90
        4
 70
     1
 43
0.0
 10
-97.73930463543869
 20
-35.64188941914358
 10
-96.84577363668445
 20
-35.1928879110557
 10
-93.25376157198054
 20
-42.34113590108935
 10
-94.14729257073465
 20
-42.79013740917728
  0
LWPOLYLINE
  5
6A687
330
2
100
AcDbEntity
  8
MABAT2
100
AcDbPolyline
 90
        4
 70
     1
 43
0.0
 10
-96.39900813730736
 20
-34.96838715701159
 10
-95.50547713855312
 20
-34.5193856489237
 10
-91.9134650738492
 20
-41.66763363895737
 10
-92.80699607260331
 20
-42.11663514704528
  0
LWPOLYLINE
  5
6A688
330
2
100
AcDbEntity
  8
MABAT2
100
AcDbPolyline
 90
        4
 70
     1
 43
0.0
 10
-95.05871163917607
 20
-34.29488489487951
 10
-94.16518064042183
 20
-33.84588338679162
 10
-90.57316857571789
 20
-40.99413137682529
 10
-91.46669957447205
 20
-41.4431328849132
  0
LWPOLYLINE
  5
6A689
330
2
100
AcDbEntity
  8
MABAT2
100
AcDbPolyline
 90
        4
 70
     1
 43
0.0
 10
-93.71841514104472
 20
-33.62138263274752
 10
-92.82488414229044
 20
-33.17238112465963
 10
-89.23287207758656
 20
-40.3206291146933
 10
-90.1264030763407
 20
-40.7696306227812
  0
LWPOLYLINE
  5
6A68A
330
2
100
AcDbEntity
  8
MABAT2
100
AcDbPolyline
 90
        4
 70
     1
 43
0.0
 10
-92.37811864291339
 20
-32.9478803706155
 10
-91.48458764415915
 20
-32.49887886252763
 10
-87.89257557945523
 20
-39.64712685256127
 10
-88.78610657820937
 20
-40.09612836064921
  0
LWPOLYLINE
  5
6A68B
330
2
100
AcDbEntity
  8
MABAT2
100
AcDbPolyline
 90
        4
 70
     1
 43
0.0
 10
-91.03782214478206
 20
-32.27437810848349
 10
-90.14429114602785
 20
-31.8253766003956
 10
-86.55227908132394
 20
-38.97362459042928
 10
-87.44581008007807
 20
-39.42262609851718
  0
LWPOLYLINE
  5
6A68C
330
2
100
AcDbEntity
  8
MABAT2
100
AcDbPolyline
 90
        4
 70
     1
 43
0.0
 10
-89.69752564665075
 20
-31.60087584635149
 10
-88.80399464789652
 20
-31.15187433826361
 10
-85.21198258319259
 20
-38.30012232829726
 10
-86.10551358194673
 20
-38.74912383638516
  0
LWPOLYLINE
  5
6A68D
330
2
100
AcDbEntity
  8
MABAT2
100
AcDbPolyline
 90
        4
 70
     1
 43
0.0
 10
-88.35722914851945
 20
-30.92737358421949
 10
-87.46369814976521
 20
-30.47837207613162
 10
-83.87168608506128
 20
-37.62662006616527
 10
-84.7652170838154
 20
-38.07562157425319
  0
DIMENSION
  5
6A68E
330
2
100
AcDbEntity
  8
DIMV
100
AcDbDimension
  2
*D11
 10
-85.93074126579017
 20
-22.99312538400378
 30
0.0
 11
-77.85542214633881
 21
-35.72258810318493
 31
0.0
 70
    33
  1
25-30
 71
     5
 42
29.99999999999998
  3
DIM10A
100
AcDbAlignedDimension
 13
-76.240896456276
 23
-51.6986152921887
 33
0.0
 14
-89.71094169891612
 24
-24.89268532956238
 34
0.0
  0
DIMENSION
  5
6A68F
330
2
100
AcDbEntity
  8
DIMH
100
AcDbDimension
  2
*D12
 10
-70.57320099804205
 20
-37.36517030227062
 30
0.0
 11
-94.4785092277837
 21
-47.69891301442725
 31
0.0
 70
    33
 71
     5
 42
52.00000000000017
  3
DIM10A
100
AcDbAlignedDimension
 13
-119.6129260352297
 23
-55.5866803896851
 33
0.0
 14
-73.14931410001046
 24
-32.23860196910919
 34
0.0
  0
LINE
  5
6A690
330
2
100
AcDbEntity
  8
MABAT8
100
AcDbLine
 10
-77.13442745502504
 20
-52.14761680027409
 30
0.0
 11
-88.35946515722175
 21
-29.809341831417
 31
0.0
  0
LINE
  5
6A691
330
2
100
AcDbEntity
  8
MABAT8
100
AcDbLine
 10
-79.36825495191055
 20
-53.27012057049405
 30
0.0
 11
-90.59329265410729
 21
-30.93184560163701
 31
0.0
  0
LINE
  5
6A692
330
2
100
AcDbEntity
  8
MABAT8
100
AcDbLine
 10
-82.94237894692765
 20
-55.06612660284616
 30
0.0
 11
-94.16741664912434
 21
-32.72785163398913
 31
0.0
  0
LINE
  5
6A693
330
2
100
AcDbEntity
  8
MABAT8
100
AcDbLine
 10
-89.19709593820689
 20
-58.209137159462
 30
0.0
 11
-100.4221336404036
 21
-35.87086219060501
 31
0.0
  0
LINE
  5
6A694
330
2
100
AcDbEntity
  8
MABAT8
100
AcDbLine
 10
-95.45181292948669
 20
-61.35214771607817
 30
0.0
 11
-106.6768506316834
 21
-39.01387274722111
 31
0.0
  0
LINE
  5
6A695
330
2
100
AcDbEntity
  8
MABAT8
100
AcDbLine
 10
-99.02593692450365
 20
-63.14815374843016
 30
0.0
 11
-110.2509746267003
 21
-40.80987877957311
 31
0.0
  0
LINE
  5
6A696
330
2
100
AcDbEntity
  8
MABAT8
100
AcDbLine
 10
-101.2597644213891
 20
-64.27065751865018
 30
0.0
 11
-112.4848021235858
 21
-41.93238254979313
 31
0.0
  0
LINE
  5
6A697
330
2
100
AcDbEntity
  8
MABAT
100
AcDbLine
 10
-76.24219200807345
 20
-51.69603709218124
 30
0.0
 11
-87.46593415847611
 21
-29.36034032333335
 31
0.0
  0
LINE
  5
6A698
330
2
100
AcDbEntity
  8
MABAT
100
AcDbLine
 10
-102.1532954201482
 20
-64.71965902674063
 30
0.0
 11
-113.3783331223483
 21
-42.38138405788528
 31
0.0
  0
LWPOLYLINE
  5
6A6E9
330
2
100
AcDbEntity
  8
MABAT2
100
AcDbPolyline
 90
        4
 70
     1
 43
0.0
 10
-115.4931364780817
 20
-71.42296172246938
 10
-61.88127655282884
 20
-44.48287123718954
 10
-61.65677579878486
 20
-44.92963673656663
 10
-115.2686357240377
 20
-71.86972722184648
  0
LWPOLYLINE
  5
6A6EA
330
2
100
AcDbEntity
  8
MABAT2
100
AcDbPolyline
 90
        3
 70
     0
 43
0.0
 10
-115.4931364780817
 20
-71.42296172246938
 10
-115.9421379861698
 20
-70.52943072371519
 10
-102.6022969282365
 20
-63.82612802798572
  0
LINE
  5
6A6EB
330
2
100
AcDbEntity
  8
MABAT2
100
AcDbLine
 10
-61.88127655282884
 20
-44.48287123718954
 30
0.0
 11
-62.78280458261836
 21
-43.81673592025722
 31
0.0
  0
LINE
  5
6A6EC
330
2
100
AcDbEntity
  8
MABAT2
100
AcDbLine
 10
-62.38207039728375
 20
-44.73452136652466
 30
0.0
 11
-63.28359842707324
 21
-44.06838604959237
 31
0.0
  0
SOLID
  5
6A6ED
330
2
100
AcDbEntity
  8
MABAT2
100
AcDbTrace
 10
-63.28359842707324
 20
-44.06838604959237
 30
0.0
 11
-62.78280458261836
 21
-43.81673592025722
 31
0.0
 12
-62.38207039728375
 22
-44.73452136652466
 32
0.0
 13
-61.88127655282884
 23
-44.48287123718954
 33
0.0
  0
SOLID
  5
6A6EE
330
2
100
AcDbEntity
  8
MABAT2
100
AcDbTrace
 10
-61.88127655282884
 20
-44.48287123718954
 30
0.0
 11
-61.65677579878486
 21
-44.92963673656663
 31
0.0
 12
-115.4931364780817
 22
-71.42296172246938
 32
0.0
 13
-115.2686357240377
 23
-71.86972722184648
 33
0.0
  0
LWPOLYLINE
  5
6A6EF
330
2
100
AcDbEntity
  8
MABAT2
100
AcDbPolyline
 90
        2
 70
     0
 43
0.0
 10
-76.68989796436503
 20
-50.80508429343247
 10
-62.78280458261836
 20
-43.81673592025722
  0
TEXT
  5
6A73A
330
2
100
AcDbEntity
  8
TEXT03
100
AcDbText
 10
-148.5232304212568
 20
-40.51883336332724
 30
0.0
 40
1.6
  1

  7
ORON
100
AcDbText
  0
DIMENSION
  5
6A747
330
2
100
AcDbEntity
  8
DIMH
100
AcDbDimension
  2
*D13
 10
-82.11325988192175
 20
-175.6825983785397
 30
0.0
 11
-67.11325988192172
 21
-174.1825983785397
 31
0.0
 70
    32
  1
31
 71
     5
 42
30.00000000000005
  3
DIM10A
100
AcDbAlignedDimension
 13
-52.11325988192169
 23
-167.6334371158697
 33
0.0
 14
-82.11325988192175
 24
-167.6334371158697
 34
0.0
100
AcDbRotatedDimension
  0
LWPOLYLINE
  5
6A758
330
2
100
AcDbEntity
  8
MABAT3
100
AcDbPolyline
 90
        5
 70
     0
 43
0.0
 10
-226.9941572936622
 20
-147.1970294683749
 10
-226.3068080037269
 20
-148.4166622144809
 10
-234.3234364224804
 20
-152.9345991663237
 10
-234.9868260607463
 20
-151.7014634623681
 10
-227.0018330673997
 20
-147.2314183078749
  0
TEXT
  5
6A7FA
330
2
100
AcDbEntity
  8
TEXT03
100
AcDbText
 10
-104.236921091596
 20
-187.1325593018434
 30
0.0
 40
1.6
  1
" 46X46
  7
ORON
100
AcDbText
  0
TEXT
  5
6A864
330
2
100
AcDbEntity
  8
TEXT03
100
AcDbText
 10
-136.8485320422694
 20
-194.8069624343113
 30
0.0
 40
1.6
  1
     
  7
ORON
100
AcDbText
  0
TEXT
  5
6A865
330
2
100
AcDbEntity
  8
TEXT03
100
AcDbText
 10
-124.8487609065535
 20
-197.3069624343113
 30
0.0
 40
1.6
  1
"-"   
  7
ORON
100
AcDbText
  0
TEXT
  5
6A866
330
2
100
AcDbEntity
  8
TEXT03
100
AcDbText
 10
-125.9836667685307
 20
-192.3069624343113
 30
0.0
 40
1.6
  1
.    
  7
ORON
100
AcDbText
  0
VIEWPORT
  5
1494
330
1493
100
AcDbEntity
 67
     1
  8
0
100
AcDbViewport
 10
7563.297887047443
 20
1007.372414954556
 30
0.0
 40
1842.802600321187
 41
1214.064101430124
 68
     1
 69
     1
 12
7563.297887047443
 22
1007.372414954556
 13
0.0
 23
0.0
 14
1.0
 24
1.0
 15
0.0
 25
0.0
 16
0.0
 26
0.0
 36
1.0
 17
0.0
 27
0.0
 37
0.0
 42
50.0
 43
0.0
 44
0.0
 45
1214.064101430124
 50
0.0
 51
0.0
 72
   100
 90
    32800
  1

281
     0
 71
     1
 74
     0
110
0.0
120
0.0
130
0.0
111
1.0
121
0.0
131
0.0
112
0.0
122
1.0
132
0.0
 79
     0
146
0.0
  0
LWPOLYLINE
  5
4CBFB
330
1493
100
AcDbEntity
 67
     1
  8
f2
100
AcDbPolyline
 90
        4
 70
     1
 43
0.0
 10
7109.861697547059
 20
1302.571988947794
 10
8016.738582299842
 20
1302.571988947794
 10
8016.738484699841
 20
712.177600947688
 10
7109.861599947059
 20
712.177600947688
  0
LWPOLYLINE
  5
4CBFC
330
1493
100
AcDbEntity
 67
     1
  8
f2
100
AcDbPolyline
 90
        4
 70
     1
 43
0.0
 10
7104.861697547059
 20
1307.571988947794
 10
8021.738582299841
 20
1307.571988947794
 10
8021.738484699842
 20
707.177600947688
 10
7104.86159994706
 20
707.177600947688
  0
VIEWPORT
  5
4CC11
330
1493
100
AcDbEntity
 67
     1
  8
fr9
100
AcDbViewport
 10
7515.984006924854
 20
1004.457358282563
 30
0.0
 40
797.6483674967385
 41
560.5714451991173
 68
     2
 69
     2
 12
992.6047980877482
 22
-188.7333022934842
 13
0.0
 23
0.0
 14
1.0
 24
1.0
 15
0.0
 25
0.0
 16
0.0
 26
0.0
 36
1.0
 17
0.0
 27
0.0
 37
0.0
 42
50.0
 43
0.0
 44
0.0
 45
560.5714466855928
 50
0.0
 51
0.0
 72
   100
 90
    33312
  1

281
     0
 71
     1
 74
     0
110
0.0
120
0.0
130
0.0
111
1.0
121
0.0
131
0.0
112
0.0
122
1.0
132
0.0
 79
     0
146
0.0
  0
TEXT
  5
53944
330
1493
100
AcDbEntity
 67
     1
  8
remtxt
100
AcDbText
 10
8007.344325539122
 20
1073.76185885723
 30
0.0
 40
2.5
  1
1
  7
ORON
 72
     1
 11
8007.641944586742
 21
1075.01185885723
 31
0.0
100
AcDbText
 73
     2
  0
TEXT
  5
53945
330
1493
100
AcDbEntity
 67
     1
  8
remtxt
100
AcDbText
 10
7974.313533235947
 20
1074.260531210475
 30
0.0
 40
2.5
  1
 
 41
0.8
  7
ORON
 72
     2
 11
7990.694485616899
 21
1075.510531210475
 31
0.0
100
AcDbText
 73
     2
  0
TEXT
  5
53946
330
1493
100
AcDbEntity
 67
     1
  8
remtxt
100
AcDbText
 10
7918.419218225832
 20
1074.31916125911
 30
0.0
 40
2.5
  1
19.09.12
  7
ORON
 72
     1
 11
7925.919218225832
 21
1075.56916125911
 31
0.0
100
AcDbText
 73
     2
  0
INSERT
  5
57071
330
1493
100
AcDbEntity
 67
     1
  8
DIMVT
100
AcDbBlockReference
 66
     1
  2
arbilitaba1
 10
8016.738484699841
 20
712.177600947688
 30
0.0
  0
ATTRIB
  5
57072
330
57071
100
AcDbEntity
 67
     1
  8
TEXT03
100
AcDbText
 10
7922.540924116012
 20
845.6021370487858
 30
0.0
 40
3.0
  1
23.09.12
  7
ROMANS
 72
     2
 11
7942.112352687439
 21
845.6021370487858
 31
0.0
100
AcDbAttribute
  2
1DATE
 70
     0
  0
ATTRIB
  5
57073
330
57071
100
AcDbEntity
 67
     1
  8
TEXT04
100
AcDbText
 10
7972.416708053879
 20
845.2260390495348
 30
0.0
 40
4.5
  1
1:50
  7
ROMANS
 72
     2
 11
7986.773850911022
 21
845.2260390495348
 31
0.0
100
AcDbAttribute
  2
SCALE
 70
     0
  0
ATTRIB
  5
57074
330
57071
100
AcDbEntity
 67
     1
  8
TEXT03
100
AcDbText
 10
7950.738484699842
 20
831.1776009476879
 30
0.0
 40
2.0
  1

  7
ORON
 72
     2
 11
7950.738484699842
 21
831.1776009476879
 31
0.0
100
AcDbAttribute
  2
NAME
 70
     0
  0
ATTRIB
  5
57075
330
57071
100
AcDbEntity
 67
     1
  8
TEXT03
100
AcDbText
 10
8000.738484699843
 20
831.1776009476879
 30
0.0
 40
2.0
  1

  7
ORON
 72
     2
 11
8000.738484699843
 21
831.1776009476879
 31
0.0
100
AcDbAttribute
  2
NAME
 70
     0
  0
ATTRIB
  5
57076
330
57071
100
AcDbEntity
 67
     1
  8
T3
100
AcDbText
 10
7918.738484699841
 20
727.177600947688
 30
0.0
 40
3.0
  1
AOONER-PRATIM.DWG
  7
ORON
 11
7918.738484699841
 21
728.677600947688
 31
0.0
100
AcDbAttribute
  2
FILE
 70
     0
 74
     2
  0
ATTRIB
  5
57077
330
57071
100
AcDbEntity
 67
     1
  8
TEXT04
100
AcDbText
 10
7983.35753231889
 20
931.2415247277813
 30
0.0
 40
4.0
  1
 
  7
ORON
 72
     1
 11
7997.738484699842
 21
933.2415247277813
 31
0.0
100
AcDbAttribute
  2
LOCATION
 70
     0
 74
     2
  0
ATTRIB
  5
57078
330
57071
100
AcDbEntity
 67
     1
  8
TEXT04
100
AcDbText
 10
7925.548008509365
 20
931.2415247277813
 30
0.0
 40
4.0
  1
  
  7
ORON
 72
     1
 11
7947.738484699842
 21
933.2415247277813
 31
0.0
100
AcDbAttribute
  2
PROJNAME
 70
     0
 74
     2
  0
ATTRIB
  5
57079
330
57071
100
AcDbEntity
 67
     1
  8
TEXT04
100
AcDbText
 10
7951.184977147988
 20
882.5826312846736
 30
0.0
 40
5.5
  1
 
  7
ORON
 72
     1
 11
7967.554024767036
 21
885.3326312846736
 31
0.0
100
AcDbAttribute
  2
PLANNAME1
 70
     0
 74
     2
  0
ATTRIB
  5
5707A
330
57071
100
AcDbEntity
 67
     1
  8
TEXT04
100
AcDbText
 10
7966.738484699842
 20
878.4495499979581
 30
0.0
 40
4.0
  1

  7
ORON
 72
     1
 11
7966.738484699842
 21
880.449549997958
 31
0.0
100
AcDbAttribute
  2
PLANNAME2
 70
     0
 74
     2
  0
ATTRIB
  5
5707B
330
57071
100
AcDbEntity
 67
     1
  8
T3
100
AcDbText
 10
7918.738484699841
 20
716.177600947688
 30
0.0
 40
3.0
  1
12.12.12
  7
ORON
 11
7918.738484699841
 21
717.6776009476879
 31
0.0
100
AcDbAttribute
  2
LASTDATE
 70
     0
 74
     2
  0
ATTRIB
  5
5707C
330
57071
100
AcDbEntity
 67
     1
  8
TEXT04
100
AcDbText
 10
7942.196530959684
 20
904.1432434218238
 30
0.0
 40
5.5
  1
05
  7
TOV
 72
     1
 11
7947.738484699842
 21
906.8932434218238
 31
0.0
100
AcDbAttribute
  2
SHEETNO
 70
     0
 74
     2
  0
SEQEND
  5
5707D
330
57071
100
AcDbEntity
 67
     1
  8
DIMVT
  0
INSERT
  5
64014
330
1493
100
AcDbEntity
 67
     1
  8
0
100
AcDbBlockReference
  2
status
 10
8016.738484699841
 20
745.177600947688
 30
0.0
  0
TEXT
  5
66999
330
1493
100
AcDbEntity
 67
     1
  8
remtxt
100
AcDbText
 10
8007.071817992729
 20
1079.927600947688
 30
0.0
 40
2.5
  1
2
 41
0.8
  7
ORON
 72
     1
 11
8007.738484659396
 21
1081.177600947688
 31
0.0
100
AcDbText
 73
     2
  0
TEXT
  5
6699A
330
1493
100
AcDbEntity
 67
     1
  8
remtxt
100
AcDbText
 10
7977.091126418263
 20
1080.46145437586
 30
0.0
 40
2.0
  1
 
 41
0.8
  7
ORON
 72
     2
 11
7990.195888323025
 21
1081.46145437586
 31
0.0
100
AcDbText
 73
     2
  0
TEXT
  5
6699D
330
1493
100
AcDbEntity
 67
     1
  8
remtxt
100
AcDbText
 10
7918.238484659397
 20
1079.927600947688
 30
0.0
 40
2.5
  1
07.10.12
  7
ORON
 72
     1
 11
7925.738484659397
 21
1081.177600947688
 31
0.0
100
AcDbText
 73
     2
  0
TEXT
  5
671B7
330
1493
100
AcDbEntity
 67
     1
  8
remtxt
100
AcDbText
 10
8007.071880521573
 20
1085.927600947688
 30
0.0
 40
2.5
  1
3
 41
0.8
  7
ORON
 72
     1
 11
8007.738547188239
 21
1087.177600947688
 31
0.0
100
AcDbText
 73
     2
  0
TEXT
  5
671B8
330
1493
100
AcDbEntity
 67
     1
  8
remtxt
100
AcDbText
 10
7977.091188947105
 20
1086.46145437586
 30
0.0
 40
2.0
  1
 
 41
0.8
  7
ORON
 72
     2
 11
7990.195950851867
 21
1087.46145437586
 31
0.0
100
AcDbText
 73
     2
  0
TEXT
  5
671B9
330
1493
100
AcDbEntity
 67
     1
  8
remtxt
100
AcDbText
 10
7918.476642426336
 20
1085.927600947688
 30
0.0
 40
2.5
  1
12.12.12
  7
ORON
 72
     1
 11
7925.73854718824
 21
1087.177600947688
 31
0.0
100
AcDbText
 73
     2
  0
ENDSEC
  0
SECTION
  2
OBJECTS
  0
DICTIONARY
  5
7
330
0
100
AcDbDictionary
281
     1
  3
ACAD_GROUP
350
BC34
  3
ACAD_IMAGE_DICT
350
67714
  3
ACAD_IMAGE_VARS
350
36287
  3
ACAD_LAYOUT
350
1492
  3
ACAD_MLINESTYLE
350
BC35
  3
ACAD_PLOTSETTINGS
350
BC36
  3
ACAD_PLOTSTYLENAME
350
6
  3
AcDbVariableDictionary
350
BD41
  3
ASE_INDEX_DICTIONARY
350
6A444
  3
DWGPROPS
350
63ECE
  0
DICTIONARY
  5
24B7
330
24B6
100
AcDbDictionary
280
     1
281
     1
  3
ACAD_LAYERFILTERS
360
6A7AD
  0
DICTIONARY
  5
148D
330
2
100
AcDbDictionary
280
     1
281
     1
  3
ACAD_SORTENTS
360
148E
  0
IMAGEDEF_REACTOR
  5
67D32
330
67D31
100
AcDbRasterImageDefReactor
 90
        2
330
67D31
  0
DICTIONARY
  5
BC34
102
{ACAD_REACTORS
330
7
102
}
330
7
100
AcDbDictionary
281
     1
  0
DICTIONARY
  5
67714
102
{ACAD_REACTORS
330
7
102
}
330
7
100
AcDbDictionary
281
     1
  3
LOGO-BLACK
350
67715
  0
RASTERVARIABLES
  5
36287
102
{ACAD_REACTORS
330
7
102
}
330
7
100
AcDbRasterVariables
 90
        0
 70
     1
 71
     1
 72
     0
  0
DICTIONARY
  5
1492
102
{ACAD_REACTORS
330
7
102
}
330
7
100
AcDbDictionary
281
     1
  3
Model
350
1491
  3
PRATIM
350
24B5
  0
DICTIONARY
  5
BC35
102
{ACAD_REACTORS
330
7
102
}
330
7
100
AcDbDictionary
281
     1
  3
Standard
350
BC37
  0
DICTIONARY
  5
BC36
102
{ACAD_REACTORS
330
7
102
}
330
7
100
AcDbDictionary
281
     1
  3
PDF
350
49983
  0
ACDBDICTIONARYWDFLT
  5
6
102
{ACAD_REACTORS
330
7
102
}
330
7
100
AcDbDictionary
281
     1
  3
Normal
350
5
  3
Style 2
350
178DF
  3
Style 3
350
5C5A7
  3
Style 4
350
178E1
  3
Style 8
350
50400
  3
Style 9
350
50401
  3
Style_1
350
52D1B
100
AcDbDictionaryWithDefault
340
5
  0
DICTIONARY
  5
BD41
102
{ACAD_REACTORS
330
7
102
}
330
7
100
AcDbDictionary
281
     1
  3
SORTENTS
350
BD42
  0
DICTIONARY
  5
6A444
102
{ACAD_REACTORS
330
7
102
}
330
7
100
AcDbDictionary
281
     1
  3
ASEBlockHierarchyIndexRecord
350
6A445
1001
DCO15
1040
1784553082.953
  0
XRECORD
  5
63ECE
102
{ACAD_REACTORS
330
7
102
}
330
7
100
AcDbXrecord
280
     1
  1
DWGPROPS COOKIE
  2

  3

  4

  6

  7

  8
User
  9

300
=
301
=
302
=
303
=
304
=
305
=
306
=
307
=
308
=
309
=
 40
9.273921805555556
 41
2452912.915183912
 42
2455582.448934815
  1

 90
        0
  0
DICTIONARY
  5
6A7AD
102
{ACAD_REACTORS
330
24B7
102
}
330
24B7
100
AcDbDictionary
280
     1
281
     1
  0
SORTENTSTABLE
  5
148E
102
{ACAD_REACTORS
330
148D
102
}
330
148D
100
AcDbSortentsTable
330
2
331
145BD
  5
27980
331
1F
  5
27946
331
150B1
  5
279A0
331
20
  5
27947
331
14593
  5
2795E
331
150DB
  5
36792
331
92A
  5
2794C
331
1506C
  5
27982
331
1458A
  5
2795B
331
2BC60
  5
36799
331
150BC
  5
2CCE2
331
150D2
  5
3678F
331
3
  5
276FC
331
21
  5
27948
331
332B4
  5
3679B
331
150C6
  5
35BD8
331
145B4
  5
27976
331
150A8
  5
27998
331
14581
  5
27958
331
150C9
  5
3678C
331
145A1
  5
27963
331
145AB
  5
2796C
331
1509F
  5
27993
331
14EBB
  5
27981
331
E
  5
276FD
331
150B4
  5
279A1
331
1454E
  5
27952
331
145A2
  5
27966
331
14596
  5
2795F
331
F
  5
276FE
331
14599
  5
27960
331
1439D
  5
27951
331
2CD
  5
2794B
331
1458D
  5
2795C
331
150BF
  5
2F8AE
331
150D5
  5
36790
331
2DCD5
  5
3679A
331
145B7
  5
27977
331
150AB
  5
2799C
331
10
  5
276FF
331
14584
  5
27959
331
1A
  5
27944
331
150CC
  5
3678D
331
150C0
  5
3399A
331
150A2
  5
27994
331
145AE
  5
27972
331
196AC
  5
36796
331
11
  5
27700
331
124E1
  5
27950
331
2B62A
  5
36797
331
1459B
  5
27961
331
150B7
  5
279A3
331
145A5
  5
27968
331
15099
  5
27990
331
185B1
  5
36794
331
1457B
  5
27953
331
12
  5
27701
331
145BA
  5
2797F
331
14590
  5
2795D
331
150D8
  5
36791
331
13
  5
27705
331
150AE
  5
2799D
331
1D
  5
27945
331
14587
  5
2795A
331
150B9
  5
2B9AA
331
150CF
  5
3678E
331
150C3
  5
339A4
331
145B1
  5
27973
331
150A5
  5
27996
331
14
  5
27942
331
1459E
  5
27962
331
1509C
  5
27991
331
145A8
  5
27969
331
1457E
  5
27954
331
195DE
  5
36795
331
16D04
  5
36793
331
15
  5
27943
331
332C4
  5
3679C
  0
IMAGEDEF
  5
67715
102
{ACAD_REACTORS
330
67714
330
67D32
102
}
330
67714
100
AcDbRasterImageDef
 90
        0
  1
F:\ARCHITECT\TERMO-VENT\LOGO-BLACK.jpg
 10
328.0
 20
336.0
 11
0.0030487804878049
 21
0.0030487804878049
280
     1
281
     0
  0
LAYOUT
  5
1491
102
{ACAD_REACTORS
330
1492
102
}
330
1492
100
AcDbPlotSettings
  1

  2
Bullzip PDF Printer
  4
A4
  6
OLE1
 40
3.174999952316284
 41
3.174999952316284
 42
3.175003051757812
 43
3.17498779296875
 44
209.8886566162109
 45
297.0530090332031
 46
0.0
 47
0.0
 48
-266.6242834908248
 49
-215.7554255700995
140
0.0
141
-14.03185910384763
142
1.0
143
1.0
 70
 11936
 72
     1
 73
     1
 74
     4
  7
CAN50.ctb
 75
     0
147
1.0
148
266.6242834908248
149
215.7554255700995
100
AcDbLayout
  1
Model
 70
     1
 71
     0
 10
0.0
 20
0.0
 11
12.0
 21
9.0
 12
0.0
 22
0.0
 32
0.0
 14
0.0
 24
0.0
 34
0.0
 15
0.0
 25
0.0
 35
0.0
146
0.0
 13
0.0
 23
0.0
 33
0.0
 16
1.0
 26
0.0
 36
0.0
 17
0.0
 27
1.0
 37
0.0
 76
     0
330
2
  0
LAYOUT
  5
24B5
102
{ACAD_REACTORS
330
1492
102
}
330
1492
100
AcDbPlotSettings
  1

  2
DesignJet 750C Plus C4709B.pc3
  4
UserDefinedMetric (700.00 x 1000.00MM)
  6

 40
0.0
 41
0.0
 42
0.0
 43
0.0
 44
700.0
 45
1000.0
 46
0.0
 47
0.0
 48
7092.874656757508
 49
701.6136598874909
140
8036.712680214771
141
1316.121476489445
142
1.0
143
1.0
 70
   690
 72
     1
 73
     1
 74
     4
  7
CAN50.ctb
 75
    16
147
1.0
148
-7092.874656757508
149
-701.6136598874909
100
AcDbLayout
  1
PRATIM
 70
     1
 71
     1
 10
7092.874656757508
 20
701.6136598874909
 11
8092.874656757507
 21
1401.613659887491
 12
0.0
 22
0.0
 32
0.0
 14
7104.86159994706
 24
707.177600947688
 34
0.0
 15
8021.738582299841
 25
1307.571988947794
 35
0.0
146
0.0
 13
0.0
 23
0.0
 33
0.0
 16
1.0
 26
0.0
 36
0.0
 17
0.0
 27
1.0
 37
0.0
 76
     0
330
1493
331
1494
  0
MLINESTYLE
  5
BC37
102
{ACAD_REACTORS
330
BC35
102
}
330
BC35
100
AcDbMlineStyle
  2
STANDARD
 70
     0
  3

 62
   256
 51
90.0
 52
90.0
 71
     2
 49
0.5
 62
   256
  6
BYLAYER
 49
-0.5
 62
   256
  6
BYLAYER
  0
PLOTSETTINGS
  5
49983
102
{ACAD_REACTORS
330
BC36
102
}
330
BC36
100
AcDbPlotSettings
  1
PDF
  2
Bullzip PDF Printer
  4
User32767
  6

 40
3.174999952316284
 41
3.174999952316284
 42
3.175048828125
 43
3.17498779296875
 44
1994.619628906249
 45
894.5880126953126
 46
0.0
 47
0.0
 48
5026.63258982022
 49
569.915490985381
140
6817.209290809214
141
1219.915490985381
142
1.0
143
1.0
 70
   690
 72
     1
 73
     0
 74
     4
  7
can100-cl.ctb
 75
    16
147
1.0
148
-5026.63258982022
149
-569.915490985381
  0
ACDBPLACEHOLDER
  5
5
102
{ACAD_REACTORS
330
6
102
}
330
6
  0
ACDBPLACEHOLDER
  5
178DF
102
{ACAD_REACTORS
330
6
102
}
330
6
  0
ACDBPLACEHOLDER
  5
5C5A7
102
{ACAD_REACTORS
330
6
102
}
330
6
  0
ACDBPLACEHOLDER
  5
178E1
102
{ACAD_REACTORS
330
6
102
}
330
6
  0
ACDBPLACEHOLDER
  5
50400
102
{ACAD_REACTORS
330
6
102
}
330
6
  0
ACDBPLACEHOLDER
  5
50401
102
{ACAD_REACTORS
330
6
102
}
330
6
  0
ACDBPLACEHOLDER
  5
52D1B
102
{ACAD_REACTORS
330
6
102
}
330
6
  0
DICTIONARYVAR
  5
BD42
102
{ACAD_REACTORS
330
BD41
102
}
330
BD41
100
DictionaryVariables
280
     0
  1
127
  0
XRECORD
  5
6A445
102
{ACAD_REACTORS
330
6A444
102
}
330
6A444
100
AcDbXrecord
280
     1
330
3
330
E
330
F
330
10
330
11
330
12
330
13
330
14
330
15
330
1439D
330
1454E
330
1457B
330
1457E
330
14581
330
14584
330
14587
330
1458A
330
1458D
330
14590
330
14593
330
14596
330
14599
330
1459B
330
1459E
330
145A2
330
145A5
330
145A8
330
145AB
330
145AE
330
145B1
330
145B4
330
145B7
330
145BA
330
145BD
330
14EBB
330
1506C
330
15099
330
1509C
330
1509F
330
150A2
330
150A5
330
150A8
330
150AB
330
150AE
330
150B1
330
150B4
330
150B7
330
150B9
330
150BC
330
150C0
330
150C3
330
150C6
330
150C9
330
150CC
330
150CF
330
150D2
330
150D5
330
150D8
330
150DB
330
67D39
330
0
330
57071
330
64014
330
0
330
0
330
0
330
0
330
0
330
0
330
0
330
0
330
0
330
0
330
0
330
0
330
0
330
0
330
0
330
0
330
0
330
0
330
0
330
0
330
0
330
0
330
0
330
0
330
0
330
0
330
0
330
0
330
0
330
0
330
6A74C
330
6A74D
  0
ENDSEC
  0
EOF
