  0
SECTION
  2
HEADER
  9
$ACADVER
  1
AC1015
  9
$ACADMAINTVER
 70
     6
  9
$DWGCODEPAGE
  3
ANSI_1255
  9
$INSBASE
 10
0.0
 20
0.0
 30
0.0
  9
$EXTMIN
 10
-192.273717054838
 20
-233.1726836536022
 30
0.0
  9
$EXTMAX
 10
0.0
 20
0.0
 30
0.0
  9
$LIMMIN
 10
188921.0820000172
 20
685996.9871578218
  9
$LIMMAX
 10
189010.5780000686
 20
686066.8568420409
  9
$ORTHOMODE
 70
     0
  9
$REGENMODE
 70
     1
  9
$FILLMODE
 70
     1
  9
$QTEXTMODE
 70
     0
  9
$MIRRTEXT
 70
     0
  9
$LTSCALE
 40
8.0
  9
$ATTMODE
 70
     1
  9
$TEXTSIZE
 40
2.0
  9
$TRACEWID
 40
0.05
  9
$TEXTSTYLE
  7
AUDIT_I_130617131144-3
  9
$CLAYER
  8
0
  9
$CELTYPE
  6
ByLayer
  9
$CECOLOR
 62
   256
  9
$CELTSCALE
 40
1.0
  9
$DISPSILH
 70
     0
  9
$DIMSCALE
 40
0.1
  9
$DIMASZ
 40
2.0
  9
$DIMEXO
 40
20.0
  9
$DIMDLI
 40
0.0
  9
$DIMRND
 40
0.0
  9
$DIMDLE
 40
11.0
  9
$DIMEXE
 40
0.0
  9
$DIMTP
 40
0.0
  9
$DIMTM
 40
0.0
  9
$DIMTXT
 40
20.0
  9
$DIMCEN
 40
1.0
  9
$DIMTSZ
 40
0.0
  9
$DIMTOL
 70
     0
  9
$DIMLIM
 70
     0
  9
$DIMTIH
 70
     0
  9
$DIMTOH
 70
     0
  9
$DIMSE1
 70
     0
  9
$DIMSE2
 70
     0
  9
$DIMTAD
 70
     1
  9
$DIMZIN
 70
     1
  9
$DIMBLK
  1
TIC
  9
$DIMASO
 70
     1
  9
$DIMSHO
 70
     1
  9
$DIMPOST
  1

  9
$DIMAPOST
  1

  9
$DIMALT
 70
     0
  9
$DIMALTD
 70
     2
  9
$DIMALTF
 40
25.4
  9
$DIMLFAC
 40
1.0
  9
$DIMTOFL
 70
     0
  9
$DIMTVP
 40
0.0
  9
$DIMTIX
 70
     0
  9
$DIMSOXD
 70
     0
  9
$DIMSAH
 70
     0
  9
$DIMBLK1
  1

  9
$DIMBLK2
  1

  9
$DIMSTYLE
  2
DIM10A
  9
$DIMCLRD
 70
   256
  9
$DIMCLRE
 70
    30
  9
$DIMCLRT
 70
     4
  9
$DIMTFAC
 40
1.0
  9
$DIMGAP
 40
5.0
  9
$DIMJUST
 70
     0
  9
$DIMSD1
 70
     0
  9
$DIMSD2
 70
     0
  9
$DIMTOLJ
 70
     1
  9
$DIMTZIN
 70
     1
  9
$DIMALTZ
 70
     1
  9
$DIMALTTZ
 70
     1
  9
$DIMUPT
 70
     0
  9
$DIMDEC
 70
     0
  9
$DIMTDEC
 70
     0
  9
$DIMALTU
 70
     2
  9
$DIMALTTD
 70
     2
  9
$DIMTXSTY
  7
MONOSI
  9
$DIMAUNIT
 70
     0
  9
$DIMADEC
 70
     0
  9
$DIMALTRND
 40
0.0
  9
$DIMAZIN
 70
     0
  9
$DIMDSEP
 70
    46
  9
$DIMATFIT
 70
     3
  9
$DIMFRAC
 70
     0
  9
$DIMLDRBLK
  1
TIC
  9
$DIMLUNIT
 70
     2
  9
$DIMLWD
 70
    -2
  9
$DIMLWE
 70
    -2
  9
$DIMTMOVE
 70
     2
  9
$LUNITS
 70
     2
  9
$LUPREC
 70
     3
  9
$SKETCHINC
 40
0.1
  9
$FILLETRAD
 40
0.0
  9
$AUNITS
 70
     0
  9
$AUPREC
 70
     0
  9
$MENU
  1
acad
  9
$ELEVATION
 40
0.0
  9
$PELEVATION
 40
0.0
  9
$THICKNESS
 40
0.0
  9
$LIMCHECK
 70
     0
  9
$CHAMFERA
 40
10.0
  9
$CHAMFERB
 40
10.0
  9
$CHAMFERC
 40
0.0
  9
$CHAMFERD
 40
0.0
  9
$SKPOLY
 70
     0
  9
$TDCREATE
 40
2452912.915183912
  9
$TDUCREATE
 40
2452912.831850578
  9
$TDUPDATE
 40
2456461.552074109
  9
$TDUUPDATE
 40
2456461.468740775
  9
$TDINDWG
 40
9.4755177546
  9
$TDUSRTIMER
 40
9.4755177546
  9
$USRTIMER
 70
     1
  9
$ANGBASE
 50
0.0
  9
$ANGDIR
 70
     0
  9
$PDMODE
 70
     0
  9
$PDSIZE
 40
0.0
  9
$PLINEWID
 40
0.0
  9
$SPLFRAME
 70
     0
  9
$SPLINETYPE
 70
     6
  9
$SPLINESEGS
 70
     8
  9
$HANDSEED
  5
67D7F
  9
$SURFTAB1
 70
     6
  9
$SURFTAB2
 70
     6
  9
$SURFTYPE
 70
     6
  9
$SURFU
 70
     6
  9
$SURFV
 70
     6
  9
$UCSBASE
  2

  9
$UCSNAME
  2

  9
$UCSORG
 10
0.0
 20
0.0
 30
0.0
  9
$UCSXDIR
 10
1.0
 20
0.0
 30
0.0
  9
$UCSYDIR
 10
0.0
 20
1.0
 30
0.0
  9
$UCSORTHOREF
  2

  9
$UCSORTHOVIEW
 70
     0
  9
$UCSORGTOP
 10
0.0
 20
0.0
 30
0.0
  9
$UCSORGBOTTOM
 10
0.0
 20
0.0
 30
0.0
  9
$UCSORGLEFT
 10
0.0
 20
0.0
 30
0.0
  9
$UCSORGRIGHT
 10
0.0
 20
0.0
 30
0.0
  9
$UCSORGFRONT
 10
0.0
 20
0.0
 30
0.0
  9
$UCSORGBACK
 10
0.0
 20
0.0
 30
0.0
  9
$PUCSBASE
  2

  9
$PUCSNAME
  2

  9
$PUCSORG
 10
0.0
 20
0.0
 30
0.0
  9
$PUCSXDIR
 10
1.0
 20
0.0
 30
0.0
  9
$PUCSYDIR
 10
0.0
 20
1.0
 30
0.0
  9
$PUCSORTHOREF
  2

  9
$PUCSORTHOVIEW
 70
     0
  9
$PUCSORGTOP
 10
0.0
 20
0.0
 30
0.0
  9
$PUCSORGBOTTOM
 10
0.0
 20
0.0
 30
0.0
  9
$PUCSORGLEFT
 10
0.0
 20
0.0
 30
0.0
  9
$PUCSORGRIGHT
 10
0.0
 20
0.0
 30
0.0
  9
$PUCSORGFRONT
 10
0.0
 20
0.0
 30
0.0
  9
$PUCSORGBACK
 10
0.0
 20
0.0
 30
0.0
  9
$USERI1
 70
     0
  9
$USERI2
 70
     0
  9
$USERI3
 70
     0
  9
$USERI4
 70
     0
  9
$USERI5
 70
     0
  9
$USERR1
 40
0.0
  9
$USERR2
 40
0.0
  9
$USERR3
 40
0.0
  9
$USERR4
 40
0.0
  9
$USERR5
 40
0.0
  9
$WORLDVIEW
 70
     1
  9
$SHADEDGE
 70
     3
  9
$SHADEDIF
 70
    70
  9
$TILEMODE
 70
     1
  9
$MAXACTVP
 70
    16
  9
$PINSBASE
 10
0.0
 20
0.0
 30
0.0
  9
$PLIMCHECK
 70
     0
  9
$PEXTMIN
 10
7104.86159994706
 20
707.177600947688
 30
0.0
  9
$PEXTMAX
 10
8021.738582299841
 20
1307.571988947794
 30
0.0
  9
$PLIMMIN
 10
7092.874656757508
 20
701.6136598874909
  9
$PLIMMAX
 10
8092.874656757507
 20
1401.613659887491
  9
$UNITMODE
 70
     0
  9
$VISRETAIN
 70
     0
  9
$PLINEGEN
 70
     0
  9
$PSLTSCALE
 70
     1
  9
$TREEDEPTH
 70
  3020
  9
$CMLSTYLE
  2
Standard
  9
$CMLJUST
 70
     0
  9
$CMLSCALE
 40
1.0
  9
$PROXYGRAPHICS
 70
     1
  9
$MEASUREMENT
 70
     0
  9
$CELWEIGHT
370
    -1
  9
$ENDCAPS
280
     0
  9
$JOINSTYLE
280
     0
  9
$LWDISPLAY
290
     0
  9
$INSUNITS
 70
     0
  9
$HYPERLINKBASE
  1

  9
$STYLESHEET
  1
CAN50.ctb
  9
$XEDIT
290
     1
  9
$CEPSNTYPE
380
     0
  9
$PSTYLEMODE
290
     1
  9
$FINGERPRINTGUID
  2

  9
$VERSIONGUID
  2
{6A13F5E6-BDE6-4944-9349-5B8C488ACDB2}
  9
$EXTNAMES
290
     1
  9
$PSVPSCALE
 40
1.0
  9
$OLESTARTUP
290
     0
  0
ENDSEC
  0
SECTION
  2
CLASSES
  0
CLASS
  1
ACDBDICTIONARYWDFLT
  2
AcDbDictionaryWithDefault
  3
AutoCAD 2000
 90
        0
280
     0
281
     0
  0
CLASS
  1
ACDBPLACEHOLDER
  2
AcDbPlaceHolder
  3
AutoCAD 2000
 90
        0
280
     0
281
     0
  0
CLASS
  1
LAYOUT
  2
AcDbLayout
  3
AutoCAD 2000
 90
        0
280
     0
281
     0
  0
CLASS
  1
DICTIONARYVAR
  2
AcDbDictionaryVar
  3
AutoCAD 2000
 90
        0
280
     0
281
     0
  0
CLASS
  1
PLOTSETTINGS
  2
AcDbPlotSettings
  3
AutoCAD 2000
 90
        0
280
     0
281
     0
  0
CLASS
  1
SORTENTSTABLE
  2
AcDbSortentsTable
  3
AutoCAD 2000
 90
        0
280
     0
281
     0
  0
CLASS
  1
WIPEOUT
  2
AcDbWipeout
  3
WipeOut|AutoCAD Express Tool|expresstools@autodesk.com
 90
    32895
280
     0
281
     1
  0
CLASS
  1
WIPEOUTVARIABLES
  2
AcDbWipeoutVariables
  3
WipeOut|AutoCAD Express Tool|expresstools@autodesk.com
 90
    32768
280
     0
281
     0
  0
CLASS
  1
RASTERVARIABLES
  2
AcDbRasterVariables
  3
ISM
 90
        0
280
     0
281
     0
  0
CLASS
  1
IMAGEDEF
  2
AcDbRasterImageDef
  3
ISM
 90
        0
280
     0
281
     0
  0
CLASS
  1
IMAGEDEF_REACTOR
  2
AcDbRasterImageDefReactor
  3
ISM
 90
        1
280
     0
281
     0
  0
CLASS
  1
IMAGE
  2
AcDbRasterImage
  3
ISM
 90
      127
280
     0
281
     1
  0
ENDSEC
  0
SECTION
  2
TABLES
  0
TABLE
  2
VPORT
  5
BC28
330
0
100
AcDbSymbolTable
 70
     2
  0
VPORT
  5
67D7E
330
BC28
100
AcDbSymbolTableRecord
100
AcDbViewportTableRecord
  2
*Active
 70
     0
 10
0.0
 20
0.0
 11
1.0
 21
1.0
 12
-96.13685852741902
 22
-116.5863418268011
 13
0.0
 23
0.0
 14
1.0
 24
1.0
 15
0.0
 25
0.0
 16
0.0
 26
0.0
 36
1.0
 17
0.0
 27
0.0
 37
0.0
 40
234.8956345180376
 41
1.517879161528976
 42
50.0
 43
0.0
 44
0.0
 50
0.0
 51
0.0
 71
     0
 72
   100
 73
     1
 74
     1
 75
     0
 76
     0
 77
     0
 78
     0
281
     0
 65
     1
110
0.0
120
0.0
130
0.0
111
1.0
121
0.0
131
0.0
112
0.0
122
1.0
132
0.0
 79
     0
146
0.0
  0
ENDTAB
  0
TABLE
  2
LTYPE
  5
BC23
330
0
100
AcDbSymbolTable
 70
     5
  0
LTYPE
  5
BC24
330
BC23
100
AcDbSymbolTableRecord
100
AcDbLinetypeTableRecord
  2
ByBlock
 70
     0
  3

 72
    65
 73
     0
 40
0.0
  0
LTYPE
  5
BC25
330
BC23
100
AcDbSymbolTableRecord
100
AcDbLinetypeTableRecord
  2
ByLayer
 70
     0
  3

 72
    65
 73
     0
 40
0.0
  0
LTYPE
  5
8
330
BC23
100
AcDbSymbolTableRecord
100
AcDbLinetypeTableRecord
  2
CONTINUOUS
 70
     0
  3
Solid line
 72
    65
 73
     0
 40
0.0
  0
LTYPE
  5
8D
330
BC23
100
AcDbSymbolTableRecord
100
AcDbLinetypeTableRecord
  2
HIDDEN
 70
     0
  3
_ _ _ _ _ _ _ _ _ _ _ _ _ _ _ _ _ _ _ _ _ _ _
 72
    65
 73
     2
 40
0.375
 49
0.25
 74
     0
 49
-0.125
 74
     0
  0
LTYPE
  5
13F78
330
BC23
100
AcDbSymbolTableRecord
100
AcDbLinetypeTableRecord
  2
DASHED
 70
     0
  3
__ __ __ __ __ __ __ __ __ __ __ __ __ __ __
 72
    65
 73
     2
 40
0.75
 49
0.5
 74
     0
 49
-0.25
 74
     0
  0
LTYPE
  5
5D567
330
BC23
100
AcDbSymbolTableRecord
100
AcDbLinetypeTableRecord
  2
CENTER
 70
     0
  3
____ _ ____ _ ____ _ ____ _ ____ _ ____ _ ____ 
 72
    65
 73
     4
 40
2.0
 49
1.25
 74
     0
 49
-0.25
 74
     0
 49
0.25
 74
     0
 49
-0.25
 74
     0
  0
LTYPE
  5
5D568
330
BC23
100
AcDbSymbolTableRecord
100
AcDbLinetypeTableRecord
  2
DASHDOT
 70
     0
  3
__ . __ . __ . __ . __ . __ . __ . __ . __ . __
 72
    65
 73
     4
 40
1.0
 49
0.5
 74
     0
 49
-0.25
 74
     0
 49
0.0
 74
     0
 49
-0.25
 74
     0
  0
ENDTAB
  0
TABLE
  2
LAYER
  5
24B6
102
{ACAD_XDICTIONARY
360
24B7
102
}
330
0
100
AcDbSymbolTable
 70
    55
  0
LAYER
  5
C
330
24B6
100
AcDbSymbolTableRecord
100
AcDbLayerTableRecord
  2
0
 70
     0
 62
     7
  6
CONTINUOUS
370
    -3
390
5
  0
LAYER
  5
8BA
330
24B6
100
AcDbSymbolTableRecord
100
AcDbLayerTableRecord
  2
MABAT2
 70
     0
 62
     2
  6
CONTINUOUS
370
    -3
390
5
  0
LAYER
  5
89D
330
24B6
100
AcDbSymbolTableRecord
100
AcDbLayerTableRecord
  2
HIDDEN
 70
     0
 62
     9
  6
HIDDEN
370
    -3
390
5
  0
LAYER
  5
F5
330
24B6
100
AcDbSymbolTableRecord
100
AcDbLayerTableRecord
  2
TEXT03
 70
     0
 62
     4
  6
CONTINUOUS
370
    -3
390
5
  0
LAYER
  5
7B7
330
24B6
100
AcDbSymbolTableRecord
100
AcDbLayerTableRecord
  2
TEXT04
 70
     0
 62
     3
  6
CONTINUOUS
370
    -3
390
5
  0
LAYER
  5
8C
330
24B6
100
AcDbSymbolTableRecord
100
AcDbLayerTableRecord
  2
UP
 70
     0
 62
     3
  6
HIDDEN
370
    -3
390
5
  0
LAYER
  5
7B
330
24B6
100
AcDbSymbolTableRecord
100
AcDbLayerTableRecord
  2
BETON
 70
     0
 62
   140
  6
CONTINUOUS
370
    -3
390
5
  0
LAYER
  5
334
330
24B6
100
AcDbSymbolTableRecord
100
AcDbLayerTableRecord
  2
DIMH
 70
     0
 62
     9
  6
CONTINUOUS
370
    -3
390
5
  0
LAYER
  5
2EB
330
24B6
100
AcDbSymbolTableRecord
100
AcDbLayerTableRecord
  2
DIMV
 70
     0
 62
     9
  6
CONTINUOUS
370
    -3
390
5
  0
LAYER
  5
2FA
330
24B6
100
AcDbSymbolTableRecord
100
AcDbLayerTableRecord
  2
DEFPOINTS
 70
     0
 62
     7
  6
CONTINUOUS
290
     0
370
    -3
390
5
  0
LAYER
  5
7D2
330
24B6
100
AcDbSymbolTableRecord
100
AcDbLayerTableRecord
  2
DIMVT
 70
     0
 62
     4
  6
CONTINUOUS
370
    -3
390
5
  0
LAYER
  5
4
330
24B6
100
AcDbSymbolTableRecord
100
AcDbLayerTableRecord
  2
ASHADE
 70
     0
 62
     7
  6
CONTINUOUS
370
    -3
390
5
  0
LAYER
  5
1B
330
24B6
100
AcDbSymbolTableRecord
100
AcDbLayerTableRecord
  2
pit233
 70
     0
 62
     4
  6
CONTINUOUS
370
    -3
390
5
  0
LAYER
  5
1E
330
24B6
100
AcDbSymbolTableRecord
100
AcDbLayerTableRecord
  2
pitdimh
 70
     0
 62
     9
  6
CONTINUOUS
370
    -3
390
5
  0
LAYER
  5
13F79
330
24B6
100
AcDbSymbolTableRecord
100
AcDbLayerTableRecord
  2
DCA_INFO
 70
     0
 62
     7
  6
CONTINUOUS
370
    -3
390
5
  0
LAYER
  5
13F8A
330
24B6
100
AcDbSymbolTableRecord
100
AcDbLayerTableRecord
  2
CTACK
 70
     0
 62
     7
  6
CONTINUOUS
370
    -3
390
5
  0
LAYER
  5
14A8F
330
24B6
100
AcDbSymbolTableRecord
100
AcDbLayerTableRecord
  2
pitDCA_INFO
 70
     0
 62
     7
  6
CONTINUOUS
370
    -3
390
5
  0
LAYER
  5
14AA2
330
24B6
100
AcDbSymbolTableRecord
100
AcDbLayerTableRecord
  2
pitCTACK
 70
     0
 62
     7
  6
CONTINUOUS
370
    -3
390
5
  0
LAYER
  5
1859E
330
24B6
100
AcDbSymbolTableRecord
100
AcDbLayerTableRecord
  2
railm
 70
     0
 62
     6
  6
CONTINUOUS
370
    -3
390
5
  0
LAYER
  5
4CBD7
330
24B6
100
AcDbSymbolTableRecord
100
AcDbLayerTableRecord
  2
f2
 70
     0
 62
     2
  6
CONTINUOUS
370
    -3
390
5
  0
LAYER
  5
4CBD9
330
24B6
100
AcDbSymbolTableRecord
100
AcDbLayerTableRecord
  2
T1
 70
     0
 62
     1
  6
CONTINUOUS
370
    -3
390
5
  0
LAYER
  5
4CC0E
330
24B6
100
AcDbSymbolTableRecord
100
AcDbLayerTableRecord
  2
fr9
 70
     0
 62
     9
  6
CONTINUOUS
290
     0
370
    -3
390
5
  0
LAYER
  5
53943
330
24B6
100
AcDbSymbolTableRecord
100
AcDbLayerTableRecord
  2
remtxt
 70
     0
 62
     4
  6
CONTINUOUS
370
    -3
390
5
  0
LAYER
  5
56113
330
24B6
100
AcDbSymbolTableRecord
100
AcDbLayerTableRecord
  2
F1
 70
     0
 62
     1
  6
CONTINUOUS
370
    -3
390
52D1B
  0
LAYER
  5
568FF
330
24B6
100
AcDbSymbolTableRecord
100
AcDbLayerTableRecord
  2
T3
 70
     0
 62
     4
  6
CONTINUOUS
370
    -3
390
178E1
  0
LAYER
  5
5C56B
330
24B6
100
AcDbSymbolTableRecord
100
AcDbLayerTableRecord
  2
MABAT3
 70
     0
 62
     3
  6
CONTINUOUS
370
    -3
390
50400
  0
LAYER
  5
5C56C
330
24B6
100
AcDbSymbolTableRecord
100
AcDbLayerTableRecord
  2
MABAT
 70
     0
 62
     4
  6
CONTINUOUS
370
    -3
390
178E1
  0
LAYER
  5
5C56D
330
24B6
100
AcDbSymbolTableRecord
100
AcDbLayerTableRecord
  2
HATCH9
 70
     0
 62
     9
  6
CONTINUOUS
370
    -3
390
178DF
  0
LAYER
  5
5C56E
330
24B6
100
AcDbSymbolTableRecord
100
AcDbLayerTableRecord
  2
TEXT05
 70
     0
 62
     1
  6
CONTINUOUS
370
    -3
390
50401
  0
LAYER
  5
5C56F
330
24B6
100
AcDbSymbolTableRecord
100
AcDbLayerTableRecord
  2
A-GRP
 70
     0
 62
     2
  6
CONTINUOUS
370
    -3
390
5C5A7
  0
LAYER
  5
5C579
330
24B6
100
AcDbSymbolTableRecord
100
AcDbLayerTableRecord
  2
None
 70
     0
 62
     4
  6
CONTINUOUS
370
     5
390
5
  0
LAYER
  5
5C581
330
24B6
100
AcDbSymbolTableRecord
100
AcDbLayerTableRecord
  2
AK-RAS
 70
     0
 62
     9
  6
CONTINUOUS
370
    -3
390
5
  0
LAYER
  5
5D56B
330
24B6
100
AcDbSymbolTableRecord
100
AcDbLayerTableRecord
  2
01
 70
     0
 62
     1
  6
CONTINUOUS
370
    -3
390
5
  0
LAYER
  5
5D56C
330
24B6
100
AcDbSymbolTableRecord
100
AcDbLayerTableRecord
  2
H1
 70
     0
 62
     9
  6
CONTINUOUS
370
    -3
390
5
  0
LAYER
  5
5D56E
330
24B6
100
AcDbSymbolTableRecord
100
AcDbLayerTableRecord
  2
07
 70
     0
 62
     7
  6
CONTINUOUS
370
    -3
390
5
  0
LAYER
  5
5D571
330
24B6
100
AcDbSymbolTableRecord
100
AcDbLayerTableRecord
  2
MABAT8
 70
     0
 62
    30
  6
CONTINUOUS
370
    -3
390
5
  0
LAYER
  5
64D26
330
24B6
100
AcDbSymbolTableRecord
100
AcDbLayerTableRecord
  2
dim
 70
     0
 62
     9
  6
CONTINUOUS
370
    -3
390
5
  0
LAYER
  5
64D27
330
24B6
100
AcDbSymbolTableRecord
100
AcDbLayerTableRecord
  2
TXT
 70
     0
 62
     4
  6
CONTINUOUS
370
    -3
390
5
  0
LAYER
  5
64D28
330
24B6
100
AcDbSymbolTableRecord
100
AcDbLayerTableRecord
  2
OLD-WIND
 70
     1
 62
     2
  6
CONTINUOUS
370
    -3
390
5
  0
LAYER
  5
64D29
330
24B6
100
AcDbSymbolTableRecord
100
AcDbLayerTableRecord
  2
A-WL
 70
     0
 62
     4
  6
CONTINUOUS
370
    -3
390
5
  0
LAYER
  5
64D2A
330
24B6
100
AcDbSymbolTableRecord
100
AcDbLayerTableRecord
  2
A-TXT1
 70
     0
 62
     6
  6
CONTINUOUS
370
    -3
390
5
  0
LAYER
  5
64D2B
330
24B6
100
AcDbSymbolTableRecord
100
AcDbLayerTableRecord
  2
A-LN2
 70
     0
 62
     9
  6
CONTINUOUS
370
    -3
390
5
  0
LAYER
  5
64D2C
330
24B6
100
AcDbSymbolTableRecord
100
AcDbLayerTableRecord
  2
A-LN3
 70
     0
 62
     3
  6
CONTINUOUS
370
    -3
390
5
  0
LAYER
  5
64D2D
330
24B6
100
AcDbSymbolTableRecord
100
AcDbLayerTableRecord
  2
A-LOGO4
 70
     0
 62
     3
  6
CONTINUOUS
370
    -3
390
5
  0
LAYER
  5
64D2E
330
24B6
100
AcDbSymbolTableRecord
100
AcDbLayerTableRecord
  2
A-WLB
 70
     0
 62
     3
  6
CONTINUOUS
370
    -3
390
5
  0
LAYER
  5
64D2F
330
24B6
100
AcDbSymbolTableRecord
100
AcDbLayerTableRecord
  2
A-PL
 70
     0
 62
     1
  6
CONTINUOUS
370
    -3
390
5
  0
LAYER
  5
64D30
330
24B6
100
AcDbSymbolTableRecord
100
AcDbLayerTableRecord
  2
G4
 70
     0
 62
     2
  6
CONTINUOUS
370
    -3
390
5
  0
LAYER
  5
671E1
330
24B6
100
AcDbSymbolTableRecord
100
AcDbLayerTableRecord
  2
AK-LN2
 70
     0
 62
     2
  6
CONTINUOUS
370
    -3
390
5
  0
LAYER
  5
671E2
330
24B6
100
AcDbSymbolTableRecord
100
AcDbLayerTableRecord
  2
AK-AVIZAR
 70
     0
 62
    30
  6
CONTINUOUS
370
    -3
390
5
  0
LAYER
  5
671E3
330
24B6
100
AcDbSymbolTableRecord
100
AcDbLayerTableRecord
  2
AK-SIL2
 70
     0
 62
     3
  6
CONTINUOUS
370
    -3
390
5
  0
LAYER
  5
671E4
330
24B6
100
AcDbSymbolTableRecord
100
AcDbLayerTableRecord
  2
AK-BT
 70
     0
 62
     1
  6
CONTINUOUS
370
    -3
390
5
  0
LAYER
  5
671E5
330
24B6
100
AcDbSymbolTableRecord
100
AcDbLayerTableRecord
  2
AK-RAS1
 70
     0
 62
     2
  6
CONTINUOUS
370
    -3
390
5
  0
LAYER
  5
671E6
330
24B6
100
AcDbSymbolTableRecord
100
AcDbLayerTableRecord
  2
AK-TIH
 70
     0
 62
     3
  6
CONTINUOUS
370
    -3
390
5
  0
LAYER
  5
671E7
330
24B6
100
AcDbSymbolTableRecord
100
AcDbLayerTableRecord
  2
AK-PROFIL
 70
     0
 62
     4
  6
CONTINUOUS
370
    -3
390
5
  0
LAYER
  5
67CAF
330
24B6
100
AcDbSymbolTableRecord
100
AcDbLayerTableRecord
  2
ELSYM
 70
     0
 62
     3
  6
CONTINUOUS
370
    -3
390
5
  0
ENDTAB
  0
TABLE
  2
STYLE
  5
BC21
330
0
100
AcDbSymbolTable
 70
    14
  0
STYLE
  5
1C
330
BC21
100
AcDbSymbolTableRecord
100
AcDbTextStyleTableRecord
  2
STANDARD
 70
     0
 40
0.0
 41
1.0
 50
0.0
 71
     0
 42
1.0
  3
HEBTXT.SHX
  4

  0
STYLE
  5
22
330
BC21
100
AcDbSymbolTableRecord
100
AcDbTextStyleTableRecord
  2
MONOSI
 70
     0
 40
0.0
 41
1.0
 50
0.0
 71
     0
 42
15.0
  3
MONOSI.shx
  4

  0
STYLE
  5
140
330
BC21
100
AcDbSymbolTableRecord
100
AcDbTextStyleTableRecord
  2
ORON
 70
     0
 40
0.0
 41
0.8
 50
0.0
 71
     0
 42
20.0
  3
ORON.shx
  4

  0
STYLE
  5
7B5
330
BC21
100
AcDbSymbolTableRecord
100
AcDbTextStyleTableRecord
  2
TOV
 70
     0
 40
0.0
 41
1.0
 50
0.0
 71
     0
 42
15.0
  3
TOVANA02.SHX
  4

  0
STYLE
  5
1382A
330
BC21
100
AcDbSymbolTableRecord
100
AcDbTextStyleTableRecord
  2
SIVAN
 70
     0
 40
0.4
 41
1.0
 50
0.0
 71
     0
 42
0.4
  3
SIVAN.shx
  4

  0
STYLE
  5
4CBDE
330
BC21
100
AcDbSymbolTableRecord
100
AcDbTextStyleTableRecord
  2
ROMANS
 70
     0
 40
0.0
 41
1.0
 50
0.0
 71
     0
 42
0.3
  3
romans.shx
  4

  0
STYLE
  5
5260E
330
BC21
100
AcDbSymbolTableRecord
100
AcDbTextStyleTableRecord
  2
AUDIT_I_130617131144-3
 70
     0
 40
0.0
 41
1.0
 50
0.0
 71
     0
 42
2.0
  3

  4

  0
STYLE
  5
5C597
330
BC21
100
AcDbSymbolTableRecord
100
AcDbTextStyleTableRecord
  2
Arial (italic)
 70
     0
 40
0.0
 41
1.0
 50
0.0
 71
     0
 42
0.0
  3
ARIALI.TTF
  4

1001
ACAD
1000
Arial
1071
 16777216
  0
STYLE
  5
64D31
330
BC21
100
AcDbSymbolTableRecord
100
AcDbTextStyleTableRecord
  2
ILAN
 70
     0
 40
1.0
 41
0.75
 50
10.0
 71
     0
 42
12.0
  3
ORON1
  4

  0
STYLE
  5
64D32
330
BC21
100
AcDbSymbolTableRecord
100
AcDbTextStyleTableRecord
  2
DIM
 70
     0
 40
0.0
 41
1.0
 50
0.0
 71
     0
 42
2.0
  3
ORON1
  4

  0
STYLE
  5
64D33
330
BC21
100
AcDbSymbolTableRecord
100
AcDbTextStyleTableRecord
  2
MIRYM
 70
     0
 40
6.0
 41
1.0
 50
10.0
 71
     0
 42
6.0
  3
MIRYM.shx
  4

  0
STYLE
  5
64D34
330
BC21
100
AcDbSymbolTableRecord
100
AcDbTextStyleTableRecord
  2
SIMPLEX
 70
     0
 40
0.0
 41
0.8
 50
0.0
 71
     0
 42
0.5
  3
SIMPLEX.shx
  4

  0
STYLE
  5
671E8
330
BC21
100
AcDbSymbolTableRecord
100
AcDbTextStyleTableRecord
  2
SIMPHEB
 70
     0
 40
0.0
 41
1.0
 50
0.0
 71
     0
 42
10.0
  3
simpheb.shx
  4

  0
STYLE
  5
67594
330
BC21
100
AcDbSymbolTableRecord
100
AcDbTextStyleTableRecord
  2
COMHEB
 70
     0
 40
0.0
 41
1.0
 50
0.0
 71
     0
 42
50.0
  3
comheb
  4

  0
ENDTAB
  0
TABLE
  2
VIEW
  5
BC26
330
0
100
AcDbSymbolTable
 70
     3
  0
VIEW
  5
CBD5
330
BC26
100
AcDbSymbolTableRecord
100
AcDbViewTableRecord
  2
OLE1
 70
     0
 40
2829.124993734357
 10
-6275.159076791068
 20
-12746.67069334954
 41
4206.968315775564
 11
0.0
 21
0.0
 31
1.0
 12
0.0
 22
0.0
 32
0.0
 42
50.0
 43
0.0
 44
0.0
 50
0.0
 71
     0
281
     0
 72
     0
  0
VIEW
  5
19E7A
330
BC26
100
AcDbSymbolTableRecord
100
AcDbViewTableRecord
  2
OLE2
 70
     0
 40
2929.23966654166
 10
-3329.920335965899
 20
4830.031660100008
 41
4438.89701006067
 11
0.0
 21
0.0
 31
1.0
 12
0.0
 22
0.0
 32
0.0
 42
50.0
 43
0.0
 44
0.0
 50
0.0
 71
     0
281
     0
 72
     0
  0
VIEW
  5
1A2D0
330
BC26
100
AcDbSymbolTableRecord
100
AcDbViewTableRecord
  2
OLE3
 70
     0
 40
799.5220703068343
 10
-26079.71063570627
 20
131.2783816556038
 41
1211.575880218966
 11
0.0
 21
0.0
 31
1.0
 12
0.0
 22
0.0
 32
0.0
 42
50.0
 43
0.0
 44
0.0
 50
0.0
 71
     0
281
     0
 72
     0
  0
ENDTAB
  0
TABLE
  2
UCS
  5
BC27
330
0
100
AcDbSymbolTable
 70
     0
  0
ENDTAB
  0
TABLE
  2
APPID
  5
BC2A
330
0
100
AcDbSymbolTable
 70
   337
  0
APPID
  5
2B0
330
BC2A
100
AcDbSymbolTableRecord
100
AcDbRegAppTableRecord
  2
ACAD
 70
     0
  0
APPID
  5
D
330
BC2A
100
AcDbSymbolTableRecord
100
AcDbRegAppTableRecord
  2
AVE_RENDER
 70
     0
  0
APPID
  5
19
330
BC2A
100
AcDbSymbolTableRecord
100
AcDbRegAppTableRecord
  2
AVE_MATERIAL
 70
     0
  0
APPID
  5
2433
330
BC2A
100
AcDbSymbolTableRecord
100
AcDbRegAppTableRecord
  2
AcAecLayerStandard
 70
     0
  0
APPID
  5
14B5
330
BC2A
100
AcDbSymbolTableRecord
100
AcDbRegAppTableRecord
  2
RAK
 70
     0
  0
APPID
  5
13F8E
330
BC2A
100
AcDbSymbolTableRecord
100
AcDbRegAppTableRecord
  2
SDI_SETUP
 70
     0
  0
APPID
  5
13F8F
330
BC2A
100
AcDbSymbolTableRecord
100
AcDbRegAppTableRecord
  2
TR_DXF
 70
     0
  0
APPID
  5
13F90
330
BC2A
100
AcDbSymbolTableRecord
100
AcDbRegAppTableRecord
  2
DCA_DTM_FAULTS
 70
     0
  0
APPID
  5
17610
330
BC2A
100
AcDbSymbolTableRecord
100
AcDbRegAppTableRecord
  2
ACAD_PSEXT
 70
     0
  0
APPID
  5
1A1C8
330
BC2A
100
AcDbSymbolTableRecord
100
AcDbRegAppTableRecord
  2
NOTR_DXF
 70
     0
  0
APPID
  5
1C631
330
BC2A
100
AcDbSymbolTableRecord
100
AcDbRegAppTableRecord
  2
ACAD_DSTYLE_DIMARC_LENGTH_SYMBOL
 70
     0
  0
APPID
  5
211E4
330
BC2A
100
AcDbSymbolTableRecord
100
AcDbRegAppTableRecord
  2
ACAD_EXEMPT_FROM_CAD_STANDARDS
 70
     0
  0
APPID
  5
211E5
330
BC2A
100
AcDbSymbolTableRecord
100
AcDbRegAppTableRecord
  2
ACAD_DSTYLE_DIMTEXT_FILL
 70
     0
  0
APPID
  5
211E6
330
BC2A
100
AcDbSymbolTableRecord
100
AcDbRegAppTableRecord
  2
ACAD_DSTYLE_DIMEXT_LENGTH
 70
     0
  0
APPID
  5
211E7
330
BC2A
100
AcDbSymbolTableRecord
100
AcDbRegAppTableRecord
  2
ACAD_DSTYLE_DIMEXT_ENABLED
 70
     0
  0
APPID
  5
211E8
330
BC2A
100
AcDbSymbolTableRecord
100
AcDbRegAppTableRecord
  2
ACAD_DSTYLE_DIM_LINETYPE
 70
     0
  0
APPID
  5
211E9
330
BC2A
100
AcDbSymbolTableRecord
100
AcDbRegAppTableRecord
  2
ACAD_DSTYLE_DIM_EXT1_LINETYPE
 70
     0
  0
APPID
  5
211EA
330
BC2A
100
AcDbSymbolTableRecord
100
AcDbRegAppTableRecord
  2
ACAD_DSTYLE_DIM_EXT2_LINETYPE
 70
     0
  0
APPID
  5
211EB
330
BC2A
100
AcDbSymbolTableRecord
100
AcDbRegAppTableRecord
  2
ACAD_DSTYLE_DIMJOGGED_JOGANGLE_SYMBOL
 70
     0
  0
APPID
  5
27DFB
330
BC2A
100
AcDbSymbolTableRecord
100
AcDbRegAppTableRecord
  2
DCO15
 70
     0
  0
APPID
  5
354C5
330
BC2A
100
AcDbSymbolTableRecord
100
AcDbRegAppTableRecord
  2
TVE_POINT
 70
     0
  0
APPID
  5
354C6
330
BC2A
100
AcDbSymbolTableRecord
100
AcDbRegAppTableRecord
  2
TVE_POLYGON
 70
     0
  0
APPID
  5
354C7
330
BC2A
100
AcDbSymbolTableRecord
100
AcDbRegAppTableRecord
  2
TVE_DIMENSION_TEXT
 70
     0
  0
APPID
  5
354C8
330
BC2A
100
AcDbSymbolTableRecord
100
AcDbRegAppTableRecord
  2
TVE_DIMENSION_LINE
 70
     0
  0
APPID
  5
354C9
330
BC2A
100
AcDbSymbolTableRecord
100
AcDbRegAppTableRecord
  2
TVE_642081215360606
 70
     0
  0
APPID
  5
354CA
330
BC2A
100
AcDbSymbolTableRecord
100
AcDbRegAppTableRecord
  2
TVE_63208121536065
 70
     0
  0
APPID
  5
354CB
330
BC2A
100
AcDbSymbolTableRecord
100
AcDbRegAppTableRecord
  2
TVE_3F2081215360662
 70
     0
  0
APPID
  5
354CC
330
BC2A
100
AcDbSymbolTableRecord
100
AcDbRegAppTableRecord
  2
TVE_3E2081215360678
 70
     0
  0
APPID
  5
354CD
330
BC2A
100
AcDbSymbolTableRecord
100
AcDbRegAppTableRecord
  2
TVE_3D2081215360696
 70
     0
  0
APPID
  5
354CE
330
BC2A
100
AcDbSymbolTableRecord
100
AcDbRegAppTableRecord
  2
TVE_2E2081215361657
 70
     0
  0
APPID
  5
354CF
330
BC2A
100
AcDbSymbolTableRecord
100
AcDbRegAppTableRecord
  2
TVE_2D2081215361673
 70
     0
  0
APPID
  5
354D0
330
BC2A
100
AcDbSymbolTableRecord
100
AcDbRegAppTableRecord
  2
TVE_2C2081215361698
 70
     0
  0
APPID
  5
354D1
330
BC2A
100
AcDbSymbolTableRecord
100
AcDbRegAppTableRecord
  2
TVE_2B2081215361713
 70
     0
  0
APPID
  5
354D2
330
BC2A
100
AcDbSymbolTableRecord
100
AcDbRegAppTableRecord
  2
TVE_2A2081215361730
 70
     0
  0
APPID
  5
354D3
330
BC2A
100
AcDbSymbolTableRecord
100
AcDbRegAppTableRecord
  2
TVE_292081215361746
 70
     0
  0
APPID
  5
354D4
330
BC2A
100
AcDbSymbolTableRecord
100
AcDbRegAppTableRecord
  2
TVE_282081215361761
 70
     0
  0
APPID
  5
354D5
330
BC2A
100
AcDbSymbolTableRecord
100
AcDbRegAppTableRecord
  2
TVE_332081215362876
 70
     0
  0
APPID
  5
354D6
330
BC2A
100
AcDbSymbolTableRecord
100
AcDbRegAppTableRecord
  2
TVE_322081215362898
 70
     0
  0
APPID
  5
354D7
330
BC2A
100
AcDbSymbolTableRecord
100
AcDbRegAppTableRecord
  2
TVE_312081215362917
 70
     0
  0
APPID
  5
354D8
330
BC2A
100
AcDbSymbolTableRecord
100
AcDbRegAppTableRecord
  2
TVE_302081215362934
 70
     0
  0
APPID
  5
354D9
330
BC2A
100
AcDbSymbolTableRecord
100
AcDbRegAppTableRecord
  2
TVE_2F2081215362954
 70
     0
  0
APPID
  5
354DA
330
BC2A
100
AcDbSymbolTableRecord
100
AcDbRegAppTableRecord
  2
TVE_362081215364626
 70
     0
  0
APPID
  5
354DB
330
BC2A
100
AcDbSymbolTableRecord
100
AcDbRegAppTableRecord
  2
TVE_352081215364643
 70
     0
  0
APPID
  5
354DC
330
BC2A
100
AcDbSymbolTableRecord
100
AcDbRegAppTableRecord
  2
TVE_342081215364662
 70
     0
  0
APPID
  5
354DD
330
BC2A
100
AcDbSymbolTableRecord
100
AcDbRegAppTableRecord
  2
TVE_372081215364685
 70
     0
  0
APPID
  5
354DE
330
BC2A
100
AcDbSymbolTableRecord
100
AcDbRegAppTableRecord
  2
TVE_219A2081215191532
 70
     0
  0
APPID
  5
354DF
330
BC2A
100
AcDbSymbolTableRecord
100
AcDbRegAppTableRecord
  2
TVE_3EF2081215193416
 70
     0
  0
APPID
  5
354E0
330
BC2A
100
AcDbSymbolTableRecord
100
AcDbRegAppTableRecord
  2
TVE_3EE2081215193438
 70
     0
  0
APPID
  5
354E1
330
BC2A
100
AcDbSymbolTableRecord
100
AcDbRegAppTableRecord
  2
TVE_DD2081215194886
 70
     0
  0
APPID
  5
354E2
330
BC2A
100
AcDbSymbolTableRecord
100
AcDbRegAppTableRecord
  2
TVE_D72081215200381
 70
     0
  0
APPID
  5
354E3
330
BC2A
100
AcDbSymbolTableRecord
100
AcDbRegAppTableRecord
  2
TVE_406D2081311503887
 70
     0
  0
APPID
  5
354E4
330
BC2A
100
AcDbSymbolTableRecord
100
AcDbRegAppTableRecord
  2
TVE_40532081311505915
 70
     0
  0
APPID
  5
354E5
330
BC2A
100
AcDbSymbolTableRecord
100
AcDbRegAppTableRecord
  2
TVE_40602081311505940
 70
     0
  0
APPID
  5
354E6
330
BC2A
100
AcDbSymbolTableRecord
100
AcDbRegAppTableRecord
  2
TVE_40342081311505969
 70
     0
  0
APPID
  5
354E7
330
BC2A
100
AcDbSymbolTableRecord
100
AcDbRegAppTableRecord
  2
TVE_40412081311505996
 70
     0
  0
APPID
  5
354E8
330
BC2A
100
AcDbSymbolTableRecord
100
AcDbRegAppTableRecord
  2
TVE_404A2081311510020
 70
     0
  0
APPID
  5
354E9
330
BC2A
100
AcDbSymbolTableRecord
100
AcDbRegAppTableRecord
  2
TVE_40272081311510047
 70
     0
  0
APPID
  5
354EA
330
BC2A
100
AcDbSymbolTableRecord
100
AcDbRegAppTableRecord
  2
TVE_401E2081311510124
 70
     0
  0
APPID
  5
354EB
330
BC2A
100
AcDbSymbolTableRecord
100
AcDbRegAppTableRecord
  2
TVE_40152081311510147
 70
     0
  0
APPID
  5
354EC
330
BC2A
100
AcDbSymbolTableRecord
100
AcDbRegAppTableRecord
  2
TVE_3FFA2081311511570
 70
     0
  0
APPID
  5
354ED
330
BC2A
100
AcDbSymbolTableRecord
100
AcDbRegAppTableRecord
  2
TVE_400C2081311511598
 70
     0
  0
APPID
  5
354EE
330
BC2A
100
AcDbSymbolTableRecord
100
AcDbRegAppTableRecord
  2
TVE_40032081311511621
 70
     0
  0
APPID
  5
354EF
330
BC2A
100
AcDbSymbolTableRecord
100
AcDbRegAppTableRecord
  2
TVE_3FCE2081311513774
 70
     0
  0
APPID
  5
354F0
330
BC2A
100
AcDbSymbolTableRecord
100
AcDbRegAppTableRecord
  2
TVE_3FD02081311513797
 70
     0
  0
APPID
  5
354F1
330
BC2A
100
AcDbSymbolTableRecord
100
AcDbRegAppTableRecord
  2
TVE_43E02081311554687
 70
     0
  0
APPID
  5
354F2
330
BC2A
100
AcDbSymbolTableRecord
100
AcDbRegAppTableRecord
  2
TVE_43D72081311562065
 70
     0
  0
APPID
  5
354F3
330
BC2A
100
AcDbSymbolTableRecord
100
AcDbRegAppTableRecord
  2
TVE_43CE2081311562093
 70
     0
  0
APPID
  5
354F4
330
BC2A
100
AcDbSymbolTableRecord
100
AcDbRegAppTableRecord
  2
TVE_43C52081311562115
 70
     0
  0
APPID
  5
354F5
330
BC2A
100
AcDbSymbolTableRecord
100
AcDbRegAppTableRecord
  2
TVE_43BC2081311562137
 70
     0
  0
APPID
  5
354F6
330
BC2A
100
AcDbSymbolTableRecord
100
AcDbRegAppTableRecord
  2
TVE_43B32081311562165
 70
     0
  0
APPID
  5
354F7
330
BC2A
100
AcDbSymbolTableRecord
100
AcDbRegAppTableRecord
  2
TVE_43AA2081311562189
 70
     0
  0
APPID
  5
354F8
330
BC2A
100
AcDbSymbolTableRecord
100
AcDbRegAppTableRecord
  2
TVE_43A12081311562211
 70
     0
  0
APPID
  5
354F9
330
BC2A
100
AcDbSymbolTableRecord
100
AcDbRegAppTableRecord
  2
TVE_43962081311562305
 70
     0
  0
APPID
  5
354FA
330
BC2A
100
AcDbSymbolTableRecord
100
AcDbRegAppTableRecord
  2
TVE_438B2081311562331
 70
     0
  0
APPID
  5
354FB
330
BC2A
100
AcDbSymbolTableRecord
100
AcDbRegAppTableRecord
  2
TVE_43822081311562352
 70
     0
  0
APPID
  5
354FC
330
BC2A
100
AcDbSymbolTableRecord
100
AcDbRegAppTableRecord
  2
TVE_43792081311562374
 70
     0
  0
APPID
  5
354FD
330
BC2A
100
AcDbSymbolTableRecord
100
AcDbRegAppTableRecord
  2
TVE_436E2081311562402
 70
     0
  0
APPID
  5
354FE
330
BC2A
100
AcDbSymbolTableRecord
100
AcDbRegAppTableRecord
  2
TVE_43632081311562425
 70
     0
  0
APPID
  5
354FF
330
BC2A
100
AcDbSymbolTableRecord
100
AcDbRegAppTableRecord
  2
TVE_435A2081311562447
 70
     0
  0
APPID
  5
35500
330
BC2A
100
AcDbSymbolTableRecord
100
AcDbRegAppTableRecord
  2
TVE_434F2081311562474
 70
     0
  0
APPID
  5
35501
330
BC2A
100
AcDbSymbolTableRecord
100
AcDbRegAppTableRecord
  2
TVE_39602081311562500
 70
     0
  0
APPID
  5
35502
330
BC2A
100
AcDbSymbolTableRecord
100
AcDbRegAppTableRecord
  2
TVE_43442081311562523
 70
     0
  0
APPID
  5
35503
330
BC2A
100
AcDbSymbolTableRecord
100
AcDbRegAppTableRecord
  2
TVE_433B2081311562611
 70
     0
  0
APPID
  5
35504
330
BC2A
100
AcDbSymbolTableRecord
100
AcDbRegAppTableRecord
  2
TVE_43322081311562638
 70
     0
  0
APPID
  5
35505
330
BC2A
100
AcDbSymbolTableRecord
100
AcDbRegAppTableRecord
  2
TVE_43292081311564017
 70
     0
  0
APPID
  5
35506
330
BC2A
100
AcDbSymbolTableRecord
100
AcDbRegAppTableRecord
  2
TVE_43202081311564048
 70
     0
  0
APPID
  5
35507
330
BC2A
100
AcDbSymbolTableRecord
100
AcDbRegAppTableRecord
  2
TVE_43172081311564070
 70
     0
  0
APPID
  5
35508
330
BC2A
100
AcDbSymbolTableRecord
100
AcDbRegAppTableRecord
  2
TVE_430E2081311564097
 70
     0
  0
APPID
  5
35509
330
BC2A
100
AcDbSymbolTableRecord
100
AcDbRegAppTableRecord
  2
TVE_44012081311565124
 70
     0
  0
APPID
  5
3550A
330
BC2A
100
AcDbSymbolTableRecord
100
AcDbRegAppTableRecord
  2
TVE_44002081311565148
 70
     0
  0
APPID
  5
3550B
330
BC2A
100
AcDbSymbolTableRecord
100
AcDbRegAppTableRecord
  2
TVE_559C2081312033033
 70
     0
  0
APPID
  5
3550C
330
BC2A
100
AcDbSymbolTableRecord
100
AcDbRegAppTableRecord
  2
TVE_560C2081312040405
 70
     0
  0
APPID
  5
3550D
330
BC2A
100
AcDbSymbolTableRecord
100
AcDbRegAppTableRecord
  2
TVE_560B2081312040433
 70
     0
  0
APPID
  5
3550E
330
BC2A
100
AcDbSymbolTableRecord
100
AcDbRegAppTableRecord
  2
TVE_55952081312040530
 70
     0
  0
APPID
  5
3550F
330
BC2A
100
AcDbSymbolTableRecord
100
AcDbRegAppTableRecord
  2
TVE_558E2081312040554
 70
     0
  0
APPID
  5
35510
330
BC2A
100
AcDbSymbolTableRecord
100
AcDbRegAppTableRecord
  2
TVE_55872081312040579
 70
     0
  0
APPID
  5
35511
330
BC2A
100
AcDbSymbolTableRecord
100
AcDbRegAppTableRecord
  2
TVE_55802081312040606
 70
     0
  0
APPID
  5
35512
330
BC2A
100
AcDbSymbolTableRecord
100
AcDbRegAppTableRecord
  2
TVE_55792081312040631
 70
     0
  0
APPID
  5
35513
330
BC2A
100
AcDbSymbolTableRecord
100
AcDbRegAppTableRecord
  2
TVE_55722081312040654
 70
     0
  0
APPID
  5
35514
330
BC2A
100
AcDbSymbolTableRecord
100
AcDbRegAppTableRecord
  2
TVE_556B2081312040682
 70
     0
  0
APPID
  5
35515
330
BC2A
100
AcDbSymbolTableRecord
100
AcDbRegAppTableRecord
  2
TVE_55622081312040708
 70
     0
  0
APPID
  5
35516
330
BC2A
100
AcDbSymbolTableRecord
100
AcDbRegAppTableRecord
  2
TVE_555B2081312040799
 70
     0
  0
APPID
  5
35517
330
BC2A
100
AcDbSymbolTableRecord
100
AcDbRegAppTableRecord
  2
TVE_55542081312040823
 70
     0
  0
APPID
  5
35518
330
BC2A
100
AcDbSymbolTableRecord
100
AcDbRegAppTableRecord
  2
TVE_554D2081312040850
 70
     0
  0
APPID
  5
35519
330
BC2A
100
AcDbSymbolTableRecord
100
AcDbRegAppTableRecord
  2
TVE_55442081312040878
 70
     0
  0
APPID
  5
3551A
330
BC2A
100
AcDbSymbolTableRecord
100
AcDbRegAppTableRecord
  2
TVE_553D2081312040906
 70
     0
  0
APPID
  5
3551B
330
BC2A
100
AcDbSymbolTableRecord
100
AcDbRegAppTableRecord
  2
TVE_552D2081312040938
 70
     0
  0
APPID
  5
3551C
330
BC2A
100
AcDbSymbolTableRecord
100
AcDbRegAppTableRecord
  2
TVE_54E02081312040963
 70
     0
  0
APPID
  5
3551D
330
BC2A
100
AcDbSymbolTableRecord
100
AcDbRegAppTableRecord
  2
TVE_55262081312040988
 70
     0
  0
APPID
  5
3551E
330
BC2A
100
AcDbSymbolTableRecord
100
AcDbRegAppTableRecord
  2
TVE_551F2081312041079
 70
     0
  0
APPID
  5
3551F
330
BC2A
100
AcDbSymbolTableRecord
100
AcDbRegAppTableRecord
  2
TVE_55182081312041104
 70
     0
  0
APPID
  5
35520
330
BC2A
100
AcDbSymbolTableRecord
100
AcDbRegAppTableRecord
  2
TVE_55032081312042659
 70
     0
  0
APPID
  5
35521
330
BC2A
100
AcDbSymbolTableRecord
100
AcDbRegAppTableRecord
  2
TVE_55112081312042683
 70
     0
  0
APPID
  5
35522
330
BC2A
100
AcDbSymbolTableRecord
100
AcDbRegAppTableRecord
  2
TVE_550A2081312042707
 70
     0
  0
APPID
  5
35523
330
BC2A
100
AcDbSymbolTableRecord
100
AcDbRegAppTableRecord
  2
TVE_54FC2081312042737
 70
     0
  0
APPID
  5
35524
330
BC2A
100
AcDbSymbolTableRecord
100
AcDbRegAppTableRecord
  2
TVE_55A32081312043765
 70
     0
  0
APPID
  5
35525
330
BC2A
100
AcDbSymbolTableRecord
100
AcDbRegAppTableRecord
  2
TVE_55AA2081312043789
 70
     0
  0
APPID
  5
35526
330
BC2A
100
AcDbSymbolTableRecord
100
AcDbRegAppTableRecord
  2
TVE_67292081312404832
 70
     0
  0
APPID
  5
35527
330
BC2A
100
AcDbSymbolTableRecord
100
AcDbRegAppTableRecord
  2
TVE_681B2081312422073
 70
     0
  0
APPID
  5
35528
330
BC2A
100
AcDbSymbolTableRecord
100
AcDbRegAppTableRecord
  2
TVE_6EB2081313243642
 70
     0
  0
APPID
  5
35529
330
BC2A
100
AcDbSymbolTableRecord
100
AcDbRegAppTableRecord
  2
TVE_6EA2081313243697
 70
     0
  0
APPID
  5
3552A
330
BC2A
100
AcDbSymbolTableRecord
100
AcDbRegAppTableRecord
  2
TVE_6E72081313243728
 70
     0
  0
APPID
  5
3552B
330
BC2A
100
AcDbSymbolTableRecord
100
AcDbRegAppTableRecord
  2
TVE_6E52081313243752
 70
     0
  0
APPID
  5
3552C
330
BC2A
100
AcDbSymbolTableRecord
100
AcDbRegAppTableRecord
  2
TVE_6DE2081313243772
 70
     0
  0
APPID
  5
3552D
330
BC2A
100
AcDbSymbolTableRecord
100
AcDbRegAppTableRecord
  2
TVE_6DD2081313243813
 70
     0
  0
APPID
  5
3552E
330
BC2A
100
AcDbSymbolTableRecord
100
AcDbRegAppTableRecord
  2
TVE_6DC2081313243836
 70
     0
  0
APPID
  5
3552F
330
BC2A
100
AcDbSymbolTableRecord
100
AcDbRegAppTableRecord
  2
TVE_6DB2081313243858
 70
     0
  0
APPID
  5
35530
330
BC2A
100
AcDbSymbolTableRecord
100
AcDbRegAppTableRecord
  2
TVE_6DA2081313243878
 70
     0
  0
APPID
  5
35531
330
BC2A
100
AcDbSymbolTableRecord
100
AcDbRegAppTableRecord
  2
TVE_6D92081313243900
 70
     0
  0
APPID
  5
35532
330
BC2A
100
AcDbSymbolTableRecord
100
AcDbRegAppTableRecord
  2
TVE_14E2101607001975
 70
     0
  0
APPID
  5
35533
330
BC2A
100
AcDbSymbolTableRecord
100
AcDbRegAppTableRecord
  2
TVE_292101607003748
 70
     0
  0
APPID
  5
35534
330
BC2A
100
AcDbSymbolTableRecord
100
AcDbRegAppTableRecord
  2
TVE_282101607003764
 70
     0
  0
APPID
  5
35535
330
BC2A
100
AcDbSymbolTableRecord
100
AcDbRegAppTableRecord
  2
TVE_272101607003784
 70
     0
  0
APPID
  5
35536
330
BC2A
100
AcDbSymbolTableRecord
100
AcDbRegAppTableRecord
  2
TVE_262101607003802
 70
     0
  0
APPID
  5
35537
330
BC2A
100
AcDbSymbolTableRecord
100
AcDbRegAppTableRecord
  2
TVE_252101607003821
 70
     0
  0
APPID
  5
35538
330
BC2A
100
AcDbSymbolTableRecord
100
AcDbRegAppTableRecord
  2
TVE_242101607003840
 70
     0
  0
APPID
  5
35539
330
BC2A
100
AcDbSymbolTableRecord
100
AcDbRegAppTableRecord
  2
TVE_232101607003859
 70
     0
  0
APPID
  5
3553A
330
BC2A
100
AcDbSymbolTableRecord
100
AcDbRegAppTableRecord
  2
TVE_222101607003875
 70
     0
  0
APPID
  5
3553B
330
BC2A
100
AcDbSymbolTableRecord
100
AcDbRegAppTableRecord
  2
TVE_212101607003890
 70
     0
  0
APPID
  5
3553C
330
BC2A
100
AcDbSymbolTableRecord
100
AcDbRegAppTableRecord
  2
TVE_202101607003910
 70
     0
  0
APPID
  5
3553D
330
BC2A
100
AcDbSymbolTableRecord
100
AcDbRegAppTableRecord
  2
TVE_1F2101607003941
 70
     0
  0
APPID
  5
3553E
330
BC2A
100
AcDbSymbolTableRecord
100
AcDbRegAppTableRecord
  2
TVE_1D2101607003968
 70
     0
  0
APPID
  5
3553F
330
BC2A
100
AcDbSymbolTableRecord
100
AcDbRegAppTableRecord
  2
TVE_162101607010506
 70
     0
  0
APPID
  5
35540
330
BC2A
100
AcDbSymbolTableRecord
100
AcDbRegAppTableRecord
  2
TVE_152101607010522
 70
     0
  0
APPID
  5
35541
330
BC2A
100
AcDbSymbolTableRecord
100
AcDbRegAppTableRecord
  2
TVE_142101607010542
 70
     0
  0
APPID
  5
35542
330
BC2A
100
AcDbSymbolTableRecord
100
AcDbRegAppTableRecord
  2
TVE_132101607010559
 70
     0
  0
APPID
  5
35543
330
BC2A
100
AcDbSymbolTableRecord
100
AcDbRegAppTableRecord
  2
TVE_122101607010581
 70
     0
  0
APPID
  5
35544
330
BC2A
100
AcDbSymbolTableRecord
100
AcDbRegAppTableRecord
  2
TVE_112101607010598
 70
     0
  0
APPID
  5
35545
330
BC2A
100
AcDbSymbolTableRecord
100
AcDbRegAppTableRecord
  2
TVE_4B2101607013007
 70
     0
  0
APPID
  5
35546
330
BC2A
100
AcDbSymbolTableRecord
100
AcDbRegAppTableRecord
  2
TVE_4A2101607013027
 70
     0
  0
APPID
  5
35547
330
BC2A
100
AcDbSymbolTableRecord
100
AcDbRegAppTableRecord
  2
TVE_492101607013045
 70
     0
  0
APPID
  5
35548
330
BC2A
100
AcDbSymbolTableRecord
100
AcDbRegAppTableRecord
  2
TVE_482101607013064
 70
     0
  0
APPID
  5
35549
330
BC2A
100
AcDbSymbolTableRecord
100
AcDbRegAppTableRecord
  2
TVE_412101607014928
 70
     0
  0
APPID
  5
3554A
330
BC2A
100
AcDbSymbolTableRecord
100
AcDbRegAppTableRecord
  2
TVE_402101607014949
 70
     0
  0
APPID
  5
3554B
330
BC2A
100
AcDbSymbolTableRecord
100
AcDbRegAppTableRecord
  2
TVE_3F2101607014965
 70
     0
  0
APPID
  5
3554C
330
BC2A
100
AcDbSymbolTableRecord
100
AcDbRegAppTableRecord
  2
TVE_3E2101607014986
 70
     0
  0
APPID
  5
3554D
330
BC2A
100
AcDbSymbolTableRecord
100
AcDbRegAppTableRecord
  2
TVE_3C2101607015003
 70
     0
  0
APPID
  5
3554E
330
BC2A
100
AcDbSymbolTableRecord
100
AcDbRegAppTableRecord
  2
TVE_4E2101607022235
 70
     0
  0
APPID
  5
3554F
330
BC2A
100
AcDbSymbolTableRecord
100
AcDbRegAppTableRecord
  2
TVE_4C2101607022253
 70
     0
  0
APPID
  5
35550
330
BC2A
100
AcDbSymbolTableRecord
100
AcDbRegAppTableRecord
  2
TVE_5D2101607023503
 70
     0
  0
APPID
  5
35551
330
BC2A
100
AcDbSymbolTableRecord
100
AcDbRegAppTableRecord
  2
TVE_5B2101607023520
 70
     0
  0
APPID
  5
35552
330
BC2A
100
AcDbSymbolTableRecord
100
AcDbRegAppTableRecord
  2
TVE_6EE2101607085911
 70
     0
  0
APPID
  5
35553
330
BC2A
100
AcDbSymbolTableRecord
100
AcDbRegAppTableRecord
  2
TVE_6ED2101607092241
 70
     0
  0
APPID
  5
35554
330
BC2A
100
AcDbSymbolTableRecord
100
AcDbRegAppTableRecord
  2
TVE_6EC2101607092260
 70
     0
  0
APPID
  5
35555
330
BC2A
100
AcDbSymbolTableRecord
100
AcDbRegAppTableRecord
  2
TVE_6EB2101607092279
 70
     0
  0
APPID
  5
35556
330
BC2A
100
AcDbSymbolTableRecord
100
AcDbRegAppTableRecord
  2
TVE_3A2101607092318
 70
     0
  0
APPID
  5
35557
330
BC2A
100
AcDbSymbolTableRecord
100
AcDbRegAppTableRecord
  2
TVE_392101607092340
 70
     0
  0
APPID
  5
35558
330
BC2A
100
AcDbSymbolTableRecord
100
AcDbRegAppTableRecord
  2
TVE_382101607092359
 70
     0
  0
APPID
  5
35559
330
BC2A
100
AcDbSymbolTableRecord
100
AcDbRegAppTableRecord
  2
TVE_372101607092381
 70
     0
  0
APPID
  5
3555A
330
BC2A
100
AcDbSymbolTableRecord
100
AcDbRegAppTableRecord
  2
TVE_362101607092410
 70
     0
  0
APPID
  5
3555B
330
BC2A
100
AcDbSymbolTableRecord
100
AcDbRegAppTableRecord
  2
TVE_352101607092444
 70
     0
  0
APPID
  5
3555C
330
BC2A
100
AcDbSymbolTableRecord
100
AcDbRegAppTableRecord
  2
TVE_332101607092485
 70
     0
  0
APPID
  5
3555D
330
BC2A
100
AcDbSymbolTableRecord
100
AcDbRegAppTableRecord
  2
TVE_322101607092507
 70
     0
  0
APPID
  5
3555E
330
BC2A
100
AcDbSymbolTableRecord
100
AcDbRegAppTableRecord
  2
TVE_312101607092553
 70
     0
  0
APPID
  5
3555F
330
BC2A
100
AcDbSymbolTableRecord
100
AcDbRegAppTableRecord
  2
TVE_2D2101607092574
 70
     0
  0
APPID
  5
35560
330
BC2A
100
AcDbSymbolTableRecord
100
AcDbRegAppTableRecord
  2
TVE_2C2101607092593
 70
     0
  0
APPID
  5
35561
330
BC2A
100
AcDbSymbolTableRecord
100
AcDbRegAppTableRecord
  2
TVE_2B2101607092613
 70
     0
  0
APPID
  5
35562
330
BC2A
100
AcDbSymbolTableRecord
100
AcDbRegAppTableRecord
  2
TVE_2A2101607092635
 70
     0
  0
APPID
  5
35563
330
BC2A
100
AcDbSymbolTableRecord
100
AcDbRegAppTableRecord
  2
TVE_D2101607094142
 70
     0
  0
APPID
  5
35564
330
BC2A
100
AcDbSymbolTableRecord
100
AcDbRegAppTableRecord
  2
TVE_C2101607095490
 70
     0
  0
APPID
  5
35565
330
BC2A
100
AcDbSymbolTableRecord
100
AcDbRegAppTableRecord
  2
TVE_B2101607095513
 70
     0
  0
APPID
  5
35566
330
BC2A
100
AcDbSymbolTableRecord
100
AcDbRegAppTableRecord
  2
TVE_92101607095532
 70
     0
  0
APPID
  5
35567
330
BC2A
100
AcDbSymbolTableRecord
100
AcDbRegAppTableRecord
  2
TVE_EC2101607101501
 70
     0
  0
APPID
  5
35568
330
BC2A
100
AcDbSymbolTableRecord
100
AcDbRegAppTableRecord
  2
TVE_472101607101522
 70
     0
  0
APPID
  5
35569
330
BC2A
100
AcDbSymbolTableRecord
100
AcDbRegAppTableRecord
  2
TVE_462101607101540
 70
     0
  0
APPID
  5
3556A
330
BC2A
100
AcDbSymbolTableRecord
100
AcDbRegAppTableRecord
  2
TVE_452101607101564
 70
     0
  0
APPID
  5
3556B
330
BC2A
100
AcDbSymbolTableRecord
100
AcDbRegAppTableRecord
  2
TVE_442101607101583
 70
     0
  0
APPID
  5
3556C
330
BC2A
100
AcDbSymbolTableRecord
100
AcDbRegAppTableRecord
  2
TVE_432101607101605
 70
     0
  0
APPID
  5
3556D
330
BC2A
100
AcDbSymbolTableRecord
100
AcDbRegAppTableRecord
  2
TVE_422101607101624
 70
     0
  0
APPID
  5
3556E
330
BC2A
100
AcDbSymbolTableRecord
100
AcDbRegAppTableRecord
  2
TVE_5A2101607104046
 70
     0
  0
APPID
  5
3556F
330
BC2A
100
AcDbSymbolTableRecord
100
AcDbRegAppTableRecord
  2
TVE_592101607104067
 70
     0
  0
APPID
  5
35570
330
BC2A
100
AcDbSymbolTableRecord
100
AcDbRegAppTableRecord
  2
TVE_582101607104090
 70
     0
  0
APPID
  5
35571
330
BC2A
100
AcDbSymbolTableRecord
100
AcDbRegAppTableRecord
  2
TVE_572101607104123
 70
     0
  0
APPID
  5
35572
330
BC2A
100
AcDbSymbolTableRecord
100
AcDbRegAppTableRecord
  2
TVE_562101607104143
 70
     0
  0
APPID
  5
35573
330
BC2A
100
AcDbSymbolTableRecord
100
AcDbRegAppTableRecord
  2
TVE_552101607104170
 70
     0
  0
APPID
  5
35574
330
BC2A
100
AcDbSymbolTableRecord
100
AcDbRegAppTableRecord
  2
TVE_542101607104190
 70
     0
  0
APPID
  5
35575
330
BC2A
100
AcDbSymbolTableRecord
100
AcDbRegAppTableRecord
  2
TVE_532101607104213
 70
     0
  0
APPID
  5
35576
330
BC2A
100
AcDbSymbolTableRecord
100
AcDbRegAppTableRecord
  2
TVE_522101607104252
 70
     0
  0
APPID
  5
35577
330
BC2A
100
AcDbSymbolTableRecord
100
AcDbRegAppTableRecord
  2
TVE_512101607104280
 70
     0
  0
APPID
  5
35578
330
BC2A
100
AcDbSymbolTableRecord
100
AcDbRegAppTableRecord
  2
TVE_502101607104300
 70
     0
  0
APPID
  5
35579
330
BC2A
100
AcDbSymbolTableRecord
100
AcDbRegAppTableRecord
  2
TVE_4F2101607104319
 70
     0
  0
APPID
  5
3557A
330
BC2A
100
AcDbSymbolTableRecord
100
AcDbRegAppTableRecord
  2
TVE_5F2101607110211
 70
     0
  0
APPID
  5
3557B
330
BC2A
100
AcDbSymbolTableRecord
100
AcDbRegAppTableRecord
  2
TVE_5E2101607110233
 70
     0
  0
APPID
  5
3557C
330
BC2A
100
AcDbSymbolTableRecord
100
AcDbRegAppTableRecord
  2
TVE_302101607111686
 70
     0
  0
APPID
  5
3557D
330
BC2A
100
AcDbSymbolTableRecord
100
AcDbRegAppTableRecord
  2
TVE_2F2101607111712
 70
     0
  0
APPID
  5
3557E
330
BC2A
100
AcDbSymbolTableRecord
100
AcDbRegAppTableRecord
  2
TVE_2E2101607111732
 70
     0
  0
APPID
  5
3557F
330
BC2A
100
AcDbSymbolTableRecord
100
AcDbRegAppTableRecord
  2
TVE_EB52101607134938
 70
     0
  0
APPID
  5
35580
330
BC2A
100
AcDbSymbolTableRecord
100
AcDbRegAppTableRecord
  2
TVE_942D6101913560253
 70
     0
  0
APPID
  5
35581
330
BC2A
100
AcDbSymbolTableRecord
100
AcDbRegAppTableRecord
  2
TVE_93BE6101913561733
 70
     0
  0
APPID
  5
35582
330
BC2A
100
AcDbSymbolTableRecord
100
AcDbRegAppTableRecord
  2
TVE_93BD6101913561745
 70
     0
  0
APPID
  5
35583
330
BC2A
100
AcDbSymbolTableRecord
100
AcDbRegAppTableRecord
  2
TVE_93BF6101913561757
 70
     0
  0
APPID
  5
35584
330
BC2A
100
AcDbSymbolTableRecord
100
AcDbRegAppTableRecord
  2
TVE_93C06101913561770
 70
     0
  0
APPID
  5
35585
330
BC2A
100
AcDbSymbolTableRecord
100
AcDbRegAppTableRecord
  2
TVE_93C16101913561785
 70
     0
  0
APPID
  5
35586
330
BC2A
100
AcDbSymbolTableRecord
100
AcDbRegAppTableRecord
  2
TVE_93C26101913561798
 70
     0
  0
APPID
  5
35587
330
BC2A
100
AcDbSymbolTableRecord
100
AcDbRegAppTableRecord
  2
TVE_93C36101913563170
 70
     0
  0
APPID
  5
35588
330
BC2A
100
AcDbSymbolTableRecord
100
AcDbRegAppTableRecord
  2
TVE_93C86101913564253
 70
     0
  0
APPID
  5
35589
330
BC2A
100
AcDbSymbolTableRecord
100
AcDbRegAppTableRecord
  2
TVE_95686101913571054
 70
     0
  0
APPID
  5
3558A
330
BC2A
100
AcDbSymbolTableRecord
100
AcDbRegAppTableRecord
  2
TVE_93BA6101913572869
 70
     0
  0
APPID
  5
3558B
330
BC2A
100
AcDbSymbolTableRecord
100
AcDbRegAppTableRecord
  2
TVE_93BC6101913572884
 70
     0
  0
APPID
  5
3558C
330
BC2A
100
AcDbSymbolTableRecord
100
AcDbRegAppTableRecord
  2
TVE_93BB6101913572897
 70
     0
  0
APPID
  5
3558D
330
BC2A
100
AcDbSymbolTableRecord
100
AcDbRegAppTableRecord
  2
TVE_93C66101913572909
 70
     0
  0
APPID
  5
3558E
330
BC2A
100
AcDbSymbolTableRecord
100
AcDbRegAppTableRecord
  2
TVE_93C76101913572922
 70
     0
  0
APPID
  5
3558F
330
BC2A
100
AcDbSymbolTableRecord
100
AcDbRegAppTableRecord
  2
TVE_3ADB6061207535683
 70
     0
  0
APPID
  5
35590
330
BC2A
100
AcDbSymbolTableRecord
100
AcDbRegAppTableRecord
  2
TVE_3A646061207541248
 70
     0
  0
APPID
  5
35591
330
BC2A
100
AcDbSymbolTableRecord
100
AcDbRegAppTableRecord
  2
TVE_3A636061207541252
 70
     0
  0
APPID
  5
35592
330
BC2A
100
AcDbSymbolTableRecord
100
AcDbRegAppTableRecord
  2
TVE_3A656061207541258
 70
     0
  0
APPID
  5
35593
330
BC2A
100
AcDbSymbolTableRecord
100
AcDbRegAppTableRecord
  2
TVE_3A666061207541262
 70
     0
  0
APPID
  5
35594
330
BC2A
100
AcDbSymbolTableRecord
100
AcDbRegAppTableRecord
  2
TVE_3A616061207542515
 70
     0
  0
APPID
  5
35595
330
BC2A
100
AcDbSymbolTableRecord
100
AcDbRegAppTableRecord
  2
TVE_3A5F6061207543961
 70
     0
  0
APPID
  5
35596
330
BC2A
100
AcDbSymbolTableRecord
100
AcDbRegAppTableRecord
  2
TVE_3ADA6061207544976
 70
     0
  0
APPID
  5
35597
330
BC2A
100
AcDbSymbolTableRecord
100
AcDbRegAppTableRecord
  2
TVE_3A686061207551044
 70
     0
  0
APPID
  5
35598
330
BC2A
100
AcDbSymbolTableRecord
100
AcDbRegAppTableRecord
  2
TVE_3A696061207551048
 70
     0
  0
APPID
  5
35599
330
BC2A
100
AcDbSymbolTableRecord
100
AcDbRegAppTableRecord
  2
TVE_3A6C6061207551056
 70
     0
  0
APPID
  5
3559A
330
BC2A
100
AcDbSymbolTableRecord
100
AcDbRegAppTableRecord
  2
TVE_3A6A6061207551061
 70
     0
  0
APPID
  5
3559B
330
BC2A
100
AcDbSymbolTableRecord
100
AcDbRegAppTableRecord
  2
TVE_3A6B6061207551065
 70
     0
  0
APPID
  5
3559C
330
BC2A
100
AcDbSymbolTableRecord
100
AcDbRegAppTableRecord
  2
TVE_3A6E6061207551073
 70
     0
  0
APPID
  5
3559D
330
BC2A
100
AcDbSymbolTableRecord
100
AcDbRegAppTableRecord
  2
TVE_3A6F6061207551078
 70
     0
  0
APPID
  5
3559E
330
BC2A
100
AcDbSymbolTableRecord
100
AcDbRegAppTableRecord
  2
TVE_3A6D6061207551081
 70
     0
  0
APPID
  5
3559F
330
BC2A
100
AcDbSymbolTableRecord
100
AcDbRegAppTableRecord
  2
TVE_3A706061207552053
 70
     0
  0
APPID
  5
355A0
330
BC2A
100
AcDbSymbolTableRecord
100
AcDbRegAppTableRecord
  2
TVE_44396062813462686
 70
     0
  0
APPID
  5
355A1
330
BC2A
100
AcDbSymbolTableRecord
100
AcDbRegAppTableRecord
  2
TVE_43E76062813471634
 70
     0
  0
APPID
  5
355A2
330
BC2A
100
AcDbSymbolTableRecord
100
AcDbRegAppTableRecord
  2
TVE_97076101916540296
 70
     0
  0
APPID
  5
355A3
330
BC2A
100
AcDbSymbolTableRecord
100
AcDbRegAppTableRecord
  2
TVE_96FE6101916543192
 70
     0
  0
APPID
  5
355A4
330
BC2A
100
AcDbSymbolTableRecord
100
AcDbRegAppTableRecord
  2
TVE_96E36101916543201
 70
     0
  0
APPID
  5
355A5
330
BC2A
100
AcDbSymbolTableRecord
100
AcDbRegAppTableRecord
  2
TVE_96F56101916543211
 70
     0
  0
APPID
  5
355A6
330
BC2A
100
AcDbSymbolTableRecord
100
AcDbRegAppTableRecord
  2
TVE_96EC6101916543220
 70
     0
  0
APPID
  5
355A7
330
BC2A
100
AcDbSymbolTableRecord
100
AcDbRegAppTableRecord
  2
TVE_98646101920353328
 70
     0
  0
APPID
  5
355A8
330
BC2A
100
AcDbSymbolTableRecord
100
AcDbRegAppTableRecord
  2
TVE_985C6101920382406
 70
     0
  0
APPID
  5
355A9
330
BC2A
100
AcDbSymbolTableRecord
100
AcDbRegAppTableRecord
  2
TVE_985D6101920382415
 70
     0
  0
APPID
  5
355AA
330
BC2A
100
AcDbSymbolTableRecord
100
AcDbRegAppTableRecord
  2
TVE_985F6101920382425
 70
     0
  0
APPID
  5
355AB
330
BC2A
100
AcDbSymbolTableRecord
100
AcDbRegAppTableRecord
  2
TVE_98626101920382433
 70
     0
  0
APPID
  5
355AC
330
BC2A
100
AcDbSymbolTableRecord
100
AcDbRegAppTableRecord
  2
TVE_98216101920382442
 70
     0
  0
APPID
  5
355AD
330
BC2A
100
AcDbSymbolTableRecord
100
AcDbRegAppTableRecord
  2
TVE_985A6101920382451
 70
     0
  0
APPID
  5
355AE
330
BC2A
100
AcDbSymbolTableRecord
100
AcDbRegAppTableRecord
  2
TVE_98186101920382459
 70
     0
  0
APPID
  5
355AF
330
BC2A
100
AcDbSymbolTableRecord
100
AcDbRegAppTableRecord
  2
TVE_980F6101920382469
 70
     0
  0
APPID
  5
355B0
330
BC2A
100
AcDbSymbolTableRecord
100
AcDbRegAppTableRecord
  2
TVE_98616101920384507
 70
     0
  0
APPID
  5
355B1
330
BC2A
100
AcDbSymbolTableRecord
100
AcDbRegAppTableRecord
  2
TVE_98606101920384517
 70
     0
  0
APPID
  5
355B2
330
BC2A
100
AcDbSymbolTableRecord
100
AcDbRegAppTableRecord
  2
TVE_98576101920384526
 70
     0
  0
APPID
  5
355B3
330
BC2A
100
AcDbSymbolTableRecord
100
AcDbRegAppTableRecord
  2
TVE_98586101920384534
 70
     0
  0
APPID
  5
355B4
330
BC2A
100
AcDbSymbolTableRecord
100
AcDbRegAppTableRecord
  2
TVE_98596101920384543
 70
     0
  0
APPID
  5
355B5
330
BC2A
100
AcDbSymbolTableRecord
100
AcDbRegAppTableRecord
  2
TVE_98066101920391747
 70
     0
  0
APPID
  5
355B6
330
BC2A
100
AcDbSymbolTableRecord
100
AcDbRegAppTableRecord
  2
TVE_97FD6101920393451
 70
     0
  0
APPID
  5
355B7
330
BC2A
100
AcDbSymbolTableRecord
100
AcDbRegAppTableRecord
  2
TVE_22D7072223102109
 70
     0
  0
APPID
  5
355B8
330
BC2A
100
AcDbSymbolTableRecord
100
AcDbRegAppTableRecord
  2
TVE_1BC7072223104422
 70
     0
  0
APPID
  5
355B9
330
BC2A
100
AcDbSymbolTableRecord
100
AcDbRegAppTableRecord
  2
TVE_1BE7072223104431
 70
     0
  0
APPID
  5
355BA
330
BC2A
100
AcDbSymbolTableRecord
100
AcDbRegAppTableRecord
  2
TVE_1BD7072223104440
 70
     0
  0
APPID
  5
355BB
330
BC2A
100
AcDbSymbolTableRecord
100
AcDbRegAppTableRecord
  2
TVE_1BF7072223104448
 70
     0
  0
APPID
  5
355BC
330
BC2A
100
AcDbSymbolTableRecord
100
AcDbRegAppTableRecord
  2
TVE_1C07072223104459
 70
     0
  0
APPID
  5
355BD
330
BC2A
100
AcDbSymbolTableRecord
100
AcDbRegAppTableRecord
  2
TVE_1C37072223104467
 70
     0
  0
APPID
  5
355BE
330
BC2A
100
AcDbSymbolTableRecord
100
AcDbRegAppTableRecord
  2
TVE_1C27072223104477
 70
     0
  0
APPID
  5
355BF
330
BC2A
100
AcDbSymbolTableRecord
100
AcDbRegAppTableRecord
  2
TVE_1C17072223104484
 70
     0
  0
APPID
  5
355C0
330
BC2A
100
AcDbSymbolTableRecord
100
AcDbRegAppTableRecord
  2
TVE_1C87072223110085
 70
     0
  0
APPID
  5
355C1
330
BC2A
100
AcDbSymbolTableRecord
100
AcDbRegAppTableRecord
  2
TVE_1C77072223110095
 70
     0
  0
APPID
  5
355C2
330
BC2A
100
AcDbSymbolTableRecord
100
AcDbRegAppTableRecord
  2
TVE_1C67072223110105
 70
     0
  0
APPID
  5
355C3
330
BC2A
100
AcDbSymbolTableRecord
100
AcDbRegAppTableRecord
  2
TVE_1C57072223110114
 70
     0
  0
APPID
  5
355C4
330
BC2A
100
AcDbSymbolTableRecord
100
AcDbRegAppTableRecord
  2
TVE_1C47072223110122
 70
     0
  0
APPID
  5
355C5
330
BC2A
100
AcDbSymbolTableRecord
100
AcDbRegAppTableRecord
  2
TVE_1C97072223110899
 70
     0
  0
APPID
  5
355C6
330
BC2A
100
AcDbSymbolTableRecord
100
AcDbRegAppTableRecord
  2
TVE_1CA7072223111813
 70
     0
  0
APPID
  5
355C7
330
BC2A
100
AcDbSymbolTableRecord
100
AcDbRegAppTableRecord
  2
TVE_B87102509413296
 70
     0
  0
APPID
  5
355C8
330
BC2A
100
AcDbSymbolTableRecord
100
AcDbRegAppTableRecord
  2
TVE_437102509420608
 70
     0
  0
APPID
  5
355C9
330
BC2A
100
AcDbSymbolTableRecord
100
AcDbRegAppTableRecord
  2
TVE_427102509420616
 70
     0
  0
APPID
  5
355CA
330
BC2A
100
AcDbSymbolTableRecord
100
AcDbRegAppTableRecord
  2
TVE_417102509420628
 70
     0
  0
APPID
  5
355CB
330
BC2A
100
AcDbSymbolTableRecord
100
AcDbRegAppTableRecord
  2
TVE_447102509420637
 70
     0
  0
APPID
  5
355CC
330
BC2A
100
AcDbSymbolTableRecord
100
AcDbRegAppTableRecord
  2
TVE_377102509424850
 70
     0
  0
APPID
  5
355CD
330
BC2A
100
AcDbSymbolTableRecord
100
AcDbRegAppTableRecord
  2
TVE_B97102509431404
 70
     0
  0
APPID
  5
355CE
330
BC2A
100
AcDbSymbolTableRecord
100
AcDbRegAppTableRecord
  2
TVE_3E7102509433779
 70
     0
  0
APPID
  5
355CF
330
BC2A
100
AcDbSymbolTableRecord
100
AcDbRegAppTableRecord
  2
TVE_3A7102509433790
 70
     0
  0
APPID
  5
355D0
330
BC2A
100
AcDbSymbolTableRecord
100
AcDbRegAppTableRecord
  2
TVE_3B7102509433801
 70
     0
  0
APPID
  5
355D1
330
BC2A
100
AcDbSymbolTableRecord
100
AcDbRegAppTableRecord
  2
TVE_407102509433810
 70
     0
  0
APPID
  5
355D2
330
BC2A
100
AcDbSymbolTableRecord
100
AcDbRegAppTableRecord
  2
TVE_3F7102509433822
 70
     0
  0
APPID
  5
355D3
330
BC2A
100
AcDbSymbolTableRecord
100
AcDbRegAppTableRecord
  2
TVE_3C7102509433833
 70
     0
  0
APPID
  5
355D4
330
BC2A
100
AcDbSymbolTableRecord
100
AcDbRegAppTableRecord
  2
TVE_3D7102509433843
 70
     0
  0
APPID
  5
355D5
330
BC2A
100
AcDbSymbolTableRecord
100
AcDbRegAppTableRecord
  2
TVE_MAIN_TABLE
 70
     0
  0
APPID
  5
355D6
330
BC2A
100
AcDbSymbolTableRecord
100
AcDbRegAppTableRecord
  2
TVE_13D37102509463357
 70
     0
  0
APPID
  5
355D7
330
BC2A
100
AcDbSymbolTableRecord
100
AcDbRegAppTableRecord
  2
TVE_13D27102509463368
 70
     0
  0
APPID
  5
355D8
330
BC2A
100
AcDbSymbolTableRecord
100
AcDbRegAppTableRecord
  2
TVE_13D17102509463379
 70
     0
  0
APPID
  5
355D9
330
BC2A
100
AcDbSymbolTableRecord
100
AcDbRegAppTableRecord
  2
TVE_13D07102509463388
 70
     0
  0
APPID
  5
355DA
330
BC2A
100
AcDbSymbolTableRecord
100
AcDbRegAppTableRecord
  2
TVE_13CF7102509463400
 70
     0
  0
APPID
  5
355DB
330
BC2A
100
AcDbSymbolTableRecord
100
AcDbRegAppTableRecord
  2
TVE_13CE7102509463411
 70
     0
  0
APPID
  5
355DC
330
BC2A
100
AcDbSymbolTableRecord
100
AcDbRegAppTableRecord
  2
TVE_13CD7102509463421
 70
     0
  0
APPID
  5
355DD
330
BC2A
100
AcDbSymbolTableRecord
100
AcDbRegAppTableRecord
  2
TVE_987110714200971
 70
     0
  0
APPID
  5
355DE
330
BC2A
100
AcDbSymbolTableRecord
100
AcDbRegAppTableRecord
  2
TVE_E7110714202571
 70
     0
  0
APPID
  5
355DF
330
BC2A
100
AcDbSymbolTableRecord
100
AcDbRegAppTableRecord
  2
TVE_117110714202584
 70
     0
  0
APPID
  5
355E0
330
BC2A
100
AcDbSymbolTableRecord
100
AcDbRegAppTableRecord
  2
TVE_107110714202596
 70
     0
  0
APPID
  5
355E1
330
BC2A
100
AcDbSymbolTableRecord
100
AcDbRegAppTableRecord
  2
TVE_127110714204990
 70
     0
  0
APPID
  5
355E2
330
BC2A
100
AcDbSymbolTableRecord
100
AcDbRegAppTableRecord
  2
TVE_147110714205003
 70
     0
  0
APPID
  5
355E3
330
BC2A
100
AcDbSymbolTableRecord
100
AcDbRegAppTableRecord
  2
TVE_BA8022721041125
 70
     0
  0
APPID
  5
355E4
330
BC2A
100
AcDbSymbolTableRecord
100
AcDbRegAppTableRecord
  2
TVE_468022721042578
 70
     0
  0
APPID
  5
355E5
330
BC2A
100
AcDbSymbolTableRecord
100
AcDbRegAppTableRecord
  2
TVE_478022721042587
 70
     0
  0
APPID
  5
355E6
330
BC2A
100
AcDbSymbolTableRecord
100
AcDbRegAppTableRecord
  2
TVE_488022721042597
 70
     0
  0
APPID
  5
355E7
330
BC2A
100
AcDbSymbolTableRecord
100
AcDbRegAppTableRecord
  2
TVE_4C8022721043717
 70
     0
  0
APPID
  5
355E8
330
BC2A
100
AcDbSymbolTableRecord
100
AcDbRegAppTableRecord
  2
TVE_4B8022721043726
 70
     0
  0
APPID
  5
355E9
330
BC2A
100
AcDbSymbolTableRecord
100
AcDbRegAppTableRecord
  2
TVE_4A8022721043735
 70
     0
  0
APPID
  5
355EA
330
BC2A
100
AcDbSymbolTableRecord
100
AcDbRegAppTableRecord
  2
TVE_4E8022721044553
 70
     0
  0
APPID
  5
48D24
330
BC2A
100
AcDbSymbolTableRecord
100
AcDbRegAppTableRecord
  2
TVE_9A9081819044809
 70
     0
  0
APPID
  5
48D25
330
BC2A
100
AcDbSymbolTableRecord
100
AcDbRegAppTableRecord
  2
TVE_299081819050265
 70
     0
  0
APPID
  5
48D26
330
BC2A
100
AcDbSymbolTableRecord
100
AcDbRegAppTableRecord
  2
TVE_289081819050272
 70
     0
  0
APPID
  5
48D27
330
BC2A
100
AcDbSymbolTableRecord
100
AcDbRegAppTableRecord
  2
TVE_2A9081819050281
 70
     0
  0
APPID
  5
48D28
330
BC2A
100
AcDbSymbolTableRecord
100
AcDbRegAppTableRecord
  2
TVE_2C9081819050964
 70
     0
  0
APPID
  5
48D29
330
BC2A
100
AcDbSymbolTableRecord
100
AcDbRegAppTableRecord
  2
TVE_2B9081819050972
 70
     0
  0
APPID
  5
48D2A
330
BC2A
100
AcDbSymbolTableRecord
100
AcDbRegAppTableRecord
  2
TVE_2D9081819052358
 70
     0
  0
APPID
  5
48D2B
330
BC2A
100
AcDbSymbolTableRecord
100
AcDbRegAppTableRecord
  2
TVE_319081907585794
 70
     0
  0
APPID
  5
48D2C
330
BC2A
100
AcDbSymbolTableRecord
100
AcDbRegAppTableRecord
  2
TVE_1E79081907590207
 70
     0
  0
APPID
  5
48D2D
330
BC2A
100
AcDbSymbolTableRecord
100
AcDbRegAppTableRecord
  2
TVE_A70022110544887
 70
     0
  0
APPID
  5
48D2E
330
BC2A
100
AcDbSymbolTableRecord
100
AcDbRegAppTableRecord
  2
TVE_3D0022110550351
 70
     0
  0
APPID
  5
48D2F
330
BC2A
100
AcDbSymbolTableRecord
100
AcDbRegAppTableRecord
  2
TVE_3E0022110550370
 70
     0
  0
APPID
  5
48D30
330
BC2A
100
AcDbSymbolTableRecord
100
AcDbRegAppTableRecord
  2
TVE_390022110553865
 70
     0
  0
APPID
  5
48D31
330
BC2A
100
AcDbSymbolTableRecord
100
AcDbRegAppTableRecord
  2
TVE_370022110554328
 70
     0
  0
APPID
  5
48D32
330
BC2A
100
AcDbSymbolTableRecord
100
AcDbRegAppTableRecord
  2
TVE_3C0022110554348
 70
     0
  0
APPID
  5
48D33
330
BC2A
100
AcDbSymbolTableRecord
100
AcDbRegAppTableRecord
  2
TVE_3B0022110554367
 70
     0
  0
APPID
  5
48D34
330
BC2A
100
AcDbSymbolTableRecord
100
AcDbRegAppTableRecord
  2
TVE_350022110554648
 70
     0
  0
APPID
  5
49626
330
BC2A
100
AcDbSymbolTableRecord
100
AcDbRegAppTableRecord
  2
AcadAnnoPO
 70
     0
  0
APPID
  5
49627
330
BC2A
100
AcDbSymbolTableRecord
100
AcDbRegAppTableRecord
  2
AcadAnnotative
 70
     0
  0
APPID
  5
49628
330
BC2A
100
AcDbSymbolTableRecord
100
AcDbRegAppTableRecord
  2
ACAD_DSTYLE_DIMJAG
 70
     0
  0
APPID
  5
49629
330
BC2A
100
AcDbSymbolTableRecord
100
AcDbRegAppTableRecord
  2
ACAD_DSTYLE_DIMTALN
 70
     0
  0
APPID
  5
4962A
330
BC2A
100
AcDbSymbolTableRecord
100
AcDbRegAppTableRecord
  2
ACAD_MLEADERVER
 70
     0
  0
APPID
  5
4CBE0
330
BC2A
100
AcDbSymbolTableRecord
100
AcDbRegAppTableRecord
  2
PIT_PNT
 70
     0
  0
ENDTAB
  0
TABLE
  2
DIMSTYLE
  5
BC2B
330
0
100
AcDbSymbolTable
 70
     3
100
AcDbDimStyleTable
 71
     2
340
5C59E
340
5D465
  0
DIMSTYLE
105
5C59E
102
{ACAD_REACTORS
330
67992
330
67905
330
67906
330
67907
330
67908
330
67919
330
67923
330
67AC5
102
}
330
BC2B
100
AcDbSymbolTableRecord
100
AcDbDimStyleTableRecord
  2
DIM10A
 70
     0
 40
0.1
 41
2.0
 42
20.0
 43
0.0
 44
0.0
 46
11.0
 73
     0
 74
     0
 77
     1
 78
     1
140
20.0
141
1.0
147
5.0
176
   256
177
    30
178
     4
271
     0
272
     0
279
     2
284
     1
285
     1
286
     1
340
22
341
2ED
342
2ED
  0
DIMSTYLE
105
5D465
330
BC2B
100
AcDbSymbolTableRecord
100
AcDbDimStyleTableRecord
  2
LEADER-10
 70
     0
 41
2.0
 42
0.0
 43
0.0
 44
0.0
 46
1.25
 73
     0
 74
     0
 75
     1
 76
     1
 77
     1
140
15.0
141
0.0
143
0.039
145
0.15
147
5.0
178
     4
271
     0
272
     0
279
     2
340
22
  0
DIMSTYLE
105
64D35
330
BC2B
100
AcDbSymbolTableRecord
100
AcDbDimStyleTableRecord
  2
ILAN
 70
     0
 40
50.0
 41
0.05
 42
0.1
 43
0.0
 44
0.15
 47
0.05
 48
0.05
 73
     0
 74
     0
 77
     1
140
0.2
142
1.0
174
     1
178
     2
271
     0
272
     0
279
     2
340
64D31
  0
ENDTAB
  0
TABLE
  2
BLOCK_RECORD
  5
1
330
0
100
AcDbSymbolTable
 70
    22
  0
BLOCK_RECORD
  5
2
102
{ACAD_XDICTIONARY
360
148D
102
}
330
1
100
AcDbSymbolTableRecord
100
AcDbBlockTableRecord
  2
*Model_Space
340
1491
  0
BLOCK_RECORD
  5
1493
330
1
100
AcDbSymbolTableRecord
100
AcDbBlockTableRecord
  2
*Paper_Space
340
24B5
  0
BLOCK_RECORD
  5
2ED
330
1
100
AcDbSymbolTableRecord
100
AcDbBlockTableRecord
  2
TIC
340
0
102
{BLKREFS
331
67CEC
331
67CED
331
67CF3
331
67CF4
331
67CFD
331
67CFE
331
67D05
331
67D06
331
67D0E
331
67D0F
331
67D17
331
67D18
331
67D20
331
67D21
331
67D29
331
67D2A
331
67D69
331
67D6A
331
67D72
331
67D73
331
67D7A
331
67D7B
102
}
  0
BLOCK_RECORD
  5
9
330
1
100
AcDbSymbolTableRecord
100
AcDbBlockTableRecord
  2
AVE_RENDER
340
0
102
{BLKREFS
331
3
331
E
331
F
331
10
331
11
331
12
331
13
331
14
102
}
  0
BLOCK_RECORD
  5
16
330
1
100
AcDbSymbolTableRecord
100
AcDbBlockTableRecord
  2
AVE_GLOBAL
340
0
102
{BLKREFS
331
15
102
}
  0
BLOCK_RECORD
  5
13CD7
330
1
100
AcDbSymbolTableRecord
100
AcDbBlockTableRecord
  2
PROJ_NAM
340
0
102
{BLKREFS
331
1439D
331
1454E
331
1457B
331
1457E
331
14581
331
14584
331
14587
331
1458A
331
1458D
331
14590
331
14593
331
14596
331
1459B
331
1459E
331
145A2
331
145A5
331
145A8
331
145AB
331
145AE
331
145B1
331
145B4
331
145B7
331
145BA
331
145BD
331
14EBB
331
1506C
331
15099
331
1509C
331
1509F
331
150A2
331
150A5
331
150A8
331
150AB
331
150AE
331
150B1
331
150B4
331
150B9
331
150BC
331
150C0
331
150C3
331
150C6
331
150C9
331
150CC
331
150CF
331
150D2
331
150D5
331
150D8
331
150DB
102
}
  0
BLOCK_RECORD
  5
13CE3
330
1
100
AcDbSymbolTableRecord
100
AcDbBlockTableRecord
  2
TR_CONF
340
0
102
{BLKREFS
331
14599
331
150B7
102
}
  0
BLOCK_RECORD
  5
56983
330
1
100
AcDbSymbolTableRecord
100
AcDbBlockTableRecord
  2
arbilitaba1
340
0
102
{BLKREFS
331
57071
102
}
  0
BLOCK_RECORD
  5
5D560
330
1
100
AcDbSymbolTableRecord
100
AcDbBlockTableRecord
  2
PREM8
340
0
  0
BLOCK_RECORD
  5
6400D
330
1
100
AcDbSymbolTableRecord
100
AcDbBlockTableRecord
  2
status
340
0
102
{BLKREFS
331
64014
102
}
  0
BLOCK_RECORD
  5
64098
330
1
100
AcDbSymbolTableRecord
100
AcDbBlockTableRecord
  2
ARM
340
0
  0
BLOCK_RECORD
  5
67596
330
1
100
AcDbSymbolTableRecord
100
AcDbBlockTableRecord
  2
HAZ100
340
0
102
{BLKREFS
331
67911
102
}
  0
BLOCK_RECORD
  5
676AA
330
1
100
AcDbSymbolTableRecord
100
AcDbBlockTableRecord
  2
SEC100
340
0
102
{BLKREFS
331
6791D
331
67920
102
}
  0
BLOCK_RECORD
  5
67996
330
1
100
AcDbSymbolTableRecord
100
AcDbBlockTableRecord
  2
*D11
340
0
  0
BLOCK_RECORD
  5
679A2
330
1
100
AcDbSymbolTableRecord
100
AcDbBlockTableRecord
  2
*D12
340
0
  0
BLOCK_RECORD
  5
679AE
330
1
100
AcDbSymbolTableRecord
100
AcDbBlockTableRecord
  2
*D13
340
0
  0
BLOCK_RECORD
  5
679BA
330
1
100
AcDbSymbolTableRecord
100
AcDbBlockTableRecord
  2
*D14
340
0
  0
BLOCK_RECORD
  5
679C6
330
1
100
AcDbSymbolTableRecord
100
AcDbBlockTableRecord
  2
*D15
340
0
  0
BLOCK_RECORD
  5
679DB
330
1
100
AcDbSymbolTableRecord
100
AcDbBlockTableRecord
  2
*D16
340
0
  0
BLOCK_RECORD
  5
679E7
330
1
100
AcDbSymbolTableRecord
100
AcDbBlockTableRecord
  2
*D17
340
0
  0
BLOCK_RECORD
  5
67AC6
330
1
100
AcDbSymbolTableRecord
100
AcDbBlockTableRecord
  2
*D18
340
0
  0
BLOCK_RECORD
  5
67CA8
330
1
100
AcDbSymbolTableRecord
100
AcDbBlockTableRecord
  2
ELEC
340
0
310
2800000020000000200000000100080000000000000400000000000000000000000000000000000000000000000080000080000000808000800000008000800080800000C0C0C000C0DCC000F0CAA6000020400000206000002080000020A0000020C0000020E00000400000004020000040400000406000004080000040A0
310
000040C0000040E00000600000006020000060400000606000006080000060A0000060C0000060E00000800000008020000080400000806000008080000080A0000080C0000080E00000A0000000A0200000A0400000A0600000A0800000A0A00000A0C00000A0E00000C0000000C0200000C0400000C0600000C0800000C0
310
A00000C0C00000C0E00000E0000000E0200000E0400000E0600000E0800000E0A00000E0C00000E0E00040000000400020004000400040006000400080004000A0004000C0004000E00040200000402020004020400040206000402080004020A0004020C0004020E000404000004040200040404000404060004040800040
310
40A0004040C0004040E00040600000406020004060400040606000406080004060A0004060C0004060E00040800000408020004080400040806000408080004080A0004080C0004080E00040A0000040A0200040A0400040A0600040A0800040A0A00040A0C00040A0E00040C0000040C0200040C0400040C0600040C08000
310
40C0A00040C0C00040C0E00040E0000040E0200040E0400040E0600040E0800040E0A00040E0C00040E0E00080000000800020008000400080006000800080008000A0008000C0008000E00080200000802020008020400080206000802080008020A0008020C0008020E00080400000804020008040400080406000804080
310
008040A0008040C0008040E00080600000806020008060400080606000806080008060A0008060C0008060E00080800000808020008080400080806000808080008080A0008080C0008080E00080A0000080A0200080A0400080A0600080A0800080A0A00080A0C00080A0E00080C0000080C0200080C0400080C0600080C0
310
800080C0A00080C0C00080C0E00080E0000080E0200080E0400080E0600080E0800080E0A00080E0C00080E0E000C0000000C0002000C0004000C0006000C0008000C000A000C000C000C000E000C0200000C0202000C0204000C0206000C0208000C020A000C020C000C020E000C0400000C0402000C0404000C0406000C0
310
408000C040A000C040C000C040E000C0600000C0602000C0604000C0606000C0608000C060A000C060C000C060E000C0800000C0802000C0804000C0806000C0808000C080A000C080C000C080E000C0A00000C0A02000C0A04000C0A06000C0A08000C0A0A000C0A0C000C0A0E000C0C00000C0C02000C0C04000C0C06000
310
C0C08000C0C0A000F0FBFF00A4A0A000808080000000FF0000FF000000FFFF00FF000000FF00FF00FFFF0000FFFFFF00000000000000000000000000000000000000000000000000000000000000000000FFFFFFFFFFFFFFFFFFFFFFFFFFFFFFFFFFFFFFFFFFFFFFFFFFFFFFFFFFFF0000FF00000000000000000000000000
310
000000000000000000000000000000FF000000FF0000000000000000000000000000000000000000000000000000FF00000000FF0000000000000000000000000000000000000000000000000000FF00000000FF0000000000000000000000000000000000000000000000000000FF0000000000FF00000000000000000000
310
0000000000000000000000000000FF000000000000FF000000000000000000000000000000000000000000000000FF000000000000FF000000000000000000000000000000000000000000000000FF00000000000000FF00000000000000000000000000000000000000000000FF0000000000000000FF0000000000000000
310
0000000000000000000000000000FF000000000000000000FFFF000000000000000000000000000000000000FFFF000000000000000000000000FF00000000000000000000000000000000FF000000000000000000000000000000FF0000000000000000000000000000FF0000000000000000000000000000000000FFFF00
310
000000000000000000FFFF0000000000000000000000000000000000000000FFFFFFFFFFFFFFFFFFFF000000000000000000000000000000FFFFFFFFFFFFFFFFFFFFFFFFFFFFFFFFFFFFFFFFFFFFFFFF0000000000000000000000000000000000000000FF0000000000000000000000000000000000000000000000000000
310
0000000000FF00000000000000000000000000000000000000000000000000000000000000FF00000000000000000000000000000000000000000000000000000000000000FF00000000000000000000000000000000000000000000000000000000000000FF00000000000000000000000000000000000000000000000000
310
000000000000FF00000000000000000000000000000000000000000000000000000000000000FF00000000000000000000000000000000000000000000000000000000000000FF00000000000000000000000000000000000000000000000000000000000000FF000000000000000000000000000000000000000000000000
310
00000000000000FF00000000000000000000000000000000000000000000000000000000000000FF00000000000000000000000000000000000000000000000000000000000000FF00000000000000000000000000000000000000000000000000000000000000FF0000000000000000000000000000000000000000000000
310
0000000000000000FF0000000000000000000000000000000000000000000000000000000000000000000000000000000000000000000000
102
{BLKREFS
331
67CB4
102
}
  0
BLOCK_RECORD
  5
67CB3
330
1
100
AcDbSymbolTableRecord
100
AcDbBlockTableRecord
  2
A$C54C46ADD
340
0
102
{BLKREFS
331
67CBE
102
}
  0
BLOCK_RECORD
  5
67D30
330
1
100
AcDbSymbolTableRecord
100
AcDbBlockTableRecord
  2
LOGO
340
0
102
{BLKREFS
331
67D39
102
}
  0
ENDTAB
  0
ENDSEC
  0
SECTION
  2
BLOCKS
  0
BLOCK
  5
148F
330
2
100
AcDbEntity
  8
0
100
AcDbBlockBegin
  2
*Model_Space
 70
     0
 10
0.0
 20
0.0
 30
0.0
  3
*Model_Space
  1

  0
ENDBLK
  5
1490
330
2
100
AcDbEntity
  8
0
100
AcDbBlockEnd
  0
BLOCK
  5
24B3
330
1493
100
AcDbEntity
 67
     1
  8
0
100
AcDbBlockBegin
  2
*Paper_Space
 70
     0
 10
0.0
 20
0.0
 30
0.0
  3
*Paper_Space
  1

  0
ENDBLK
  5
24B4
330
1493
100
AcDbEntity
 67
     1
  8
0
100
AcDbBlockEnd
  0
BLOCK
  5
2F0
330
2ED
100
AcDbEntity
  8
0
100
AcDbBlockBegin
  2
TIC
 70
     0
 10
0.0
 20
0.0
 30
0.0
  3
TIC
  1

  0
LINE
  5
2EE
330
2ED
100
AcDbEntity
  8
0
100
AcDbLine
 10
0.0
 20
-5.0
 30
0.0
 11
0.0
 21
5.0
 31
0.0
  0
LINE
  5
2EF
330
2ED
100
AcDbEntity
  8
0
100
AcDbLine
 10
3.626046755102493
 20
-4.652917982891722
 30
0.0
 11
-3.626046755102493
 21
4.652917982891722
 31
0.0
  0
ENDBLK
  5
2F1
330
2ED
100
AcDbEntity
  8
0
100
AcDbBlockEnd
  0
BLOCK
  5
A
330
9
100
AcDbEntity
  8
ASHADE
100
AcDbBlockBegin
  2
AVE_RENDER
 70
     0
 10
0.0
 20
0.0
 30
0.0
  3
AVE_RENDER
  1
AVE_RENDER
  0
ENDBLK
  5
B
330
9
100
AcDbEntity
  8
0
100
AcDbBlockEnd
  0
BLOCK
  5
17
330
16
100
AcDbEntity
  8
ASHADE
100
AcDbBlockBegin
  2
AVE_GLOBAL
 70
     0
 10
0.0
 20
0.0
 30
0.0
  3
AVE_GLOBAL
  1
AVE_GLOBAL
  0
ENDBLK
  5
18
330
16
100
AcDbEntity
  8
0
100
AcDbBlockEnd
  0
BLOCK
  5
13CD9
330
13CD7
100
AcDbEntity
  8
0
100
AcDbBlockBegin
  2
PROJ_NAM
 70
     2
 10
0.0
 20
0.0
 30
0.0
  3
PROJ_NAM
  1

  0
ATTDEF
  5
13CD8
330
13CD7
100
AcDbEntity
  8
0
100
AcDbText
 10
-0.6999328437764615
 20
0.0000589388950121
 30
0.0
 40
0.2
  1
PROJECTNAME
 72
     1
 11
0.3667338228902052
 21
0.0000589388950121
 31
0.0
100
AcDbAttributeDefinition
  3
NAME
  2
NAME
 70
     1
  0
ENDBLK
  5
13CDA
330
13CD7
100
AcDbEntity
  8
0
100
AcDbBlockEnd
  0
BLOCK
  5
13CE4
330
13CE3
100
AcDbEntity
  8
0
100
AcDbBlockBegin
  2
TR_CONF
 70
     0
 10
0.0
 20
0.0
 30
0.0
  3
TR_CONF
  1

  0
ENDBLK
  5
13CE5
330
13CE3
100
AcDbEntity
  8
0
100
AcDbBlockEnd
  0
BLOCK
  5
569F1
330
56983
100
AcDbEntity
  8
0
100
AcDbBlockBegin
  2
arbilitaba1
 70
     2
 10
0.0
 20
0.0
 30
0.0
  3
arbilitaba1
  1

  0
LINE
  5
56FFC
330
56983
100
AcDbEntity
  8
F1
100
AcDbLine
 10
-100.0
 20
0.0
 30
0.0
 11
-100.0
 21
590.0
 31
0.0
  0
LINE
  5
56FFD
330
56983
100
AcDbEntity
  8
F1
100
AcDbLine
 10
0.0
 20
590.0
 30
0.0
 11
0.0
 21
0.0
 31
0.0
  0
LINE
  5
56FFE
330
56983
100
AcDbEntity
  8
f2
100
AcDbLine
 10
-98.0
 20
35.0
 30
0.0
 11
-98.0
 21
110.0
 31
0.0
  0
LINE
  5
56FFF
330
56983
100
AcDbEntity
  8
f2
100
AcDbLine
 10
-2.0
 20
110.0
 30
0.0
 11
-2.0
 21
35.0
 31
0.0
  0
LINE
  5
57000
330
56983
100
AcDbEntity
  8
f2
100
AcDbLine
 10
-98.0
 20
35.0
 30
0.0
 11
-2.0
 21
35.0
 31
0.0
  0
LINE
  5
57001
330
56983
100
AcDbEntity
  8
F1
100
AcDbLine
 10
-100.0
 20
33.0
 30
0.0
 11
0.0
 21
33.0
 31
0.0
  0
LINE
  5
57002
330
56983
100
AcDbEntity
  8
F1
100
AcDbLine
 10
-100.0
 20
33.0
 30
0.0
 11
0.0
 21
33.0
 31
0.0
  0
LINE
  5
57003
330
56983
100
AcDbEntity
  8
F1
100
AcDbLine
 10
-100.0
 20
22.0
 30
0.0
 11
0.0
 21
22.0
 31
0.0
  0
TEXT
  5
57004
330
56983
100
AcDbEntity
  8
TEXT03
100
AcDbText
 10
-89.90142857142849
 20
26.0
 30
0.0
 40
3.0
  1

  7
ORON
 72
     1
 11
-83.32999999999993
 21
27.5
 31
0.0
100
AcDbText
 73
     2
  0
TEXT
  5
57005
330
56983
100
AcDbEntity
  8
TEXT03
100
AcDbText
 10
-56.35214285714274
 20
26.0
 30
0.0
 40
3.0
  1

  7
ORON
 72
     1
 11
-49.99499999999989
 21
27.5
 31
0.0
100
AcDbText
 73
     2
  0
TEXT
  5
57006
330
56983
100
AcDbEntity
  8
TEXT03
100
AcDbText
 10
-20.73642857142853
 20
26.0
 30
0.0
 40
3.0
  1

  7
ORON
 72
     1
 11
-16.66499999999996
 21
27.5
 31
0.0
100
AcDbText
 73
     2
  0
LINE
  5
57007
330
56983
100
AcDbEntity
  8
F1
100
AcDbLine
 10
-66.66000000000008
 20
33.0
 30
0.0
 11
-66.66000000000008
 21
22.0
 31
0.0
  0
LINE
  5
57008
330
56983
100
AcDbEntity
  8
F1
100
AcDbLine
 10
-33.32999999999993
 20
33.0
 30
0.0
 11
-33.32999999999993
 21
22.0
 31
0.0
  0
LINE
  5
57009
330
56983
100
AcDbEntity
  8
F1
100
AcDbLine
 10
-38.0
 20
231.5639237800933
 30
0.0
 11
-38.0
 21
200.9999999999999
 31
0.0
  0
TEXT
  5
5700A
330
56983
100
AcDbEntity
  8
TEXT03
100
AcDbText
 10
-22.83333333333332
 20
143.0
 30
0.0
 40
2.5
  1
 
  7
ORON
 72
     2
 11
-2.0
 21
143.0
 31
0.0
100
AcDbText
  0
TEXT
  5
5700B
330
56983
100
AcDbEntity
  8
TEXT03
100
AcDbText
 10
-9.809523809523806
 20
114.0
 30
0.0
 40
2.0
  1

  7
ORON
 72
     2
 11
-2.0
 21
114.0
 31
0.0
100
AcDbText
  0
LINE
  5
5700C
330
56983
100
AcDbEntity
  8
f2
100
AcDbLine
 10
-100.0
 20
210.5639237800933
 30
0.0
 11
0.0
 21
210.5639237800933
 31
0.0
  0
LINE
  5
5700D
330
56983
100
AcDbEntity
  8
F1
100
AcDbLine
 10
-100.0
 20
201.0
 30
0.0
 11
0.0
 21
201.0
 31
0.0
  0
LINE
  5
5700E
330
56983
100
AcDbEntity
  8
F1
100
AcDbLine
 10
-100.0
 20
141.0
 30
0.0
 11
0.0
 21
141.0
 31
0.0
  0
LINE
  5
5700F
330
56983
100
AcDbEntity
  8
F1
100
AcDbLine
 10
-100.0
 20
126.0
 30
0.0
 11
0.0
 21
126.0
 31
0.0
  0
LINE
  5
57010
330
56983
100
AcDbEntity
  8
F1
100
AcDbLine
 10
-100.0
 20
112.0
 30
0.0
 11
0.0
 21
112.0
 31
0.0
  0
LINE
  5
57011
330
56983
100
AcDbEntity
  8
f2
100
AcDbLine
 10
-98.0
 20
110.0
 30
0.0
 11
-2.0
 21
110.0
 31
0.0
  0
TEXT
  5
57012
330
56983
100
AcDbEntity
  8
TEXT03
100
AcDbText
 10
-24.11904761904761
 20
204.7264333852519
 30
0.0
 40
2.5
  1

  7
ORON
 72
     4
 11
-19.0
 21
205.5597667185852
 31
0.0
100
AcDbText
  0
TEXT
  5
57013
330
56983
100
AcDbEntity
  8
TEXT03
100
AcDbText
 10
-76.28571428571428
 20
127.9999999999999
 30
0.0
 40
2.0
  1

  7
ORON
 72
     2
 11
-68.0
 21
127.9999999999999
 31
0.0
100
AcDbText
  0
ATTDEF
  5
57014
330
56983
100
AcDbEntity
  8
TEXT03
100
AcDbText
 10
-108.5074770401801
 20
133.4999999999999
 30
0.0
 40
3.0
  1
------
  7
ROMANS
 72
     2
 11
-86.79319132589444
 21
133.4999999999999
 31
0.0
100
AcDbAttributeDefinition
  3
1DATE
  2
1DATE
 70
     0
  0
ATTDEF
  5
57015
330
56983
100
AcDbEntity
  8
TEXT04
100
AcDbText
 10
-51.39320521739033
 20
133.0484381018468
 30
0.0
 40
4.5
  1
----
  7
ROMANS
 72
     2
 11
-29.9646337888189
 21
133.0484381018468
 31
0.0
100
AcDbAttributeDefinition
  3
SCALE ?
  2
SCALE
 70
     0
  0
TEXT
  5
57016
330
56983
100
AcDbEntity
  8
TEXT03
100
AcDbText
 10
-39.52380952380952
 20
114.0
 30
0.0
 40
2.0
  1

  7
ORON
 72
     2
 11
-34.0
 21
114.0
 31
0.0
100
AcDbText
  0
ATTDEF
  5
57017
330
56983
100
AcDbEntity
  8
TEXT03
100
AcDbText
 10
-75.14285714285714
 20
119.0
 30
0.0
 40
2.0
  1
----
  7
ORON
 72
     2
 11
-66.0
 21
119.0
 31
0.0
100
AcDbAttributeDefinition
  3
approved by ?
  2
NAME
 70
     0
  0
ATTDEF
  5
57018
330
56983
100
AcDbEntity
  8
TEXT03
100
AcDbText
 10
-25.14285714285714
 20
119.0
 30
0.0
 40
2.0
  1
----
  7
ORON
 72
     2
 11
-16.0
 21
119.0
 31
0.0
100
AcDbAttributeDefinition
  3
drawn by ?
  2
NAME
 70
     0
  0
TEXT
  5
57019
330
56983
100
AcDbEntity
  8
TEXT03
100
AcDbText
 10
-79.6547619047619
 20
204.7264333852519
 30
0.0
 40
2.5
  1
 
  7
ORON
 72
     4
 11
-69.0
 21
205.5597667185852
 31
0.0
100
AcDbText
  0
LINE
  5
5701A
330
56983
100
AcDbEntity
  8
F1
100
AcDbLine
 10
-66.0
 20
140.9999999999999
 30
0.0
 11
-66.0
 21
125.9999999999999
 31
0.0
  0
LINE
  5
5701B
330
56983
100
AcDbEntity
  8
F1
100
AcDbLine
 10
-32.0
 20
125.9999999999999
 30
0.0
 11
-32.0
 21
112.0
 31
0.0
  0
TEXT
  5
5701C
330
56983
100
AcDbEntity
  8
TEXT03
100
AcDbText
 10
-7.428571428571428
 20
128.0
 30
0.0
 40
2.0
  1
..
  7
ORON
 72
     2
 11
-2.0
 21
128.0
 31
0.0
100
AcDbText
  0
LINE
  5
5701D
330
56983
100
AcDbEntity
  8
F1
100
AcDbLine
 10
-100.0
 20
231.5639237800933
 30
0.0
 11
0.0
 21
231.5639237800933
 31
0.0
  0
LINE
  5
5701E
330
56983
100
AcDbEntity
  8
f2
100
AcDbLine
 10
-82.0
 20
590.0
 30
0.0
 11
-82.0
 21
352.0
 31
0.0
  0
LINE
  5
5701F
330
56983
100
AcDbEntity
  8
f2
100
AcDbLine
 10
-25.0
 20
590.0
 30
0.0
 11
-25.0
 21
352.0
 31
0.0
  0
LINE
  5
57020
330
56983
100
AcDbEntity
  8
f2
100
AcDbLine
 10
-18.0
 20
590.0
 30
0.0
 11
-18.0
 21
352.0
 31
0.0
  0
LINE
  5
57021
330
56983
100
AcDbEntity
  8
f2
100
AcDbLine
 10
-100.0
 20
420.0
 30
0.0
 11
0.0
 21
420.0
 31
0.0
  0
LINE
  5
57022
330
56983
100
AcDbEntity
  8
f2
100
AcDbLine
 10
-100.0
 20
426.0
 30
0.0
 11
0.0
 21
426.0
 31
0.0
  0
TEXT
  5
57023
330
56983
100
AcDbEntity
  8
TEXT03
100
AcDbText
 10
-14.17857142857142
 20
584.6051795684915
 30
0.0
 40
2.5
  1

  7
ORON
 72
     4
 11
-9.0
 21
585.4385129018249
 31
0.0
100
AcDbText
  0
LINE
  5
57024
330
56983
100
AcDbEntity
  8
F1
100
AcDbLine
 10
-100.0
 20
352.0
 30
0.0
 11
0.0
 21
352.0
 31
0.0
  0
LINE
  5
57025
330
56983
100
AcDbEntity
  8
F1
100
AcDbLine
 10
-100.0
 20
360.0
 30
0.0
 11
0.0
 21
360.0
 31
0.0
  0
LINE
  5
57026
330
56983
100
AcDbEntity
  8
F1
100
AcDbLine
 10
-100.0
 20
360.0
 30
0.0
 11
0.0
 21
360.0
 31
0.0
  0
LINE
  5
57027
330
56983
100
AcDbEntity
  8
f2
100
AcDbLine
 10
-100.0
 20
432.0
 30
0.0
 11
0.0
 21
432.0
 31
0.0
  0
LINE
  5
57028
330
56983
100
AcDbEntity
  8
f2
100
AcDbLine
 10
-100.0
 20
438.0
 30
0.0
 11
0.0
 21
438.0
 31
0.0
  0
LINE
  5
57029
330
56983
100
AcDbEntity
  8
f2
100
AcDbLine
 10
-100.0
 20
444.0
 30
0.0
 11
0.0
 21
444.0
 31
0.0
  0
LINE
  5
5702A
330
56983
100
AcDbEntity
  8
f2
100
AcDbLine
 10
-100.0
 20
450.0
 30
0.0
 11
0.0
 21
450.0
 31
0.0
  0
LINE
  5
5702B
330
56983
100
AcDbEntity
  8
f2
100
AcDbLine
 10
-100.0
 20
456.0
 30
0.0
 11
0.0
 21
456.0
 31
0.0
  0
LINE
  5
5702C
330
56983
100
AcDbEntity
  8
f2
100
AcDbLine
 10
-100.0
 20
462.0
 30
0.0
 11
0.0
 21
462.0
 31
0.0
  0
LINE
  5
5702D
330
56983
100
AcDbEntity
  8
f2
100
AcDbLine
 10
-100.0
 20
468.0
 30
0.0
 11
0.0
 21
468.0
 31
0.0
  0
LINE
  5
5702E
330
56983
100
AcDbEntity
  8
f2
100
AcDbLine
 10
-100.0
 20
474.0
 30
0.0
 11
0.0
 21
474.0
 31
0.0
  0
LINE
  5
5702F
330
56983
100
AcDbEntity
  8
f2
100
AcDbLine
 10
-100.0
 20
480.0
 30
0.0
 11
0.0
 21
480.0
 31
0.0
  0
LINE
  5
57030
330
56983
100
AcDbEntity
  8
f2
100
AcDbLine
 10
-100.0
 20
486.0
 30
0.0
 11
0.0
 21
486.0
 31
0.0
  0
LINE
  5
57031
330
56983
100
AcDbEntity
  8
f2
100
AcDbLine
 10
-100.0
 20
492.0
 30
0.0
 11
0.0
 21
492.0
 31
0.0
  0
LINE
  5
57032
330
56983
100
AcDbEntity
  8
f2
100
AcDbLine
 10
-100.0
 20
498.0
 30
0.0
 11
0.0
 21
498.0
 31
0.0
  0
LINE
  5
57033
330
56983
100
AcDbEntity
  8
f2
100
AcDbLine
 10
-100.0
 20
504.0
 30
0.0
 11
0.0
 21
504.0
 31
0.0
  0
LINE
  5
57034
330
56983
100
AcDbEntity
  8
f2
100
AcDbLine
 10
-100.0
 20
510.0
 30
0.0
 11
0.0
 21
510.0
 31
0.0
  0
TEXT
  5
57035
330
56983
100
AcDbEntity
  8
TEXT03
100
AcDbText
 10
-96.11904761904762
 20
584.1885129018248
 30
0.0
 40
2.5
  1

  7
ORON
 72
     4
 11
-91.0
 21
585.4385129018249
 31
0.0
100
AcDbText
  0
TEXT
  5
57036
330
56983
100
AcDbEntity
  8
TEXT03
100
AcDbText
 10
-58.67857142857142
 20
584.1885129018248
 30
0.0
 40
2.5
  1

  7
ORON
 72
     4
 11
-53.5
 21
585.4385129018249
 31
0.0
100
AcDbText
  0
LINE
  5
57037
330
56983
100
AcDbEntity
  8
F1
100
AcDbLine
 10
-100.0
 20
582.0
 30
0.0
 11
0.0
 21
582.0
 31
0.0
  0
TEXT
  5
57038
330
56983
100
AcDbEntity
  8
TEXT03
100
AcDbText
 10
-11.85714285714285
 20
354.2329590448466
 30
0.0
 40
2.5
  1
'
  7
ORON
 72
     4
 11
-9.0
 21
355.7210542829418
 31
0.0
100
AcDbText
  0
LINE
  5
57039
330
56983
100
AcDbEntity
  8
F1
100
AcDbLine
 10
-100.0
 20
590.0
 30
0.0
 11
0.0
 21
590.0
 31
0.0
  0
LINE
  5
5703A
330
56983
100
AcDbEntity
  8
F1
100
AcDbLine
 10
-100.0
 20
590.0
 30
0.0
 11
0.0
 21
590.0
 31
0.0
  0
LINE
  5
5703B
330
56983
100
AcDbEntity
  8
f2
100
AcDbLine
 10
-100.0
 20
540.0
 30
0.0
 11
0.0
 21
540.0
 31
0.0
  0
LINE
  5
5703C
330
56983
100
AcDbEntity
  8
f2
100
AcDbLine
 10
-100.0
 20
534.0
 30
0.0
 11
0.0
 21
534.0
 31
0.0
  0
LINE
  5
5703D
330
56983
100
AcDbEntity
  8
f2
100
AcDbLine
 10
-100.0
 20
528.0
 30
0.0
 11
0.0
 21
528.0
 31
0.0
  0
LINE
  5
5703E
330
56983
100
AcDbEntity
  8
f2
100
AcDbLine
 10
-100.0
 20
522.0
 30
0.0
 11
0.0
 21
522.0
 31
0.0
  0
LINE
  5
5703F
330
56983
100
AcDbEntity
  8
f2
100
AcDbLine
 10
-100.0
 20
516.0
 30
0.0
 11
0.0
 21
516.0
 31
0.0
  0
TEXT
  5
57040
330
56983
100
AcDbEntity
  8
TEXT03
100
AcDbText
 10
-58.38095238095238
 20
354.4710542829418
 30
0.0
 40
2.5
  1

  7
ORON
 72
     4
 11
-53.5
 21
355.7210542829418
 31
0.0
100
AcDbText
  0
TEXT
  5
57041
330
56983
100
AcDbEntity
  8
TEXT03
100
AcDbText
 10
-96.17857142857143
 20
354.8877209496085
 30
0.0
 40
2.5
  1

  7
ORON
 72
     4
 11
-91.0
 21
355.7210542829418
 31
0.0
100
AcDbText
  0
TEXT
  5
57042
330
56983
100
AcDbEntity
  8
TEXT03
100
AcDbText
 10
-82.60902497526865
 20
330.4559247192816
 30
0.0
 40
2.49999975
  1
  ,       .2
 41
0.85
  7
ORON
100
AcDbText
  0
TEXT
  5
57043
330
56983
100
AcDbEntity
  8
TEXT03
100
AcDbText
 10
-86.39225348002662
 20
326.1092286102132
 30
0.0
 40
2.49999975
  1
.  ,     
 41
0.85
  7
ORON
100
AcDbText
  0
TEXT
  5
57044
330
56983
100
AcDbEntity
  8
TEXT03
100
AcDbText
 10
-62.15307290247892
 20
336.8549246248591
 30
0.0
 40
2.49999975
  1
.      .1
 41
0.85
  7
ORON
100
AcDbText
  0
TEXT
  5
57045
330
56983
100
AcDbEntity
  8
TEXT03
100
AcDbText
 10
-13.53231477067402
 20
343.9537878990782
 30
0.0
 40
2.49999975
  1
%%U:
 41
0.85
  7
ORON
100
AcDbText
  0
TEXT
  5
57046
330
56983
100
AcDbEntity
  8
TEXT03
100
AcDbText
 10
-70.4752675748992
 20
319.7572225507778
 30
0.0
 40
2.50125
  1
        .3
 41
0.85
  7
ORON
 72
     4
 11
-36.40764703918486
 21
320.9482939793492
 31
0.0
100
AcDbText
  0
TEXT
  5
57047
330
56983
100
AcDbEntity
  8
TEXT03
100
AcDbText
 10
-98.112130723079
 20
314.9934673843942
 30
0.0
 40
2.50125
  1
    
 41
0.85
  7
ORON
 72
     4
 11
-73.25744768736467
 21
316.1845388129656
 31
0.0
100
AcDbText
  0
TEXT
  5
57048
330
56983
100
AcDbEntity
  8
TEXT03
100
AcDbText
 10
-45.52714028451688
 20
314.9934673843942
 30
0.0
 40
2.50125
  1
  
 41
0.85
  7
ORON
 72
     4
 11
-26.94940367737402
 21
316.1845388129656
 31
0.0
100
AcDbText
  0
LINE
  5
57049
330
56983
100
AcDbEntity
  8
f2
100
AcDbLine
 10
-100.0
 20
384.0
 30
0.0
 11
0.0
 21
384.0
 31
0.0
  0
LINE
  5
5704A
330
56983
100
AcDbEntity
  8
f2
100
AcDbLine
 10
-100.0
 20
390.0
 30
0.0
 11
0.0
 21
390.0
 31
0.0
  0
LINE
  5
5704B
330
56983
100
AcDbEntity
  8
f2
100
AcDbLine
 10
-100.0
 20
396.0
 30
0.0
 11
0.0
 21
396.0
 31
0.0
  0
LINE
  5
5704C
330
56983
100
AcDbEntity
  8
f2
100
AcDbLine
 10
-100.0
 20
402.0
 30
0.0
 11
0.0
 21
402.0
 31
0.0
  0
LINE
  5
5704D
330
56983
100
AcDbEntity
  8
f2
100
AcDbLine
 10
-100.0
 20
408.0
 30
0.0
 11
0.0
 21
408.0
 31
0.0
  0
LINE
  5
5704E
330
56983
100
AcDbEntity
  8
f2
100
AcDbLine
 10
-100.0
 20
414.0
 30
0.0
 11
0.0
 21
414.0
 31
0.0
  0
LINE
  5
5704F
330
56983
100
AcDbEntity
  8
f2
100
AcDbLine
 10
-100.0
 20
366.0
 30
0.0
 11
0.0
 21
366.0
 31
0.0
  0
LINE
  5
57050
330
56983
100
AcDbEntity
  8
f2
100
AcDbLine
 10
-100.0
 20
372.0
 30
0.0
 11
0.0
 21
372.0
 31
0.0
  0
LINE
  5
57051
330
56983
100
AcDbEntity
  8
f2
100
AcDbLine
 10
-100.0
 20
378.0
 30
0.0
 11
0.0
 21
378.0
 31
0.0
  0
LINE
  5
57052
330
56983
100
AcDbEntity
  8
f2
100
AcDbLine
 10
-100.0
 20
546.0
 30
0.0
 11
0.0
 21
546.0
 31
0.0
  0
LINE
  5
57053
330
56983
100
AcDbEntity
  8
f2
100
AcDbLine
 10
-100.0
 20
576.0
 30
0.0
 11
0.0
 21
576.0
 31
0.0
  0
LINE
  5
57054
330
56983
100
AcDbEntity
  8
f2
100
AcDbLine
 10
-100.0
 20
570.0
 30
0.0
 11
0.0
 21
570.0
 31
0.0
  0
LINE
  5
57055
330
56983
100
AcDbEntity
  8
f2
100
AcDbLine
 10
-100.0
 20
564.0
 30
0.0
 11
0.0
 21
564.0
 31
0.0
  0
LINE
  5
57056
330
56983
100
AcDbEntity
  8
f2
100
AcDbLine
 10
-100.0
 20
558.0
 30
0.0
 11
0.0
 21
558.0
 31
0.0
  0
LINE
  5
57057
330
56983
100
AcDbEntity
  8
f2
100
AcDbLine
 10
-100.0
 20
552.0
 30
0.0
 11
0.0
 21
552.0
 31
0.0
  0
LINE
  5
57058
330
56983
100
AcDbEntity
  8
f2
100
AcDbLine
 10
-50.0
 20
22.0
 30
0.0
 11
-50.0
 21
0.0
 31
0.0
  0
LINE
  5
57059
330
56983
100
AcDbEntity
  8
F1
100
AcDbLine
 10
-100.0
 20
0.0
 30
0.0
 11
0.0
 21
0.0
 31
0.0
  0
TEXT
  5
5705A
330
56983
100
AcDbEntity
  8
T3
100
AcDbText
 10
-37.59577170907523
 20
4.5
 30
0.0
 40
2.5
  1
:  
  7
ORON
 72
     2
 11
-2.833866947170463
 21
4.5
 31
0.0
100
AcDbText
  0
LINE
  5
5705B
330
56983
100
AcDbEntity
  8
f2
100
AcDbLine
 10
-100.0
 20
11.0
 30
0.0
 11
0.0
 21
11.0
 31
0.0
  0
LINE
  5
5705C
330
56983
100
AcDbEntity
  8
F1
100
AcDbLine
 10
-100.0
 20
22.0
 30
0.0
 11
0.0
 21
22.0
 31
0.0
  0
ATTDEF
  5
5705D
330
56983
100
AcDbEntity
  8
T3
100
AcDbText
 10
-98.0
 20
15.0
 30
0.0
 40
3.0
  1
----
  7
ORON
 11
-98.0
 21
16.5
 31
0.0
100
AcDbAttributeDefinition
  3
FILE NAME
  2
FILE
 70
     0
 74
     2
  0
TEXT
  5
5705E
330
56983
100
AcDbEntity
  8
T3
100
AcDbText
 10
-22.47672409002761
 20
15.5
 30
0.0
 40
2.5
  1
: 
  7
ORON
 72
     2
 11
-2.833866947170463
 21
15.5
 31
0.0
100
AcDbText
  0
ATTDEF
  5
5705F
330
56983
100
AcDbEntity
  8
TEXT04
100
AcDbText
 10
-28.14285714285714
 20
219.0639237800933
 30
0.0
 40
4.0
  1
----
  7
ORON
 72
     1
 11
-19.0
 21
221.0639237800933
 31
0.0
100
AcDbAttributeDefinition
  3
LOCATION
  2
LOCATION
 70
     0
 74
     2
  0
ATTDEF
  5
57060
330
56983
100
AcDbEntity
  8
TEXT04
100
AcDbText
 10
-80.61904761904761
 20
219.0639237800933
 30
0.0
 40
4.0
  1
-----
  7
ORON
 72
     1
 11
-69.0
 21
221.0639237800933
 31
0.0
100
AcDbAttributeDefinition
  3
PROJNAME
  2
PROJNAME
 70
     0
 74
     2
  0
ATTDEF
  5
57061
330
56983
100
AcDbEntity
  8
TEXT04
100
AcDbText
 10
-59.14285714285714
 20
177.525157634658
 30
0.0
 40
4.0
  1
----
  7
ORON
 72
     1
 11
-50.0
 21
179.5251576346579
 31
0.0
100
AcDbAttributeDefinition
  3
PLANNAME1
  2
PLANNAME1
 70
     0
 74
     2
  0
ATTDEF
  5
57062
330
56983
100
AcDbEntity
  8
TEXT04
100
AcDbText
 10
-59.14285714285714
 20
166.27194905027
 30
0.0
 40
4.0
  1
----
  7
ORON
 72
     1
 11
-50.0
 21
168.27194905027
 31
0.0
100
AcDbAttributeDefinition
  3
PLANNAME2
  2
PLANNAME2
 70
     0
 74
     2
  0
ATTDEF
  5
57063
330
56983
100
AcDbEntity
  8
T3
100
AcDbText
 10
-98.0
 20
4.0
 30
0.0
 40
3.0
  1
----
  7
ORON
 11
-98.0
 21
5.5
 31
0.0
100
AcDbAttributeDefinition
  3
LASTDATE
  2
LASTDATE
 70
     0
 74
     2
  0
TEXT
  5
57064
330
56983
100
AcDbEntity
  8
TEXT04
100
AcDbText
 10
-95.37423675567238
 20
64.14010771222335
 30
0.0
 40
3.5
  1
050-5253590 
 41
0.85
  7
ORON
 72
     4
 11
-71.64507008900573
 21
66.39010771222335
 31
0.0
100
AcDbText
  0
TEXT
  5
57065
330
56983
100
AcDbEntity
  8
TEXT04
100
AcDbText
 10
-41.47858560677103
 20
63.84884738259891
 30
0.0
 40
3.5
  1
04-6399637 
 41
0.85
  7
ORON
 72
     4
 11
-22.99108560677104
 21
66.0988473825989
 31
0.0
100
AcDbText
  0
TEXT
  5
57066
330
56983
100
AcDbEntity
  8
TEXT04
100
AcDbText
 10
-78.50492337431524
 20
71.48038016550008
 30
0.0
 40
3.5
  1
  32  
 41
0.85
  7
ORON
100
AcDbText
  0
TEXT
  5
57067
330
56983
100
AcDbEntity
  8
T1
100
AcDbText
 10
-94.1366389546305
 20
83.76709009913925
 30
0.0
 40
6.0
  1
  
 41
0.8
  7
TOV
100
AcDbText
  0
TEXT
  5
57068
330
56983
100
AcDbEntity
  8
TEXT03
100
AcDbText
 10
-32.43726169598663
 20
284.2855276445039
 30
0.0
 40
2.5
  1
."  "
 41
0.85
  7
ORON
 72
     2
 11
-8.758690267415204
 21
285.5355276445038
 31
0.0
100
AcDbText
 73
     2
  0
TEXT
  5
57069
330
56983
100
AcDbEntity
  8
TEXT03
100
AcDbText
 10
-32.46699119229969
 20
304.0851216527708
 30
0.0
 40
2.5
  1
.  "
 41
0.85
  7
ORON
 72
     2
 11
-8.687229287537775
 21
305.3351216527707
 31
0.0
100
AcDbText
 73
     2
  0
TEXT
  5
5706A
330
56983
100
AcDbEntity
  8
TEXT03
100
AcDbText
 10
-84.566055197453
 20
288.3494499307894
 30
0.0
 40
2.5
  1
" "      " . 6
 41
0.85
  7
ORON
 72
     2
 11
-1.589864721262529
 21
289.5994499307894
 31
0.0
100
AcDbText
 73
     2
  0
TEXT
  5
5706B
330
56983
100
AcDbEntity
  8
TEXT03
100
AcDbText
 10
-40.00093905879386
 20
294.0355276444984
 30
0.0
 40
2.5
  1
.  
 41
0.85
  7
ORON
 72
     2
 11
-8.530700963555773
 21
295.2855276444984
 31
0.0
100
AcDbText
 73
     2
  0
TEXT
  5
5706C
330
56983
100
AcDbEntity
  8
TEXT03
100
AcDbText
 10
-73.33391234031006
 20
298.0994499307805
 30
0.0
 40
2.5
  1
       . 5
 41
0.85
  7
ORON
 72
     2
 11
-1.589864721262529
 21
299.3494499307805
 31
0.0
100
AcDbText
 73
     2
  0
TEXT
  5
5706D
330
56983
100
AcDbEntity
  8
TEXT03
100
AcDbText
 10
-78.4401784703625
 20
308.1490439390563
 30
0.0
 40
2.5
  1
  "       .4
 41
0.85
  7
ORON
 72
     2
 11
-1.737797517981562
 21
309.3990439390563
 31
0.0
100
AcDbText
 73
     2
  0
LINE
  5
5706E
330
56983
100
AcDbEntity
  8
F1
100
AcDbLine
 10
-100.0
 20
188.3392821060439
 30
0.0
 11
0.0
 21
188.3392821060439
 31
0.0
  0
TEXT
  5
5706F
330
56983
100
AcDbEntity
  8
TEXT03
100
AcDbText
 10
-26.38095238095238
 20
194.8053667480157
 30
0.0
 40
2.5
  1
 '
  7
ORON
 72
     4
 11
-19.0
 21
195.9958429384919
 31
0.0
100
AcDbText
  0
ATTDEF
  5
57070
330
56983
100
AcDbEntity
  8
TEXT04
100
AcDbText
 10
-84.53749999999999
 20
191.9656424741358
 30
0.0
 40
5.5
  1
-----
  7
TOV
 72
     1
 11
-69.0
 21
194.7156424741358
 31
0.0
100
AcDbAttributeDefinition
  3
SHEETNO
  2
SHEETNO
 70
     0
 74
     2
  0
ENDBLK
  5
569F2
330
56983
100
AcDbEntity
  8
0
100
AcDbBlockEnd
  0
BLOCK
  5
5D565
330
5D560
100
AcDbEntity
  8
0
100
AcDbBlockBegin
  2
PREM8
 70
     0
 10
0.0
 20
0.0
 30
0.0
  3
PREM8
  1

  0
TEXT
  5
5D561
330
5D560
100
AcDbEntity
  8
TEXT03
100
AcDbText
 10
-31.80952380952381
 20
-5.92591810773797
 30
0.0
 40
2.0
  1
" 3   
  7
ORON
 72
     2
 11
0.0
 21
-4.92591810773797
 31
0.0
100
AcDbText
 73
     2
  0
TEXT
  5
5D562
330
5D560
100
AcDbEntity
  8
TEXT03
100
AcDbText
 10
-38.95238095238095
 20
-8.844980690101237
 30
0.0
 40
2.0
  1
      
  7
ORON
 72
     2
 11
0.0
 21
-7.844980690101237
 31
0.0
100
AcDbText
 73
     2
  0
TEXT
  5
5D563
330
5D560
100
AcDbEntity
  8
TEXT03
100
AcDbText
 10
-13.40714285714285
 20
-1.5
 30
0.0
 40
3.0
  1
%%U:
  7
ORON
 72
     2
 11
0.0
 21
0.0
 31
0.0
100
AcDbText
 73
     2
  0
TEXT
  5
5D564
330
5D560
100
AcDbEntity
  8
TEXT03
100
AcDbText
 10
-10.76190476190475
 20
-12.12892609525988
 30
0.0
 40
2.0
  1
 
  7
ORON
 72
     2
 11
0.0
 21
-11.12892609525988
 31
0.0
100
AcDbText
 73
     2
  0
ENDBLK
  5
5D566
330
5D560
100
AcDbEntity
  8
0
100
AcDbBlockEnd
  0
BLOCK
  5
671AA
330
6400D
100
AcDbEntity
  8
0
100
AcDbBlockBegin
  2
status
 70
     0
 10
0.0
 20
0.0
 30
0.0
  3
status
  1

  0
LWPOLYLINE
  5
671AB
330
6400D
100
AcDbEntity
  8
f2
100
AcDbPolyline
 90
        4
 70
     1
 43
0.0
 10
-0.0000054589836509
 20
-11.0
 10
-0.0000054589836509
 20
0.0
 10
-100.0000054589836
 20
0.0
 10
-100.0000054589836
 20
-11.0
  0
LINE
  5
671AC
330
6400D
100
AcDbEntity
  8
f2
100
AcDbLine
 10
-66.6600054589835
 20
0.0
 30
0.0
 11
-66.6600054589835
 21
-11.0
 31
0.0
  0
LINE
  5
671AD
330
6400D
100
AcDbEntity
  8
f2
100
AcDbLine
 10
-33.33000545898176
 20
0.0
 30
0.0
 11
-33.33000545898176
 21
-11.0
 31
0.0
  0
HATCH
  5
671AE
330
6400D
100
AcDbEntity
  8
f2
100
AcDbHatch
 10
0.0
 20
0.0
 30
0.0
210
0.0
220
0.0
230
1.0
  2
DOTS
 70
     0
 71
     0
 91
        1
 92
        7
 72
     0
 73
     1
 93
        4
 10
-33.32000545898699
 20
0.0000035628975183
 10
-33.32000545898699
 20
-10.99999643710248
 10
0.0099945410147484
 20
-10.99999643710248
 10
0.0099945410147484
 20
0.0000035628975183
 97
        0
 75
     0
 76
     1
 52
0.0
 41
20.0
 77
     1
 78
     1
 53
0.0
 43
-6802.141081457847
 44
-621.6184309221505
 45
0.625
 46
1.25
 79
     2
 49
0.0
 49
-1.25
 47
0.1293070099600591
 98
        1
 10
-13.4780328650886
 20
-2.416983589211213
  0
ENDBLK
  5
671AF
330
6400D
100
AcDbEntity
  8
0
100
AcDbBlockEnd
  0
BLOCK
  5
6409A
330
64098
100
AcDbEntity
  8
0
100
AcDbBlockBegin
  2
ARM
 70
     0
 10
0.0
 20
0.0
 30
0.0
  3
ARM
  1

  0
LWPOLYLINE
  5
64099
330
64098
100
AcDbEntity
  8
A-TXT1
100
AcDbPolyline
 90
        2
 70
     0
 10
0.0
 20
0.0
 40
0.0
 41
10.0
 10
20.0
 20
0.0
 40
10.0
 41
10.0
  0
ENDBLK
  5
6409B
330
64098
100
AcDbEntity
  8
0
100
AcDbBlockEnd
  0
BLOCK
  5
675AE
330
67596
100
AcDbEntity
  8
0
100
AcDbBlockBegin
  2
HAZ100
 70
     2
 10
0.0
 20
0.0
 30
0.0
  3
HAZ100
  1

  0
LWPOLYLINE
  5
675AF
330
67596
100
AcDbEntity
  8
0
  6
Continuous
100
AcDbPolyline
 90
        3
 70
     1
 43
0.0
 10
45.0
 20
0.0
 10
-45.0
 20
0.0
 10
0.0
 20
37.5
  0
LINE
  5
675B0
330
67596
100
AcDbEntity
  8
0
100
AcDbLine
 10
45.0
 20
-15.0
 30
0.0
 11
-45.0
 21
-15.0
 31
0.0
  0
ATTDEF
  5
675B1
330
67596
100
AcDbEntity
  8
0
100
AcDbText
 10
-70.22066839520448
 20
-58.11867878351588
 30
0.0
 40
40.0
  1
XXX
  7
TOV
 72
     4
 11
0.2793316047955159
 21
-38.11867878351586
 31
0.0
100
AcDbAttributeDefinition
  3
ENTER SECTION/DETAIL NUMBER
  2
HAZ
 70
     0
  0
SOLID
  5
675B2
330
67596
100
AcDbEntity
  8
0
100
AcDbTrace
 10
-45.0
 20
0.0
 30
0.0
 11
0.0
 21
37.5
 31
0.0
 12
45.0
 22
0.0
 32
0.0
 13
45.0
 23
0.0
 33
0.0
  0
ENDBLK
  5
675B3
330
67596
100
AcDbEntity
  8
0
100
AcDbBlockEnd
  0
BLOCK
  5
676B0
330
676AA
100
AcDbEntity
  8
0
100
AcDbBlockBegin
  2
SEC100
 70
     2
 10
0.0
 20
0.0
 30
0.0
  3
SEC100
  1

  0
LWPOLYLINE
  5
676AB
330
676AA
100
AcDbEntity
  8
0
  6
Continuous
100
AcDbPolyline
 90
        3
 70
     1
 43
0.0
 10
45.0
 20
0.0
 10
-45.0
 20
0.0
 10
0.0
 20
37.5
  0
LINE
  5
676AC
330
676AA
100
AcDbEntity
  8
0
100
AcDbLine
 10
-150.0
 20
-15.0
 30
0.0
 11
-240.0
 21
-15.0
 31
0.0
  0
LINE
  5
676AD
330
676AA
100
AcDbEntity
  8
0
100
AcDbLine
 10
-120.0
 20
-15.0
 30
0.0
 11
-135.0
 21
-15.0
 31
0.0
  0
LINE
  5
676AE
330
676AA
100
AcDbEntity
  8
0
100
AcDbLine
 10
45.0
 20
-15.0
 30
0.0
 11
-105.0
 21
-15.0
 31
0.0
  0
ATTDEF
  5
676AF
330
676AA
100
AcDbEntity
  8
0
100
AcDbText
 10
-54.95876363329975
 20
-58.11867878351586
 30
0.0
 40
40.0
  1
XXX
  7
COMHEB
 72
     4
 11
0.2793316047955159
 21
-38.11867878351586
 31
0.0
100
AcDbAttributeDefinition
  3
ENTER SECTION/DETAIL NUMBER
  2
SECTION
 70
     0
  0
ENDBLK
  5
676B1
330
676AA
100
AcDbEntity
  8
0
100
AcDbBlockEnd
  0
BLOCK
  5
679A0
330
67996
100
AcDbEntity
  8
0
100
AcDbBlockBegin
  2
*D11
 70
     1
 10
0.0
 20
0.0
 30
0.0
  3
*D11
  1

  0
LINE
  5
67CF0
330
67996
100
AcDbEntity
  8
DIMV
 62
    30
370
    -2
100
AcDbLine
 10
-153.9439237743645
 20
-74.4670684947178
 30
0.0
 11
-167.6316606868809
 21
-74.46706849471779
 31
0.0
  0
LINE
  5
67CF1
330
67996
100
AcDbEntity
  8
DIMV
 62
    30
370
    -2
100
AcDbLine
 10
-153.9439237743645
 20
-54.4670684947178
 30
0.0
 11
-167.6316606868808
 21
-54.4670684947178
 31
0.0
  0
LINE
  5
67CF2
330
67996
100
AcDbEntity
  8
DIMV
370
    -2
100
AcDbLine
 10
-167.6316606868809
 20
-74.26706849471779
 30
0.0
 11
-167.6316606868808
 21
-54.66706849471781
 31
0.0
  0
INSERT
  5
67CF3
330
67996
100
AcDbEntity
  8
DIMV
370
    -2
100
AcDbBlockReference
  2
TIC
 10
-167.6316606868809
 20
-74.46706849471779
 30
0.0
 41
0.2
 42
0.2
 43
0.2
 50
270.0
  0
INSERT
  5
67CF4
330
67996
100
AcDbEntity
  8
DIMV
370
    -2
100
AcDbBlockReference
  2
TIC
 10
-167.6316606868808
 20
-54.4670684947178
 30
0.0
 41
0.2
 42
0.2
 43
0.2
 50
90.0
  0
MTEXT
  5
67CF5
330
67996
100
AcDbEntity
  8
DIMV
 62
     4
100
AcDbMText
 10
-169.1316606868808
 20
-64.46706849471782
 30
0.0
 40
2.0
 41
0.0
 71
     5
 72
     1
  1
\A1;20
  7
MONOSI
 11
0.0000000000000001
 21
1.0
 31
0.0
 73
     1
 44
1.0
  0
POINT
  5
67CF6
330
67996
100
AcDbEntity
  8
DEFPOINTS
 62
     0
100
AcDbPoint
 10
-151.9439237743645
 20
-74.4670684947178
 30
0.0
  0
POINT
  5
67CF7
330
67996
100
AcDbEntity
  8
DEFPOINTS
 62
     0
100
AcDbPoint
 10
-151.9439237743645
 20
-54.4670684947178
 30
0.0
  0
POINT
  5
67CF8
330
67996
100
AcDbEntity
  8
DEFPOINTS
 62
     0
100
AcDbPoint
 10
-167.6316606868808
 20
-54.4670684947178
 30
0.0
  0
ENDBLK
  5
679A1
330
67996
100
AcDbEntity
  8
0
100
AcDbBlockEnd
  0
BLOCK
  5
679AC
330
679A2
100
AcDbEntity
  8
0
100
AcDbBlockBegin
  2
*D12
 70
     1
 10
0.0
 20
0.0
 30
0.0
  3
*D12
  1

  0
LINE
  5
67D26
330
679A2
100
AcDbEntity
  8
DIMH
 62
    30
370
    -2
100
AcDbLine
 10
-81.94392377436452
 20
-52.46706849471781
 30
0.0
 11
-81.94392377436452
 21
-42.7848282420232
 31
0.0
  0
LINE
  5
67D27
330
679A2
100
AcDbEntity
  8
DIMH
 62
    30
370
    -2
100
AcDbLine
 10
-151.9439237743645
 20
-52.46706849471781
 30
0.0
 11
-151.9439237743645
 21
-42.7848282420232
 31
0.0
  0
LINE
  5
67D28
330
679A2
100
AcDbEntity
  8
DIMH
370
    -2
100
AcDbLine
 10
-82.14392377436452
 20
-42.7848282420232
 30
0.0
 11
-151.7439237743645
 21
-42.7848282420232
 31
0.0
  0
INSERT
  5
67D29
330
679A2
100
AcDbEntity
  8
DIMH
370
    -2
100
AcDbBlockReference
  2
TIC
 10
-81.94392377436452
 20
-42.7848282420232
 30
0.0
 41
0.2
 42
0.2
 43
0.2
  0
INSERT
  5
67D2A
330
679A2
100
AcDbEntity
  8
DIMH
370
    -2
100
AcDbBlockReference
  2
TIC
 10
-151.9439237743645
 20
-42.7848282420232
 30
0.0
 41
0.2
 42
0.2
 43
0.2
 50
180.0
  0
MTEXT
  5
67D2B
330
679A2
100
AcDbEntity
  8
DIMH
 62
     4
100
AcDbMText
 10
-116.9439237743645
 20
-41.28482824202319
 30
0.0
 40
2.0
 41
0.0
 71
     5
 72
     1
  1
\A1;70
  7
MONOSI
 73
     1
 44
1.0
  0
POINT
  5
67D2C
330
679A2
100
AcDbEntity
  8
DEFPOINTS
 62
     0
100
AcDbPoint
 10
-81.94392377436452
 20
-54.4670684947178
 30
0.0
  0
POINT
  5
67D2D
330
679A2
100
AcDbEntity
  8
DEFPOINTS
 62
     0
100
AcDbPoint
 10
-151.9439237743645
 20
-54.4670684947178
 30
0.0
  0
POINT
  5
67D2E
330
679A2
100
AcDbEntity
  8
DEFPOINTS
 62
     0
100
AcDbPoint
 10
-151.9439237743645
 20
-42.7848282420232
 30
0.0
  0
ENDBLK
  5
679AD
330
679A2
100
AcDbEntity
  8
0
100
AcDbBlockEnd
  0
BLOCK
  5
679B8
330
679AE
100
AcDbEntity
  8
0
100
AcDbBlockBegin
  2
*D13
 70
     1
 10
0.0
 20
0.0
 30
0.0
  3
*D13
  1

  0
LINE
  5
67D66
330
679AE
100
AcDbEntity
  8
DIMH
 62
    30
370
    -2
100
AcDbLine
 10
-81.94392377436452
 20
-52.46706849471781
 30
0.0
 11
-81.94392377436452
 21
-46.64568988712608
 31
0.0
  0
LINE
  5
67D67
330
679AE
100
AcDbEntity
  8
DIMH
 62
    30
370
    -2
100
AcDbLine
 10
-91.94392377436452
 20
-52.46706849471781
 30
0.0
 11
-91.94392377436452
 21
-46.64568988712608
 31
0.0
  0
LINE
  5
67D68
330
679AE
100
AcDbEntity
  8
DIMH
370
    -2
100
AcDbLine
 10
-82.14392377436452
 20
-46.64568988712608
 30
0.0
 11
-91.74392377436452
 21
-46.64568988712608
 31
0.0
  0
INSERT
  5
67D69
330
679AE
100
AcDbEntity
  8
DIMH
370
    -2
100
AcDbBlockReference
  2
TIC
 10
-81.94392377436452
 20
-46.64568988712608
 30
0.0
 41
0.2
 42
0.2
 43
0.2
  0
INSERT
  5
67D6A
330
679AE
100
AcDbEntity
  8
DIMH
370
    -2
100
AcDbBlockReference
  2
TIC
 10
-91.94392377436452
 20
-46.64568988712608
 30
0.0
 41
0.2
 42
0.2
 43
0.2
 50
180.0
  0
MTEXT
  5
67D6B
330
679AE
100
AcDbEntity
  8
DIMH
 62
     4
100
AcDbMText
 10
-86.94392377436452
 20
-45.14568988712608
 30
0.0
 40
2.0
 41
0.0
 71
     5
 72
     1
  1
\A1;10.0
  7
MONOSI
 73
     1
 44
1.0
  0
POINT
  5
67D6C
330
679AE
100
AcDbEntity
  8
DEFPOINTS
 62
     0
100
AcDbPoint
 10
-81.94392377436452
 20
-54.4670684947178
 30
0.0
  0
POINT
  5
67D6D
330
679AE
100
AcDbEntity
  8
DEFPOINTS
 62
     0
100
AcDbPoint
 10
-91.94392377436452
 20
-54.4670684947178
 30
0.0
  0
POINT
  5
67D6E
330
679AE
100
AcDbEntity
  8
DEFPOINTS
 62
     0
100
AcDbPoint
 10
-91.94392377436452
 20
-46.64568988712608
 30
0.0
  0
ENDBLK
  5
679B9
330
679AE
100
AcDbEntity
  8
0
100
AcDbBlockEnd
  0
BLOCK
  5
679C4
330
679BA
100
AcDbEntity
  8
0
100
AcDbBlockBegin
  2
*D14
 70
     1
 10
0.0
 20
0.0
 30
0.0
  3
*D14
  1

  0
LINE
  5
67D14
330
679BA
100
AcDbEntity
  8
DIMH
 62
    30
370
    -2
100
AcDbLine
 10
-91.94392377436452
 20
-52.46706849471781
 30
0.0
 11
-91.94392377436452
 21
-46.64568988712608
 31
0.0
  0
LINE
  5
67D15
330
679BA
100
AcDbEntity
  8
DIMH
 62
    30
370
    -2
100
AcDbLine
 10
-141.9439237743645
 20
-52.46706849471781
 30
0.0
 11
-141.9439237743645
 21
-46.64568988712608
 31
0.0
  0
LINE
  5
67D16
330
679BA
100
AcDbEntity
  8
DIMH
370
    -2
100
AcDbLine
 10
-92.14392377436452
 20
-46.64568988712608
 30
0.0
 11
-141.7439237743645
 21
-46.64568988712608
 31
0.0
  0
INSERT
  5
67D17
330
679BA
100
AcDbEntity
  8
DIMH
370
    -2
100
AcDbBlockReference
  2
TIC
 10
-91.94392377436452
 20
-46.64568988712608
 30
0.0
 41
0.2
 42
0.2
 43
0.2
  0
INSERT
  5
67D18
330
679BA
100
AcDbEntity
  8
DIMH
370
    -2
100
AcDbBlockReference
  2
TIC
 10
-141.9439237743645
 20
-46.64568988712608
 30
0.0
 41
0.2
 42
0.2
 43
0.2
 50
180.0
  0
MTEXT
  5
67D19
330
679BA
100
AcDbEntity
  8
DIMH
 62
     4
100
AcDbMText
 10
-116.9439237743645
 20
-45.14568988712608
 30
0.0
 40
2.0
 41
0.0
 71
     5
 72
     1
  1
\A1;{\Fmonosi.shx;%%c50}
  7
MONOSI
 73
     1
 44
1.0
  0
POINT
  5
67D1A
330
679BA
100
AcDbEntity
  8
DEFPOINTS
 62
     0
100
AcDbPoint
 10
-91.94392377436452
 20
-54.4670684947178
 30
0.0
  0
POINT
  5
67D1B
330
679BA
100
AcDbEntity
  8
DEFPOINTS
 62
     0
100
AcDbPoint
 10
-141.9439237743645
 20
-54.4670684947178
 30
0.0
  0
POINT
  5
67D1C
330
679BA
100
AcDbEntity
  8
DEFPOINTS
 62
     0
100
AcDbPoint
 10
-141.9439237743645
 20
-46.64568988712608
 30
0.0
  0
ENDBLK
  5
679C5
330
679BA
100
AcDbEntity
  8
0
100
AcDbBlockEnd
  0
BLOCK
  5
679D0
330
679C6
100
AcDbEntity
  8
0
100
AcDbBlockBegin
  2
*D15
 70
     1
 10
0.0
 20
0.0
 30
0.0
  3
*D15
  1

  0
LINE
  5
67D6F
330
679C6
100
AcDbEntity
  8
DIMH
 62
    30
370
    -2
100
AcDbLine
 10
-141.9439237743645
 20
-52.46706849471781
 30
0.0
 11
-141.9439237743645
 21
-46.64568988712608
 31
0.0
  0
LINE
  5
67D70
330
679C6
100
AcDbEntity
  8
DIMH
 62
    30
370
    -2
100
AcDbLine
 10
-151.9439237743645
 20
-52.46706849471781
 30
0.0
 11
-151.9439237743645
 21
-46.64568988712608
 31
0.0
  0
LINE
  5
67D71
330
679C6
100
AcDbEntity
  8
DIMH
370
    -2
100
AcDbLine
 10
-142.1439237743645
 20
-46.64568988712608
 30
0.0
 11
-151.7439237743645
 21
-46.64568988712608
 31
0.0
  0
INSERT
  5
67D72
330
679C6
100
AcDbEntity
  8
DIMH
370
    -2
100
AcDbBlockReference
  2
TIC
 10
-141.9439237743645
 20
-46.64568988712608
 30
0.0
 41
0.2
 42
0.2
 43
0.2
  0
INSERT
  5
67D73
330
679C6
100
AcDbEntity
  8
DIMH
370
    -2
100
AcDbBlockReference
  2
TIC
 10
-151.9439237743645
 20
-46.64568988712608
 30
0.0
 41
0.2
 42
0.2
 43
0.2
 50
180.0
  0
MTEXT
  5
67D74
330
679C6
100
AcDbEntity
  8
DIMH
 62
     4
100
AcDbMText
 10
-146.9439237743645
 20
-45.14568988712608
 30
0.0
 40
2.0
 41
0.0
 71
     5
 72
     1
  1
\A1;10.0
  7
MONOSI
 73
     1
 44
1.0
  0
POINT
  5
67D75
330
679C6
100
AcDbEntity
  8
DEFPOINTS
 62
     0
100
AcDbPoint
 10
-141.9439237743645
 20
-54.4670684947178
 30
0.0
  0
POINT
  5
67D76
330
679C6
100
AcDbEntity
  8
DEFPOINTS
 62
     0
100
AcDbPoint
 10
-151.9439237743645
 20
-54.4670684947178
 30
0.0
  0
POINT
  5
67D77
330
679C6
100
AcDbEntity
  8
DEFPOINTS
 62
     0
100
AcDbPoint
 10
-151.9439237743645
 20
-46.64568988712608
 30
0.0
  0
ENDBLK
  5
679D1
330
679C6
100
AcDbEntity
  8
0
100
AcDbBlockEnd
  0
BLOCK
  5
679E5
330
679DB
100
AcDbEntity
  8
0
100
AcDbBlockBegin
  2
*D16
 70
     1
 10
0.0
 20
0.0
 30
0.0
  3
*D16
  1

  0
LINE
  5
67D02
330
679DB
100
AcDbEntity
  8
DIMV
 62
    30
370
    -2
100
AcDbLine
 10
-81.44392377436451
 20
-137.1724072128768
 30
0.0
 11
-81.44392377436451
 21
-134.8215429594983
 31
0.0
  0
LINE
  5
67D03
330
679DB
100
AcDbEntity
  8
DIMV
 62
    30
370
    -2
100
AcDbLine
 10
-151.4439237743645
 20
-137.1724072128768
 30
0.0
 11
-151.4439237743645
 21
-134.8215429594983
 31
0.0
  0
LINE
  5
67D04
330
679DB
100
AcDbEntity
  8
DIMV
370
    -2
100
AcDbLine
 10
-81.64392377436453
 20
-134.8215429594983
 30
0.0
 11
-151.2439237743645
 21
-134.8215429594983
 31
0.0
  0
INSERT
  5
67D05
330
679DB
100
AcDbEntity
  8
DIMV
370
    -2
100
AcDbBlockReference
  2
TIC
 10
-81.44392377436451
 20
-134.8215429594983
 30
0.0
 41
0.2
 42
0.2
 43
0.2
  0
INSERT
  5
67D06
330
679DB
100
AcDbEntity
  8
DIMV
370
    -2
100
AcDbBlockReference
  2
TIC
 10
-151.4439237743645
 20
-134.8215429594983
 30
0.0
 41
0.2
 42
0.2
 43
0.2
 50
180.0
  0
MTEXT
  5
67D07
330
679DB
100
AcDbEntity
  8
DIMV
 62
     4
100
AcDbMText
 10
-116.4439237743645
 20
-133.3215429594984
 30
0.0
 40
2.0
 41
0.0
 71
     5
 72
     1
  1
\A1;70
  7
MONOSI
 73
     1
 44
1.0
  0
POINT
  5
67D08
330
679DB
100
AcDbEntity
  8
DEFPOINTS
 62
     0
100
AcDbPoint
 10
-81.44392377436451
 20
-139.1724072128768
 30
0.0
  0
POINT
  5
67D09
330
679DB
100
AcDbEntity
  8
DEFPOINTS
 62
     0
100
AcDbPoint
 10
-151.4439237743645
 20
-139.1724072128768
 30
0.0
  0
POINT
  5
67D0A
330
679DB
100
AcDbEntity
  8
DEFPOINTS
 62
     0
100
AcDbPoint
 10
-151.4439237743645
 20
-134.8215429594983
 30
0.0
  0
ENDBLK
  5
679E6
330
679DB
100
AcDbEntity
  8
0
100
AcDbBlockEnd
  0
BLOCK
  5
679F1
330
679E7
100
AcDbEntity
  8
0
100
AcDbBlockBegin
  2
*D17
 70
     1
 10
0.0
 20
0.0
 30
0.0
  3
*D17
  1

  0
LINE
  5
67CF9
330
679E7
100
AcDbEntity
  8
DIMV
 62
    30
370
    -2
100
AcDbLine
 10
-153.4439237743644
 20
-209.1724072128769
 30
0.0
 11
-155.7947880277429
 21
-209.1724072128769
 31
0.0
  0
LINE
  5
67CFA
330
679E7
100
AcDbEntity
  8
DIMV
 62
    30
370
    -2
100
AcDbLine
 10
-153.4439237743645
 20
-139.1724072128768
 30
0.0
 11
-155.7947880277429
 21
-139.1724072128768
 31
0.0
  0
LINE
  5
67CFB
330
679E7
100
AcDbEntity
  8
DIMV
370
    -2
100
AcDbLine
 10
-155.7947880277429
 20
-208.9724072128769
 30
0.0
 11
-155.7947880277429
 21
-139.3724072128768
 31
0.0
  0
MTEXT
  5
67CFC
330
679E7
100
AcDbEntity
  8
DIMV
 62
     4
100
AcDbMText
 10
-157.2947880277429
 20
-169.9916632742579
 30
0.0
 40
2.0
 41
0.0
 71
     5
 72
     1
  1
\A1;70
  7
MONOSI
 11
0.0000000000000001
 21
1.0
 31
0.0
 73
     1
 44
1.0
  0
INSERT
  5
67CFD
330
679E7
100
AcDbEntity
  8
DIMV
370
    -2
100
AcDbBlockReference
  2
TIC
 10
-155.7947880277429
 20
-209.1724072128769
 30
0.0
 41
0.2
 42
0.2
 43
0.2
 50
270.0
  0
INSERT
  5
67CFE
330
679E7
100
AcDbEntity
  8
DIMV
370
    -2
100
AcDbBlockReference
  2
TIC
 10
-155.7947880277429
 20
-139.1724072128768
 30
0.0
 41
0.2
 42
0.2
 43
0.2
 50
90.0
  0
POINT
  5
67CFF
330
679E7
100
AcDbEntity
  8
DEFPOINTS
 62
     0
100
AcDbPoint
 10
-151.4439237743644
 20
-209.1724072128769
 30
0.0
  0
POINT
  5
67D00
330
679E7
100
AcDbEntity
  8
DEFPOINTS
 62
     0
100
AcDbPoint
 10
-151.4439237743645
 20
-139.1724072128768
 30
0.0
  0
POINT
  5
67D01
330
679E7
100
AcDbEntity
  8
DEFPOINTS
 62
     0
100
AcDbPoint
 10
-155.7947880277429
 20
-139.1724072128768
 30
0.0
  0
ENDBLK
  5
679F2
330
679E7
100
AcDbEntity
  8
0
100
AcDbBlockEnd
  0
BLOCK
  5
67ACD
330
67AC6
100
AcDbEntity
  8
0
100
AcDbBlockBegin
  2
*D18
 70
     1
 10
0.0
 20
0.0
 30
0.0
  3
*D18
  1

  0
LINE
  5
67D78
330
67AC6
100
AcDbEntity
  8
HATCH9
370
    -2
100
AcDbLine
 10
-94.11994651592033
 20
-163.3705536976475
 30
0.0
 11
-138.7679010328086
 21
-184.974260728106
 31
0.0
  0
MTEXT
  5
67D79
330
67AC6
100
AcDbEntity
  8
HATCH9
 62
     4
100
AcDbMText
 10
-116.6244570934375
 20
-172.2403447969772
 30
0.0
 40
2.0
 41
0.0
 71
     5
 72
     1
  1
\A1;\U+220550
  7
MONOSI
 11
0.9001603733243598
 21
0.4355586094850487
 31
0.0
 73
     1
 44
1.0
  0
INSERT
  5
67D7A
330
67AC6
100
AcDbEntity
  8
HATCH9
370
    -2
100
AcDbBlockReference
  2
TIC
 10
-93.93991444125546
 20
-163.2834419757505
 30
0.0
 41
0.2
 42
0.2
 43
0.2
 50
25.82084439251048
  0
INSERT
  5
67D7B
330
67AC6
100
AcDbEntity
  8
HATCH9
370
    -2
100
AcDbBlockReference
  2
TIC
 10
-138.9479331074735
 20
-185.061372450003
 30
0.0
 41
0.2
 42
0.2
 43
0.2
 50
205.8208443925104
  0
POINT
  5
67D7C
330
67AC6
100
AcDbEntity
  8
DEFPOINTS
 62
     0
100
AcDbPoint
 10
-138.9479331074735
 20
-185.061372450003
 30
0.0
  0
POINT
  5
67D7D
330
67AC6
100
AcDbEntity
  8
DEFPOINTS
 62
     0
100
AcDbPoint
 10
-93.93991444125546
 20
-163.2834419757505
 30
0.0
  0
ENDBLK
  5
67ACE
330
67AC6
100
AcDbEntity
  8
0
100
AcDbBlockEnd
  0
BLOCK
  5
67CAD
330
67CA8
100
AcDbEntity
  8
0
100
AcDbBlockBegin
  2
ELEC
 70
     0
 10
0.0
 20
0.0
 30
0.0
  3
ELEC
  1

  0
ARC
  5
67CA9
330
67CA8
100
AcDbEntity
  8
0
100
AcDbCircle
 10
0.0
 20
0.0366047767352029
 30
0.0
 40
15.0
100
AcDbArc
 50
359.8601799134371
 51
180.1398200865629
  0
LINE
  5
67CAA
330
67CA8
100
AcDbEntity
  8
0
100
AcDbLine
 10
14.9999553362777
 20
0.0
 30
0.0
 11
-14.9999553362768
 21
0.0
 31
0.0
  0
LINE
  5
67CAB
330
67CA8
100
AcDbEntity
  8
0
100
AcDbLine
 10
12.03660477673474
 20
15.03656011301291
 30
0.0
 11
-11.96339522326525
 21
15.03656011301291
 31
0.0
  0
LINE
  5
67CAC
330
67CA8
100
AcDbEntity
  8
0
100
AcDbLine
 10
0.0366047767347482
 20
15.03656011301291
 30
0.0
 11
0.0366047767347482
 21
30.03656011301291
 31
0.0
  0
ENDBLK
  5
67CAE
330
67CA8
100
AcDbEntity
  8
0
100
AcDbBlockEnd
  0
BLOCK
  5
67CB5
330
67CB3
100
AcDbEntity
  8
0
100
AcDbBlockBegin
  2
A$C54C46ADD
 70
     0
 10
0.0
 20
0.0
 30
0.0
  3
A$C54C46ADD
  1

  0
INSERT
  5
67CB4
330
67CB3
100
AcDbEntity
  8
ELSYM
100
AcDbBlockReference
  2
ELEC
 10
0.0000000000022737
 20
-14.962455447936
 30
0.0
 41
0.9974999999999454
 42
0.9974999999999454
 43
0.9975000000000001
 50
90.0
  0
ENDBLK
  5
67CB6
330
67CB3
100
AcDbEntity
  8
0
100
AcDbBlockEnd
  0
BLOCK
  5
67D37
330
67D30
100
AcDbEntity
  8
0
100
AcDbBlockBegin
  2
LOGO
 70
     0
 10
0.0
 20
0.0
 30
0.0
  3
LOGO
  1

  0
IMAGE
  5
67D31
330
67D30
100
AcDbEntity
  8
MABAT2
 92
      140
310
8C0000000100000084000000060000000500000010206D455B8441C080DC05EC75683340000000000000000010206D455B8441C0C090BF0CAFC94740000000000000000080CEE43CFA251EC0C090BF0CAFC94740000000000000000080CEE43CFA251EC080DC05EC75683340000000000000000010206D455B8441C080DC05
310
EC756833400000000000000000
100
AcDbRasterImage
 90
        0
 10
-35.03403537586575
 20
19.40804934638117
 30
0.0
 11
0.083832158480675
 21
0.0
 31
0.0
 12
0.0
 22
0.083832158480675
 32
0.0
 13
328.0
 23
336.0
340
67715
 70
     7
280
     0
281
    50
282
    50
283
     0
360
67D32
 71
     1
 91
        2
 14
-0.5
 24
-0.5
 14
327.4999999999999
 24
335.4999999999999
  0
TEXT
  5
67D33
330
67D30
100
AcDbEntity
  8
TEXT03
100
AcDbText
 10
-33.76175186122555
 20
3.167063884164235
 30
0.0
 40
2.0
  1
WWW.TVENT.CO.IL
  7
ORON
 72
     1
 11
-21.28556138503506
 21
4.167063884164235
 31
0.0
100
AcDbText
 73
     2
  0
TEXT
  5
67D34
330
67D30
100
AcDbEntity
  8
TEXT03
100
AcDbText
 10
-33.99984709932078
 20
6.671138069776134
 30
0.0
 40
2.0
  1
1-700-555-876
  7
ORON
 72
     1
 11
-21.28556138503506
 21
7.671138069776134
 31
0.0
100
AcDbText
 73
     2
  0
TEXT
  5
67D35
330
67D30
100
AcDbEntity
  8
TEXT03
100
AcDbText
 10
-39.47603757551124
 20
15.62664599827121
 30
0.0
 40
2.0
  1
  ,-
  7
ORON
 72
     1
 11
-21.28556138503506
 21
16.62664599827121
 31
0.0
100
AcDbText
 73
     2
  0
TEXT
  5
67D36
330
67D30
100
AcDbEntity
  8
TEXT03
100
AcDbText
 10
-31.28556138503507
 20
11.98800647912639
 30
0.0
 40
2.0
  1
 
  7
ORON
 72
     1
 11
-21.28556138503506
 21
12.98800647912639
 31
0.0
100
AcDbText
 73
     2
  0
ENDBLK
  5
67D38
330
67D30
100
AcDbEntity
  8
0
100
AcDbBlockEnd
  0
ENDSEC
  0
SECTION
  2
ENTITIES
  0
INSERT
  5
3
330
2
100
AcDbEntity
  8
ASHADE
 62
     1
100
AcDbBlockReference
  2
AVE_RENDER
 10
0.0
 20
0.0
 30
0.0
1001
AVE_RENDER
1002
{
1070
     7
1000
Pref
1070
    30
1070
    20
1070
     1
1070
     0
1000

1070
    10
1070
     1
1070
    10
1040
1.0
1070
     1
1040
0.3
1040
0.7
1040
0.0
1040
10.0
1010
-1.0
1020
-1.0
1030
-1.0
1040
0.3
1070
    49
1070
     0
1070
     0
1010
1.0
1020
1.0
1030
1.0
1040
45.0
1070
     1
1070
     0
1000
WCS
1040
0.0
1070
     0
1040
10.0
1002
}
  0
INSERT
  5
E
330
2
100
AcDbEntity
  8
ASHADE
 62
     3
100
AcDbBlockReference
  2
AVE_RENDER
 10
0.0
 20
0.0
 30
0.0
1001
AVE_RENDER
1002
{
1070
     0
1000
Full Opt
1070
     0
1070
     1
1070
     1
1070
     1
1070
     0
1070
     0
1070
     0
1070
     1
1070
     1
1040
0.0001
1040
0.0001
1002
}
  0
INSERT
  5
F
330
2
100
AcDbEntity
  8
ASHADE
 62
     4
100
AcDbBlockReference
  2
AVE_RENDER
 10
0.0
 20
0.0
 30
0.0
1001
AVE_RENDER
1002
{
1070
     0
1000
Quick Opt
1070
     0
1070
     1
1070
     1
1070
     1
1070
     0
1070
     0
1070
     1
1002
}
  0
INSERT
  5
10
330
2
100
AcDbEntity
  8
ASHADE
 62
     5
100
AcDbBlockReference
  2
AVE_RENDER
 10
0.0
 20
0.0
 30
0.0
1001
AVE_RENDER
1002
{
1070
     1
1000
Scanl Opt
1070
     2
1070
     0
1070
     2
1040
2.0
1040
4.0
1070
     0
1070
     1
1070
     0
1040
0.03
1002
}
  0
INSERT
  5
11
330
2
100
AcDbEntity
  8
ASHADE
 62
     6
100
AcDbBlockReference
  2
AVE_RENDER
 10
0.0
 20
0.0
 30
0.0
1001
AVE_RENDER
1002
{
1070
     2
1000
Raytr Opt
1070
     2
1070
     0
1070
     2
1040
2.0
1040
4.0
1070
     0
1070
     1
1070
     1
1040
0.03
1070
     3
1040
0.03
1002
}
  0
INSERT
  5
12
330
2
100
AcDbEntity
  8
ASHADE
 62
     7
100
AcDbBlockReference
  2
AVE_RENDER
 10
0.0
 20
0.0
 30
0.0
1001
AVE_RENDER
1002
{
1070
     0
1000
RFile Opt
1070
     1
1070
   640
1070
   480
1070
 10000
1070
     1
1070
     8
1070
     8
1070
     0
1070
     0
1070
     0
1070
     0
1070
     0
1070
     0
1070
     0
1002
}
  0
INSERT
  5
13
330
2
100
AcDbEntity
  8
ASHADE
 62
     8
100
AcDbBlockReference
  2
AVE_RENDER
 10
0.0
 20
0.0
 30
0.0
1001
AVE_RENDER
1002
{
1070
     0
1000
Fog Opt
1070
     0
1070
     0
1040
0.0
1040
1.0
1040
0.0
1040
1.0
1010
0.5
1020
0.5
1030
0.5
1002
}
  0
INSERT
  5
14
330
2
100
AcDbEntity
  8
ASHADE
 62
     9
100
AcDbBlockReference
  2
AVE_RENDER
 10
0.0
 20
0.0
 30
0.0
1001
AVE_RENDER
1002
{
1070
     0
1000
BG Opt
1070
     0
1070
     1
1010
0.0
1020
0.0
1030
0.0
1010
1.0
1020
0.0
1030
0.0
1010
0.0
1020
1.0
1030
0.0
1010
0.0
1020
0.0
1030
1.0
1040
0.5
1040
0.33
1040
0.0
1000

1070
     1
1000

1070
     1
1070
     1
1040
1.0
1040
1.0
1040
0.0
1040
0.0
1070
     0
1002
}
  0
INSERT
  5
15
330
2
100
AcDbEntity
  8
ASHADE
 62
     1
100
AcDbBlockReference
  2
AVE_GLOBAL
 10
0.0
 20
0.0
 30
0.0
1001
AVE_MATERIAL
1002
{
1000
*GLOBAL*
1000
2
1000
Global finish.
1002
{
1002
}
1002
{
1070
    63
1002
{
1002
{
1010
-1.0
1020
-1.0
1030
-1.0
1002
}
1040
0.1000000014901161
1000

1040
0.0
1002
{
1002
}
1040
0.0
1002
{
1002
}
1040
0.0
1002
}
1002
{
1002
{
1010
-1.0
1020
-1.0
1030
-1.0
1002
}
1040
0.6999999880790711
1000

1040
0.0
1002
{
1002
}
1040
0.0
1002
{
1002
}
1040
0.0
1002
}
1002
{
1002
{
1010
-1.0
1020
-1.0
1030
-1.0
1002
}
1040
0.2000000029802322
1000

1040
0.0
1002
{
1002
}
1040
0.0
1002
{
1002
}
1040
0.0
1002
}
1002
{
1070
     0
1002
{
1070
     1
1002
{
1040
1.0
1040
1.0
1000

1040
0.0
1002
{
1002
}
1040
0.0
1002
{
1002
}
1040
0.0
1002
}
1002
}
1040
1.0
1040
0.0
1040
0.0
1002
}
1002
{
1040
1.0
1040
1.0
1000

1040
0.0
1002
{
1002
}
1040
0.0
1002
{
1002
}
1040
0.0
1002
}
1002
{
1040
0.5
1040
1.0
1000

1040
0.0
1002
{
1002
}
1040
0.0
1002
{
1002
}
1040
0.0
1002
}
1002
{
1070
     0
1040
0.0
1002
{
1002
}
1040
1.0
1002
{
1002
}
1040
0.0
1002
}
1002
{
1040
0.0
1002
{
1002
{
1010
0.0
1020
0.0
1030
0.0
1002
}
1040
1.0
1000

1040
0.0
1002
{
1002
}
1040
0.0
1002
{
1002
}
1040
0.0
1002
}
1002
}
1002
{
1002
{
1070
     1
1002
{
1040
0.0
1040
1.0
1000

1040
0.0
1002
{
1002
}
1040
0.0
1002
{
1002
}
1040
0.0
1002
}
1002
}
1040
0.0
1002
{
1002
}
1010
1.0
1020
0.0
1030
0.0
1010
0.0
1020
1.0
1030
0.0
1010
0.0
1020
0.0
1030
1.0
1070
     0
1002
}
1002
{
1002
{
1040
1.0
1040
1.0
1002
{
1070
     1
1002
{
1040
1.0
1040
1.0
1000

1040
0.0
1002
{
1002
}
1040
0.0
1002
{
1002
}
1040
0.0
1002
}
1002
}
1002
}
1070
     0
1040
0.0
1002
{
1002
}
1002
}
1002
{
1002
}
1002
}
1002
{
1071
        3
1070
     3
1070
     0
1002
{
1070
     2
1070
     0
1070
     0
1040
0.0
1002
}
1070
     0
1070
     2
1002
{
1002
}
1002
}
1002
{
1040
8030.0
1040
190.3000030517578
1040
0.3050000071525574
1040
228.0
1040
545.0
1040
14.0
1040
17.39999961853027
1040
0.4560000002384186
1002
}
1002
}
  0
MTEXT
  5
1A
330
2
100
AcDbEntity
  8
pit233
100
AcDbMText
 10
-61720198.69452241
 20
-39500530.05334247
 30
0.0
 40
0.18
 41
0.0
 71
     1
 72
     1
  1

 11
0.7423872808554428
 21
-0.669970988345064
 31
0.0
 73
     1
 44
1.0
  0
MTEXT
  5
1D
330
2
100
AcDbEntity
  8
pitdimh
100
AcDbMText
 10
5066.46180973722
 20
-8618.08297487448
 30
0.0
 40
0.4499999999999999
 41
0.0
 71
     1
 72
     1
  1

 11
0.7423872808554428
 21
-0.669970988345064
 31
0.0
 73
     1
 44
1.0
  0
MTEXT
  5
1F
330
2
100
AcDbEntity
  8
pitdimh
100
AcDbMText
 10
3756.750247565642
 20
-7694.416054845856
 30
0.0
 40
0.4499999999999999
 41
0.0
 71
     9
 72
     1
  1

 11
0.7423872808554428
 21
-0.669970988345064
 31
0.0
 73
     1
 44
1.0
  0
MTEXT
  5
20
330
2
100
AcDbEntity
  8
0
100
AcDbMText
 10
2899.579316941633
 20
-5252.806840666637
 30
0.0
 40
0.4499999999999999
 41
242.2384999999999
 71
     9
 72
     1
  1

 11
0.7423872808554428
 21
-0.669970988345064
 31
0.0
 73
     1
 44
1.0
  0
MTEXT
  5
21
330
2
100
AcDbEntity
  8
0
100
AcDbMText
 10
3555.607524832323
 20
-7814.189852298305
 30
0.0
 40
37.49999999999999
 41
0.0
 71
     9
 72
     1
  1

  7
MONOSI
 11
0.7423872808554428
 21
-0.669970988345064
 31
0.0
 73
     1
 44
1.0
  0
MTEXT
  5
2CD
330
2
100
AcDbEntity
  8
UP
 62
     4
100
AcDbMText
 10
-6452.242417971778
 20
-6744.128641248622
 30
0.0
 40
15.0
 41
0.0
 71
     9
 72
     1
  1

  7
MONOSI
 73
     1
 44
1.0
  0
MTEXT
  5
92A
330
2
100
AcDbEntity
  8
0
 62
     4
100
AcDbMText
 10
-9081.245691365854
 20
-8251.326955003403
 30
0.0
 40
20.0
 41
0.0
 71
     9
 72
     1
  1

  7
MONOSI
 73
     1
 44
1.0
  0
MTEXT
  5
124E1
330
2
100
AcDbEntity
  8
0
 62
     4
100
AcDbMText
 10
-5004.643845897749
 20
-5871.356187291232
 30
0.0
 40
20.0
 41
0.0
 71
     9
 72
     1
  1

  7
MONOSI
 73
     1
 44
1.0
  0
INSERT
  5
1439D
330
2
100
AcDbEntity
  8
DCA_INFO
100
AcDbBlockReference
 66
     1
  2
PROJ_NAM
 10
199963.0558105743
 20
-708765.3677992169
 30
0.0
 50
31.70789242611182
1001
SDI_SETUP
1070
   305
1040
250.0
1070
   304
1040
50.0
1070
   130
1000
None
1070
   230
1070
     0
1070
   233
1070
     0
1070
   234
1070
     1
1070
   134
1000
None
1070
   330
1040
3.0
1070
   331
1040
50.0
1070
   332
1040
25.0
1070
   333
1040
25.0
1070
   334
1040
25.0
1070
   335
1040
707.0
1070
   336
1040
1000.0
1070
   231
1070
     1
1070
   232
1070
     0
  0
ATTRIB
  5
1439E
330
1439D
100
AcDbEntity
  8
0
100
AcDbText
 10
199963.0720412761
 20
-708765.3577025626
 30
0.0
 40
0.2
  1
5909
 50
31.70789242611182
 72
     1
 11
199963.3677742591
 21
-708765.1749978693
 31
0.0
100
AcDbAttribute
  2
NAME
 70
     1
  0
SEQEND
  5
1439F
330
1439D
100
AcDbEntity
  8
DCA_INFO
  0
INSERT
  5
1454E
330
2
100
AcDbEntity
  8
DCA_INFO
100
AcDbBlockReference
 66
     1
  2
PROJ_NAM
 10
199963.0558105743
 20
-708765.3677992169
 30
0.0
 50
31.70789242611182
1001
SDI_SETUP
1070
   305
1040
250.0
1070
   304
1040
50.0
1070
   130
1000
None
1070
   230
1070
     0
1070
   233
1070
     0
1070
   234
1070
     1
1070
   134
1000
None
1070
   330
1040
3.0
1070
   331
1040
50.0
1070
   332
1040
25.0
1070
   333
1040
25.0
1070
   334
1040
25.0
1070
   335
1040
707.0
1070
   336
1040
1000.0
1070
   231
1070
     1
1070
   232
1070
     0
  0
ATTRIB
  5
1454F
330
1454E
100
AcDbEntity
  8
0
100
AcDbText
 10
199963.0639390026
 20
-708765.3627081706
 30
0.0
 40
0.2
  1
5304
 50
31.70789242611182
 72
     1
 11
199963.3677742591
 21
-708765.1749978693
 31
0.0
100
AcDbAttribute
  2
NAME
 70
     1
  0
SEQEND
  5
14550
330
1454E
100
AcDbEntity
  8
DCA_INFO
  0
INSERT
  5
1457B
330
2
100
AcDbEntity
  8
DCA_INFO
100
AcDbBlockReference
 66
     1
  2
PROJ_NAM
 10
15518.46501974822
 20
-73823.83328587293
 30
0.0
 41
0.0999999999730819
 42
0.0999999999539796
 43
0.1
 50
31.70789239687185
1001
SDI_SETUP
1070
   305
1040
250.0
1070
   304
1040
50.0
1070
   130
1000
None
1070
   230
1070
     0
1070
   233
1070
     0
1070
   234
1070
     1
1070
   134
1000
None
1070
   330
1040
3.0
1070
   331
1040
50.0
1070
   332
1040
25.0
1070
   333
1040
25.0
1070
   334
1040
25.0
1070
   335
1040
707.0
1070
   336
1040
1000.0
1070
   231
1070
     1
1070
   232
1070
     0
  0
ATTRIB
  5
1457C
330
1457B
100
AcDbEntity
  8
0
100
AcDbText
 10
15518.49054452527
 20
-73823.81750966374
 30
0.0
 40
0.02
  1
P
 50
31.70789242611182
 72
     1
 11
15518.49621611673
 21
-73823.81400573811
 31
0.0
100
AcDbAttribute
  2
NAME
 70
     1
  0
SEQEND
  5
1457D
330
1457B
100
AcDbEntity
  8
DCA_INFO
  0
INSERT
  5
1457E
330
2
100
AcDbEntity
  8
DCA_INFO
100
AcDbBlockReference
 66
     1
  2
PROJ_NAM
 10
-6507.364342549265
 20
-28659.01171070778
 30
0.0
 41
0.0999999999730819
 42
0.0999999999539796
 43
0.1
 50
31.70789239687185
1001
SDI_SETUP
1070
   305
1040
250.0
1070
   304
1040
50.0
1070
   130
1000
None
1070
   230
1070
     0
1070
   233
1070
     0
1070
   234
1070
     1
1070
   134
1000
None
1070
   330
1040
3.0
1070
   331
1040
50.0
1070
   332
1040
25.0
1070
   333
1040
25.0
1070
   334
1040
25.0
1070
   335
1040
707.0
1070
   336
1040
1000.0
1070
   231
1070
     1
1070
   232
1070
     0
  0
ATTRIB
  5
1457F
330
1457E
100
AcDbEntity
  8
0
100
AcDbText
 10
-6507.362719479058
 20
-28659.01070104231
 30
0.0
 40
0.02
  1
3966
 50
31.70789242611182
 72
     1
 11
-6507.333146180755
 21
-28658.99243057296
 31
0.0
100
AcDbAttribute
  2
NAME
 70
     1
  0
SEQEND
  5
14580
330
1457E
100
AcDbEntity
  8
DCA_INFO
  0
INSERT
  5
14581
330
2
100
AcDbEntity
  8
DCA_INFO
100
AcDbBlockReference
 66
     1
  2
PROJ_NAM
 10
-6507.364342549265
 20
-28659.01171070778
 30
0.0
 41
0.0999999999730819
 42
0.0999999999539796
 43
0.1
 50
31.70789239687185
  0
ATTRIB
  5
14582
330
14581
100
AcDbEntity
  8
0
100
AcDbText
 10
-6507.362719479058
 20
-28659.01070104231
 30
0.0
 40
0.02
  1
3256
 50
31.70789242611182
 72
     1
 11
-6507.333146180755
 21
-28658.99243057296
 31
0.0
100
AcDbAttribute
  2
NAME
 70
     1
  0
SEQEND
  5
14583
330
14581
100
AcDbEntity
  8
DCA_INFO
  0
INSERT
  5
14584
330
2
100
AcDbEntity
  8
DCA_INFO
100
AcDbBlockReference
 66
     1
  2
PROJ_NAM
 10
-6507.364342549265
 20
-28659.01171070778
 30
0.0
 41
0.0999999999730819
 42
0.0999999999539796
 43
0.1
 50
31.70789239687185
  0
ATTRIB
  5
14585
330
14584
100
AcDbEntity
  8
0
100
AcDbText
 10
-6507.363124592732
 20
-28659.01095132271
 30
0.0
 40
0.02
  1
2982
 50
31.70789242611182
 72
     1
 11
-6507.333146180755
 21
-28658.99243057296
 31
0.0
100
AcDbAttribute
  2
NAME
 70
     1
  0
SEQEND
  5
14586
330
14584
100
AcDbEntity
  8
DCA_INFO
  0
INSERT
  5
14587
330
2
100
AcDbEntity
  8
DCA_INFO
100
AcDbBlockReference
 66
     1
  2
PROJ_NAM
 10
-6507.364342549265
 20
-28659.01171070778
 30
0.0
 41
0.0999999999730819
 42
0.0999999999539796
 43
0.1
 50
31.70789239687185
1001
SDI_SETUP
1070
   305
1040
250.0
1070
   304
1040
50.0
1070
   130
1000
None
1070
   230
1070
     0
1070
   233
1070
     0
1070
   234
1070
     1
1070
   134
1000
None
1070
   330
1040
3.0
1070
   331
1040
50.0
1070
   332
1040
25.0
1070
   333
1040
25.0
1070
   334
1040
25.0
1070
   335
1040
707.0
1070
   336
1040
1000.0
1070
   231
1070
     1
1070
   232
1070
     0
  0
ATTRIB
  5
14588
330
14587
100
AcDbEntity
  8
0
100
AcDbText
 10
-6507.363124592732
 20
-28659.01095132271
 30
0.0
 40
0.02
  1
2982
 50
31.70789242611182
 72
     1
 11
-6507.333146180755
 21
-28658.99243057296
 31
0.0
100
AcDbAttribute
  2
NAME
 70
     1
  0
SEQEND
  5
14589
330
14587
100
AcDbEntity
  8
DCA_INFO
  0
INSERT
  5
1458A
330
2
100
AcDbEntity
  8
DCA_INFO
100
AcDbBlockReference
 66
     1
  2
PROJ_NAM
 10
-6507.364342549265
 20
-28659.01171070778
 30
0.0
 41
0.0999999999730819
 42
0.0999999999539796
 43
0.1
 50
31.70789239687185
1001
SDI_SETUP
1070
   305
1040
250.0
1070
   304
1040
50.0
1070
   130
1000
None
1070
   230
1070
     0
1070
   233
1070
     0
1070
   234
1070
     1
1070
   134
1000
None
1070
   330
1040
3.0
1070
   331
1040
50.0
1070
   332
1040
25.0
1070
   333
1040
25.0
1070
   334
1040
25.0
1070
   335
1040
707.0
1070
   336
1040
1000.0
1070
   231
1070
     1
1070
   232
1070
     0
  0
ATTRIB
  5
1458B
330
1458A
100
AcDbEntity
  8
0
100
AcDbText
 10
-6507.361504138031
 20
-28659.0099502011
 30
0.0
 40
0.02
  1
1365
 50
31.70789242611182
 72
     1
 11
-6507.333146180755
 21
-28658.99243057296
 31
0.0
100
AcDbAttribute
  2
NAME
 70
     1
  0
SEQEND
  5
1458C
330
1458A
100
AcDbEntity
  8
DCA_INFO
  0
INSERT
  5
1458D
330
2
100
AcDbEntity
  8
DCA_INFO
100
AcDbBlockReference
 66
     1
  2
PROJ_NAM
 10
-6507.364342549265
 20
-28659.01171070778
 30
0.0
 41
0.0999999999730819
 42
0.0999999999539796
 43
0.1
 50
31.70789239687185
1001
SDI_SETUP
1070
   305
1040
1250.0
1070
   304
1040
1.0
1070
   130
1000
FRACTION
1070
   230
1070
     0
1070
   233
1070
     0
1070
   234
1070
     1
1070
   134
1000
None
1070
   330
1040
3.0
1070
   331
1040
50.0
1070
   332
1040
25.0
1070
   333
1040
25.0
1070
   334
1040
25.0
1070
   335
1040
594.0
1070
   336
1040
841.0
1070
   231
1070
     0
1070
   232
1070
     0
  0
ATTRIB
  5
1458E
330
1458D
100
AcDbEntity
  8
0
100
AcDbText
 10
-6507.361504138031
 20
-28659.0099502011
 30
0.0
 40
0.02
  1
1480
 50
31.70789242611182
 72
     1
 11
-6507.333146180755
 21
-28658.99243057296
 31
0.0
100
AcDbAttribute
  2
NAME
 70
     1
  0
SEQEND
  5
1458F
330
1458D
100
AcDbEntity
  8
DCA_INFO
  0
INSERT
  5
14590
330
2
100
AcDbEntity
  8
DCA_INFO
100
AcDbBlockReference
 66
     1
  2
PROJ_NAM
 10
-6526.399040967402
 20
-28645.47923686388
 30
0.0
 41
0.0999999999730819
 42
0.0999999999539796
 43
0.1
 50
31.70789239687185
1001
SDI_SETUP
1070
   305
1040
250.0
1070
   304
1040
50.0
1070
   130
1000
None
1070
   230
1070
     0
1070
   233
1070
     0
1070
   234
1070
     1
1070
   134
1000
None
1070
   330
1040
3.0
1070
   331
1040
50.0
1070
   332
1040
25.0
1070
   333
1040
25.0
1070
   334
1040
25.0
1070
   335
1040
707.0
1070
   336
1040
1000.0
1070
   231
1070
     1
1070
   232
1070
     0
  0
ATTRIB
  5
14591
330
14590
100
AcDbEntity
  8
0
100
AcDbText
 10
-6526.396202556168
 20
-28645.47747635733
 30
0.0
 40
0.02
  1
4013
 50
31.70789242611182
 72
     1
 11
-6526.367844598893
 21
-28645.45995672918
 31
0.0
100
AcDbAttribute
  2
NAME
 70
     1
  0
SEQEND
  5
14592
330
14590
100
AcDbEntity
  8
DCA_INFO
  0
INSERT
  5
14593
330
2
100
AcDbEntity
  8
DCA_INFO
100
AcDbBlockReference
 66
     1
  2
PROJ_NAM
 10
-6526.399040967402
 20
-28645.47923686388
 30
0.0
 41
0.0999999999730819
 42
0.0999999999539796
 43
0.1
 50
31.70789239687185
1001
SDI_SETUP
1070
   305
1040
250.0
1070
   304
1040
50.0
1070
   130
1000
None
1070
   230
1070
     0
1070
   233
1070
     0
1070
   234
1070
     1
1070
   134
1000
None
1070
   330
1040
3.0
1070
   331
1040
50.0
1070
   332
1040
25.0
1070
   333
1040
25.0
1070
   334
1040
25.0
1070
   335
1040
707.0
1070
   336
1040
1000.0
1070
   231
1070
     1
1070
   232
1070
     0
  0
ATTRIB
  5
14594
330
14593
100
AcDbEntity
  8
0
100
AcDbText
 10
-6526.397823010869
 20
-28645.47847747893
 30
0.0
 40
0.02
  1
2307
 50
31.70789242611182
 72
     1
 11
-6526.367844598893
 21
-28645.45995672918
 31
0.0
100
AcDbAttribute
  2
NAME
 70
     1
  0
SEQEND
  5
14595
330
14593
100
AcDbEntity
  8
DCA_INFO
  0
INSERT
  5
14596
330
2
100
AcDbEntity
  8
DCA_INFO
100
AcDbBlockReference
 66
     1
  2
PROJ_NAM
 10
-6526.399040967402
 20
-28645.47923686388
 30
0.0
 41
0.0999999999730819
 42
0.0999999999539796
 43
0.1
 50
31.70789239687185
1001
SDI_SETUP
1070
   305
1040
250.0
1070
   304
1040
100.0
1070
   130
1000
None
1070
   230
1070
     1
1070
   233
1070
     0
1070
   234
1070
     1
1070
   134
1000
None
1070
   330
1040
0.000002
1070
   331
1040
0.00005
1070
   332
1040
0.000025
1070
   333
1040
0.000025
1070
   334
1040
0.000025
1070
   335
1040
420.0
1070
   336
1040
594.0
1070
   231
1070
     1
1070
   232
1070
     0
1070
   133
1000
72
  0
ATTRIB
  5
14597
330
14596
100
AcDbEntity
  8
0
100
AcDbText
 10
-6526.395797442493
 20
-28645.47722607692
 30
0.0
 40
0.02
  1
1586
 50
31.70789242611182
 72
     1
 11
-6526.367844598893
 21
-28645.45995672918
 31
0.0
100
AcDbAttribute
  2
NAME
 70
     1
  0
SEQEND
  5
14598
330
14596
100
AcDbEntity
  8
DCA_INFO
  0
INSERT
  5
14599
330
2
100
AcDbEntity
  8
0
100
AcDbBlockReference
 66
     1
  2
TR_CONF
 10
-6526.399040967402
 20
-28645.47923686388
 30
0.0
 41
0.0999999999730819
 42
0.0999999999539796
 43
0.1
 50
31.70789239687185
1001
TR_DXF
1040
1.25
1040
200.0
1040
2.1
1040
0.7
1040
1.8
1040
3.0
1040
3.0
1040
1.5
1040
1250.0
1040
1.0
1040
0.02
1040
0.0
1040
0.0
1040
0.0
1040
3.0
1040
0.001
1000

1000

  0
SEQEND
  5
1459A
330
14599
100
AcDbEntity
  8
0
  0
INSERT
  5
1459B
330
2
100
AcDbEntity
  8
DCA_INFO
100
AcDbBlockReference
 66
     1
  2
PROJ_NAM
 10
-19861.67288780326
 20
-257744.9953517214
 30
0.0
 50
31.70789242611182
1001
SDI_SETUP
1070
   305
1040
250.0
1070
   304
1040
50.0
1070
   130
1000
None
1070
   230
1070
     0
1070
   233
1070
     0
1070
   234
1070
     1
1070
   134
1000
None
1070
   330
1040
3.0
1070
   331
1040
50.0
1070
   332
1040
25.0
1070
   333
1040
25.0
1070
   334
1040
25.0
1070
   335
1040
707.0
1070
   336
1040
1000.0
1070
   231
1070
     1
1070
   232
1070
     0
  0
ATTRIB
  5
1459C
330
1459B
100
AcDbEntity
  8
0
100
AcDbText
 10
-19861.66070823825
 20
-257744.987757871
 30
0.0
 40
0.2
  1
4738
 50
31.70789242611182
 72
     1
 11
-19861.36092411848
 21
-257744.8025503735
 31
0.0
100
AcDbAttribute
  2
NAME
 70
     1
  0
SEQEND
  5
1459D
330
1459B
100
AcDbEntity
  8
DCA_INFO
  0
INSERT
  5
1459E
330
2
100
AcDbEntity
  8
DCA_INFO
100
AcDbBlockReference
 66
     1
  2
PROJ_NAM
 10
-5219.713537885052
 20
-3574.443554093461
 30
0.0
 50
27.26889038819678
1001
SDI_SETUP
1070
   305
1040
250.0
1070
   304
1040
50.0
1070
   130
1000
None
1070
   230
1070
     0
1070
   233
1070
     0
1070
   234
1070
     1
1070
   134
1000
None
1070
   330
1040
3.0
1070
   331
1040
50.0
1070
   332
1040
25.0
1070
   333
1040
25.0
1070
   334
1040
25.0
1070
   335
1040
707.0
1070
   336
1040
1000.0
1070
   231
1070
     1
1070
   232
1070
     0
  0
ATTRIB
  5
1459F
330
1459E
100
AcDbEntity
  8
0
100
AcDbText
 10
-5219.683876325066
 20
-3574.428198702658
 30
0.0
 40
0.2
  1
2153
 50
27.26889038819678
 72
     1
 11
-5219.387587614272
 21
-3574.275476369756
 31
0.0
100
AcDbAttribute
  2
NAME
 70
     1
  0
SEQEND
  5
145A0
330
1459E
100
AcDbEntity
  8
DCA_INFO
  0
TEXT
  5
145A1
330
2
100
AcDbEntity
  8
CTACK
100
AcDbText
 10
-5122.608618858245
 20
-3101.365527215409
 30
0.0
 40
0.4
  1
 
 50
27.26889038819678
  7
SIVAN
 72
     2
 11
-5122.28693397224
 21
-3101.199714396829
 31
0.0
100
AcDbText
  0
INSERT
  5
145A2
330
2
100
AcDbEntity
  8
DCA_INFO
100
AcDbBlockReference
 66
     1
  2
PROJ_NAM
 10
15518.46501974822
 20
-73823.83328587293
 30
0.0
 41
0.0999999999730819
 42
0.0999999999539796
 43
0.1
 50
31.70789239687185
1001
SDI_SETUP
1070
   305
1040
250.0
1070
   304
1040
50.0
1070
   130
1000
None
1070
   230
1070
     0
1070
   233
1070
     0
1070
   234
1070
     1
1070
   134
1000
None
1070
   330
1040
3.0
1070
   331
1040
50.0
1070
   332
1040
25.0
1070
   333
1040
25.0
1070
   334
1040
25.0
1070
   335
1040
707.0
1070
   336
1040
1000.0
1070
   231
1070
     1
1070
   232
1070
     0
  0
ATTRIB
  5
145A3
330
145A2
100
AcDbEntity
  8
0
100
AcDbText
 10
15518.49054452527
 20
-73823.81750966374
 30
0.0
 40
0.02
  1
P
 50
31.70789242611182
 72
     1
 11
15518.49621611673
 21
-73823.81400573811
 31
0.0
100
AcDbAttribute
  2
NAME
 70
     1
  0
SEQEND
  5
145A4
330
145A2
100
AcDbEntity
  8
DCA_INFO
  0
INSERT
  5
145A5
330
2
100
AcDbEntity
  8
DCA_INFO
100
AcDbBlockReference
 66
     1
  2
PROJ_NAM
 10
-6507.364342549265
 20
-28659.01171070778
 30
0.0
 41
0.0999999999730819
 42
0.0999999999539796
 43
0.1
 50
31.70789239687185
1001
SDI_SETUP
1070
   305
1040
250.0
1070
   304
1040
50.0
1070
   130
1000
None
1070
   230
1070
     0
1070
   233
1070
     0
1070
   234
1070
     1
1070
   134
1000
None
1070
   330
1040
3.0
1070
   331
1040
50.0
1070
   332
1040
25.0
1070
   333
1040
25.0
1070
   334
1040
25.0
1070
   335
1040
707.0
1070
   336
1040
1000.0
1070
   231
1070
     1
1070
   232
1070
     0
  0
ATTRIB
  5
145A6
330
145A5
100
AcDbEntity
  8
0
100
AcDbText
 10
-6507.362719479058
 20
-28659.01070104231
 30
0.0
 40
0.02
  1
3966
 50
31.70789242611182
 72
     1
 11
-6507.333146180755
 21
-28658.99243057296
 31
0.0
100
AcDbAttribute
  2
NAME
 70
     1
  0
SEQEND
  5
145A7
330
145A5
100
AcDbEntity
  8
DCA_INFO
  0
INSERT
  5
145A8
330
2
100
AcDbEntity
  8
DCA_INFO
100
AcDbBlockReference
 66
     1
  2
PROJ_NAM
 10
-6507.364342549265
 20
-28659.01171070778
 30
0.0
 41
0.0999999999730819
 42
0.0999999999539796
 43
0.1
 50
31.70789239687185
  0
ATTRIB
  5
145A9
330
145A8
100
AcDbEntity
  8
0
100
AcDbText
 10
-6507.362719479058
 20
-28659.01070104231
 30
0.0
 40
0.02
  1
3256
 50
31.70789242611182
 72
     1
 11
-6507.333146180755
 21
-28658.99243057296
 31
0.0
100
AcDbAttribute
  2
NAME
 70
     1
  0
SEQEND
  5
145AA
330
145A8
100
AcDbEntity
  8
DCA_INFO
  0
INSERT
  5
145AB
330
2
100
AcDbEntity
  8
DCA_INFO
100
AcDbBlockReference
 66
     1
  2
PROJ_NAM
 10
-6507.364342549265
 20
-28659.01171070778
 30
0.0
 41
0.0999999999730819
 42
0.0999999999539796
 43
0.1
 50
31.70789239687185
  0
ATTRIB
  5
145AC
330
145AB
100
AcDbEntity
  8
0
100
AcDbText
 10
-6507.363124592732
 20
-28659.01095132271
 30
0.0
 40
0.02
  1
2982
 50
31.70789242611182
 72
     1
 11
-6507.333146180755
 21
-28658.99243057296
 31
0.0
100
AcDbAttribute
  2
NAME
 70
     1
  0
SEQEND
  5
145AD
330
145AB
100
AcDbEntity
  8
DCA_INFO
  0
INSERT
  5
145AE
330
2
100
AcDbEntity
  8
DCA_INFO
100
AcDbBlockReference
 66
     1
  2
PROJ_NAM
 10
-6507.364342549265
 20
-28659.01171070778
 30
0.0
 41
0.0999999999730819
 42
0.0999999999539796
 43
0.1
 50
31.70789239687185
1001
SDI_SETUP
1070
   305
1040
250.0
1070
   304
1040
50.0
1070
   130
1000
None
1070
   230
1070
     0
1070
   233
1070
     0
1070
   234
1070
     1
1070
   134
1000
None
1070
   330
1040
3.0
1070
   331
1040
50.0
1070
   332
1040
25.0
1070
   333
1040
25.0
1070
   334
1040
25.0
1070
   335
1040
707.0
1070
   336
1040
1000.0
1070
   231
1070
     1
1070
   232
1070
     0
  0
ATTRIB
  5
145AF
330
145AE
100
AcDbEntity
  8
0
100
AcDbText
 10
-6507.363124592732
 20
-28659.01095132271
 30
0.0
 40
0.02
  1
2982
 50
31.70789242611182
 72
     1
 11
-6507.333146180755
 21
-28658.99243057296
 31
0.0
100
AcDbAttribute
  2
NAME
 70
     1
  0
SEQEND
  5
145B0
330
145AE
100
AcDbEntity
  8
DCA_INFO
  0
INSERT
  5
145B1
330
2
100
AcDbEntity
  8
DCA_INFO
100
AcDbBlockReference
 66
     1
  2
PROJ_NAM
 10
-6507.364342549265
 20
-28659.01171070778
 30
0.0
 41
0.0999999999730819
 42
0.0999999999539796
 43
0.1
 50
31.70789239687185
1001
SDI_SETUP
1070
   305
1040
250.0
1070
   304
1040
50.0
1070
   130
1000
None
1070
   230
1070
     0
1070
   233
1070
     0
1070
   234
1070
     1
1070
   134
1000
None
1070
   330
1040
3.0
1070
   331
1040
50.0
1070
   332
1040
25.0
1070
   333
1040
25.0
1070
   334
1040
25.0
1070
   335
1040
707.0
1070
   336
1040
1000.0
1070
   231
1070
     1
1070
   232
1070
     0
  0
ATTRIB
  5
145B2
330
145B1
100
AcDbEntity
  8
0
100
AcDbText
 10
-6507.361504138031
 20
-28659.0099502011
 30
0.0
 40
0.02
  1
1365
 50
31.70789242611182
 72
     1
 11
-6507.333146180755
 21
-28658.99243057296
 31
0.0
100
AcDbAttribute
  2
NAME
 70
     1
  0
SEQEND
  5
145B3
330
145B1
100
AcDbEntity
  8
DCA_INFO
  0
INSERT
  5
145B4
330
2
100
AcDbEntity
  8
DCA_INFO
100
AcDbBlockReference
 66
     1
  2
PROJ_NAM
 10
-6507.364342549265
 20
-28659.01171070778
 30
0.0
 41
0.0999999999730819
 42
0.0999999999539796
 43
0.1
 50
31.70789239687185
1001
SDI_SETUP
1070
   305
1040
1250.0
1070
   304
1040
1.0
1070
   130
1000
FRACTION
1070
   230
1070
     0
1070
   233
1070
     0
1070
   234
1070
     1
1070
   134
1000
None
1070
   330
1040
3.0
1070
   331
1040
50.0
1070
   332
1040
25.0
1070
   333
1040
25.0
1070
   334
1040
25.0
1070
   335
1040
594.0
1070
   336
1040
841.0
1070
   231
1070
     0
1070
   232
1070
     0
  0
ATTRIB
  5
145B5
330
145B4
100
AcDbEntity
  8
0
100
AcDbText
 10
-6507.361504138031
 20
-28659.0099502011
 30
0.0
 40
0.02
  1
1480
 50
31.70789242611182
 72
     1
 11
-6507.333146180755
 21
-28658.99243057296
 31
0.0
100
AcDbAttribute
  2
NAME
 70
     1
  0
SEQEND
  5
145B6
330
145B4
100
AcDbEntity
  8
DCA_INFO
  0
INSERT
  5
145B7
330
2
100
AcDbEntity
  8
DCA_INFO
100
AcDbBlockReference
 66
     1
  2
PROJ_NAM
 10
-6526.399040967402
 20
-28645.47923686388
 30
0.0
 41
0.0999999999730819
 42
0.0999999999539796
 43
0.1
 50
31.70789239687185
1001
SDI_SETUP
1070
   305
1040
250.0
1070
   304
1040
50.0
1070
   130
1000
None
1070
   230
1070
     0
1070
   233
1070
     0
1070
   234
1070
     1
1070
   134
1000
None
1070
   330
1040
3.0
1070
   331
1040
50.0
1070
   332
1040
25.0
1070
   333
1040
25.0
1070
   334
1040
25.0
1070
   335
1040
707.0
1070
   336
1040
1000.0
1070
   231
1070
     1
1070
   232
1070
     0
  0
ATTRIB
  5
145B8
330
145B7
100
AcDbEntity
  8
0
100
AcDbText
 10
-6526.396202556168
 20
-28645.47747635733
 30
0.0
 40
0.02
  1
4013
 50
31.70789242611182
 72
     1
 11
-6526.367844598893
 21
-28645.45995672918
 31
0.0
100
AcDbAttribute
  2
NAME
 70
     1
  0
SEQEND
  5
145B9
330
145B7
100
AcDbEntity
  8
DCA_INFO
  0
INSERT
  5
145BA
330
2
100
AcDbEntity
  8
DCA_INFO
100
AcDbBlockReference
 66
     1
  2
PROJ_NAM
 10
-6526.399040967402
 20
-28645.47923686388
 30
0.0
 41
0.0999999999730819
 42
0.0999999999539796
 43
0.1
 50
31.70789239687185
1001
SDI_SETUP
1070
   305
1040
250.0
1070
   304
1040
50.0
1070
   130
1000
None
1070
   230
1070
     0
1070
   233
1070
     0
1070
   234
1070
     1
1070
   134
1000
None
1070
   330
1040
3.0
1070
   331
1040
50.0
1070
   332
1040
25.0
1070
   333
1040
25.0
1070
   334
1040
25.0
1070
   335
1040
707.0
1070
   336
1040
1000.0
1070
   231
1070
     1
1070
   232
1070
     0
  0
ATTRIB
  5
145BB
330
145BA
100
AcDbEntity
  8
0
100
AcDbText
 10
-6526.397823010869
 20
-28645.47847747893
 30
0.0
 40
0.02
  1
2307
 50
31.70789242611182
 72
     1
 11
-6526.367844598893
 21
-28645.45995672918
 31
0.0
100
AcDbAttribute
  2
NAME
 70
     1
  0
SEQEND
  5
145BC
330
145BA
100
AcDbEntity
  8
DCA_INFO
  0
INSERT
  5
145BD
330
2
100
AcDbEntity
  8
DCA_INFO
100
AcDbBlockReference
 66
     1
  2
PROJ_NAM
 10
-6526.399040967402
 20
-28645.47923686388
 30
0.0
 41
0.0999999999730819
 42
0.0999999999539796
 43
0.1
 50
31.70789239687185
1001
SDI_SETUP
1070
   305
1040
250.0
1070
   304
1040
100.0
1070
   130
1000
None
1070
   230
1070
     1
1070
   233
1070
     0
1070
   234
1070
     1
1070
   134
1000
None
1070
   330
1040
0.000002
1070
   331
1040
0.00005
1070
   332
1040
0.000025
1070
   333
1040
0.000025
1070
   334
1040
0.000025
1070
   335
1040
420.0
1070
   336
1040
594.0
1070
   231
1070
     1
1070
   232
1070
     0
1070
   133
1000
72
  0
ATTRIB
  5
145BE
330
145BD
100
AcDbEntity
  8
0
100
AcDbText
 10
-6526.395797442493
 20
-28645.47722607692
 30
0.0
 40
0.02
  1
1586
 50
31.70789242611182
 72
     1
 11
-6526.367844598893
 21
-28645.45995672918
 31
0.0
100
AcDbAttribute
  2
NAME
 70
     1
  0
SEQEND
  5
145BF
330
145BD
100
AcDbEntity
  8
DCA_INFO
  0
INSERT
  5
14EBB
330
2
100
AcDbEntity
  8
pitDCA_INFO
100
AcDbBlockReference
 66
     1
  2
PROJ_NAM
 10
199963.0558105743
 20
-708765.3677992169
 30
0.0
 50
31.70789242611182
1001
SDI_SETUP
1070
   305
1040
250.0
1070
   304
1040
50.0
1070
   130
1000
None
1070
   230
1070
     0
1070
   233
1070
     0
1070
   234
1070
     1
1070
   134
1000
None
1070
   330
1040
3.0
1070
   331
1040
50.0
1070
   332
1040
25.0
1070
   333
1040
25.0
1070
   334
1040
25.0
1070
   335
1040
707.0
1070
   336
1040
1000.0
1070
   231
1070
     1
1070
   232
1070
     0
  0
ATTRIB
  5
14EBC
330
14EBB
100
AcDbEntity
  8
0
100
AcDbText
 10
199963.0720412761
 20
-708765.3577025626
 30
0.0
 40
0.2
  1
5909
 50
31.70789242611182
 72
     1
 11
199963.3677742591
 21
-708765.1749978693
 31
0.0
100
AcDbAttribute
  2
NAME
 70
     1
  0
SEQEND
  5
14EBD
330
14EBB
100
AcDbEntity
  8
pitDCA_INFO
  0
INSERT
  5
1506C
330
2
100
AcDbEntity
  8
pitDCA_INFO
100
AcDbBlockReference
 66
     1
  2
PROJ_NAM
 10
199963.0558105743
 20
-708765.3677992169
 30
0.0
 50
31.70789242611182
1001
SDI_SETUP
1070
   305
1040
250.0
1070
   304
1040
50.0
1070
   130
1000
None
1070
   230
1070
     0
1070
   233
1070
     0
1070
   234
1070
     1
1070
   134
1000
None
1070
   330
1040
3.0
1070
   331
1040
50.0
1070
   332
1040
25.0
1070
   333
1040
25.0
1070
   334
1040
25.0
1070
   335
1040
707.0
1070
   336
1040
1000.0
1070
   231
1070
     1
1070
   232
1070
     0
  0
ATTRIB
  5
1506D
330
1506C
100
AcDbEntity
  8
0
100
AcDbText
 10
199963.0639390026
 20
-708765.3627081706
 30
0.0
 40
0.2
  1
5304
 50
31.70789242611182
 72
     1
 11
199963.3677742591
 21
-708765.1749978693
 31
0.0
100
AcDbAttribute
  2
NAME
 70
     1
  0
SEQEND
  5
1506E
330
1506C
100
AcDbEntity
  8
pitDCA_INFO
  0
INSERT
  5
15099
330
2
100
AcDbEntity
  8
pitDCA_INFO
100
AcDbBlockReference
 66
     1
  2
PROJ_NAM
 10
15518.46501974822
 20
-73823.83328587293
 30
0.0
 41
0.0999999999730819
 42
0.0999999999539796
 43
0.1
 50
31.70789239687185
1001
SDI_SETUP
1070
   305
1040
250.0
1070
   304
1040
50.0
1070
   130
1000
None
1070
   230
1070
     0
1070
   233
1070
     0
1070
   234
1070
     1
1070
   134
1000
None
1070
   330
1040
3.0
1070
   331
1040
50.0
1070
   332
1040
25.0
1070
   333
1040
25.0
1070
   334
1040
25.0
1070
   335
1040
707.0
1070
   336
1040
1000.0
1070
   231
1070
     1
1070
   232
1070
     0
  0
ATTRIB
  5
1509A
330
15099
100
AcDbEntity
  8
0
100
AcDbText
 10
15518.49054452527
 20
-73823.81750966374
 30
0.0
 40
0.02
  1
P
 50
31.70789242611182
 72
     1
 11
15518.49621611673
 21
-73823.81400573811
 31
0.0
100
AcDbAttribute
  2
NAME
 70
     1
  0
SEQEND
  5
1509B
330
15099
100
AcDbEntity
  8
pitDCA_INFO
  0
INSERT
  5
1509C
330
2
100
AcDbEntity
  8
pitDCA_INFO
100
AcDbBlockReference
 66
     1
  2
PROJ_NAM
 10
-6507.364342549265
 20
-28659.01171070778
 30
0.0
 41
0.0999999999730819
 42
0.0999999999539796
 43
0.1
 50
31.70789239687185
1001
SDI_SETUP
1070
   305
1040
250.0
1070
   304
1040
50.0
1070
   130
1000
None
1070
   230
1070
     0
1070
   233
1070
     0
1070
   234
1070
     1
1070
   134
1000
None
1070
   330
1040
3.0
1070
   331
1040
50.0
1070
   332
1040
25.0
1070
   333
1040
25.0
1070
   334
1040
25.0
1070
   335
1040
707.0
1070
   336
1040
1000.0
1070
   231
1070
     1
1070
   232
1070
     0
  0
ATTRIB
  5
1509D
330
1509C
100
AcDbEntity
  8
0
100
AcDbText
 10
-6507.362719479058
 20
-28659.01070104231
 30
0.0
 40
0.02
  1
3966
 50
31.70789242611182
 72
     1
 11
-6507.333146180755
 21
-28658.99243057296
 31
0.0
100
AcDbAttribute
  2
NAME
 70
     1
  0
SEQEND
  5
1509E
330
1509C
100
AcDbEntity
  8
pitDCA_INFO
  0
INSERT
  5
1509F
330
2
100
AcDbEntity
  8
pitDCA_INFO
100
AcDbBlockReference
 66
     1
  2
PROJ_NAM
 10
-6507.364342549265
 20
-28659.01171070778
 30
0.0
 41
0.0999999999730819
 42
0.0999999999539796
 43
0.1
 50
31.70789239687185
  0
ATTRIB
  5
150A0
330
1509F
100
AcDbEntity
  8
0
100
AcDbText
 10
-6507.362719479058
 20
-28659.01070104231
 30
0.0
 40
0.02
  1
3256
 50
31.70789242611182
 72
     1
 11
-6507.333146180755
 21
-28658.99243057296
 31
0.0
100
AcDbAttribute
  2
NAME
 70
     1
  0
SEQEND
  5
150A1
330
1509F
100
AcDbEntity
  8
pitDCA_INFO
  0
INSERT
  5
150A2
330
2
100
AcDbEntity
  8
pitDCA_INFO
100
AcDbBlockReference
 66
     1
  2
PROJ_NAM
 10
-6507.364342549265
 20
-28659.01171070778
 30
0.0
 41
0.0999999999730819
 42
0.0999999999539796
 43
0.1
 50
31.70789239687185
  0
ATTRIB
  5
150A3
330
150A2
100
AcDbEntity
  8
0
100
AcDbText
 10
-6507.363124592732
 20
-28659.01095132271
 30
0.0
 40
0.02
  1
2982
 50
31.70789242611182
 72
     1
 11
-6507.333146180755
 21
-28658.99243057296
 31
0.0
100
AcDbAttribute
  2
NAME
 70
     1
  0
SEQEND
  5
150A4
330
150A2
100
AcDbEntity
  8
pitDCA_INFO
  0
INSERT
  5
150A5
330
2
100
AcDbEntity
  8
pitDCA_INFO
100
AcDbBlockReference
 66
     1
  2
PROJ_NAM
 10
-6507.364342549265
 20
-28659.01171070778
 30
0.0
 41
0.0999999999730819
 42
0.0999999999539796
 43
0.1
 50
31.70789239687185
1001
SDI_SETUP
1070
   305
1040
250.0
1070
   304
1040
50.0
1070
   130
1000
None
1070
   230
1070
     0
1070
   233
1070
     0
1070
   234
1070
     1
1070
   134
1000
None
1070
   330
1040
3.0
1070
   331
1040
50.0
1070
   332
1040
25.0
1070
   333
1040
25.0
1070
   334
1040
25.0
1070
   335
1040
707.0
1070
   336
1040
1000.0
1070
   231
1070
     1
1070
   232
1070
     0
  0
ATTRIB
  5
150A6
330
150A5
100
AcDbEntity
  8
0
100
AcDbText
 10
-6507.363124592732
 20
-28659.01095132271
 30
0.0
 40
0.02
  1
2982
 50
31.70789242611182
 72
     1
 11
-6507.333146180755
 21
-28658.99243057296
 31
0.0
100
AcDbAttribute
  2
NAME
 70
     1
  0
SEQEND
  5
150A7
330
150A5
100
AcDbEntity
  8
pitDCA_INFO
  0
INSERT
  5
150A8
330
2
100
AcDbEntity
  8
pitDCA_INFO
100
AcDbBlockReference
 66
     1
  2
PROJ_NAM
 10
-6507.364342549265
 20
-28659.01171070778
 30
0.0
 41
0.0999999999730819
 42
0.0999999999539796
 43
0.1
 50
31.70789239687185
1001
SDI_SETUP
1070
   305
1040
250.0
1070
   304
1040
50.0
1070
   130
1000
None
1070
   230
1070
     0
1070
   233
1070
     0
1070
   234
1070
     1
1070
   134
1000
None
1070
   330
1040
3.0
1070
   331
1040
50.0
1070
   332
1040
25.0
1070
   333
1040
25.0
1070
   334
1040
25.0
1070
   335
1040
707.0
1070
   336
1040
1000.0
1070
   231
1070
     1
1070
   232
1070
     0
  0
ATTRIB
  5
150A9
330
150A8
100
AcDbEntity
  8
0
100
AcDbText
 10
-6507.361504138031
 20
-28659.0099502011
 30
0.0
 40
0.02
  1
1365
 50
31.70789242611182
 72
     1
 11
-6507.333146180755
 21
-28658.99243057296
 31
0.0
100
AcDbAttribute
  2
NAME
 70
     1
  0
SEQEND
  5
150AA
330
150A8
100
AcDbEntity
  8
pitDCA_INFO
  0
INSERT
  5
150AB
330
2
100
AcDbEntity
  8
pitDCA_INFO
100
AcDbBlockReference
 66
     1
  2
PROJ_NAM
 10
-6507.364342549265
 20
-28659.01171070778
 30
0.0
 41
0.0999999999730819
 42
0.0999999999539796
 43
0.1
 50
31.70789239687185
1001
SDI_SETUP
1070
   305
1040
1250.0
1070
   304
1040
1.0
1070
   130
1000
FRACTION
1070
   230
1070
     0
1070
   233
1070
     0
1070
   234
1070
     1
1070
   134
1000
None
1070
   330
1040
3.0
1070
   331
1040
50.0
1070
   332
1040
25.0
1070
   333
1040
25.0
1070
   334
1040
25.0
1070
   335
1040
594.0
1070
   336
1040
841.0
1070
   231
1070
     0
1070
   232
1070
     0
  0
ATTRIB
  5
150AC
330
150AB
100
AcDbEntity
  8
0
100
AcDbText
 10
-6507.361504138031
 20
-28659.0099502011
 30
0.0
 40
0.02
  1
1480
 50
31.70789242611182
 72
     1
 11
-6507.333146180755
 21
-28658.99243057296
 31
0.0
100
AcDbAttribute
  2
NAME
 70
     1
  0
SEQEND
  5
150AD
330
150AB
100
AcDbEntity
  8
pitDCA_INFO
  0
INSERT
  5
150AE
330
2
100
AcDbEntity
  8
pitDCA_INFO
100
AcDbBlockReference
 66
     1
  2
PROJ_NAM
 10
-6526.399040967402
 20
-28645.47923686388
 30
0.0
 41
0.0999999999730819
 42
0.0999999999539796
 43
0.1
 50
31.70789239687185
1001
SDI_SETUP
1070
   305
1040
250.0
1070
   304
1040
50.0
1070
   130
1000
None
1070
   230
1070
     0
1070
   233
1070
     0
1070
   234
1070
     1
1070
   134
1000
None
1070
   330
1040
3.0
1070
   331
1040
50.0
1070
   332
1040
25.0
1070
   333
1040
25.0
1070
   334
1040
25.0
1070
   335
1040
707.0
1070
   336
1040
1000.0
1070
   231
1070
     1
1070
   232
1070
     0
  0
ATTRIB
  5
150AF
330
150AE
100
AcDbEntity
  8
0
100
AcDbText
 10
-6526.396202556168
 20
-28645.47747635733
 30
0.0
 40
0.02
  1
4013
 50
31.70789242611182
 72
     1
 11
-6526.367844598893
 21
-28645.45995672918
 31
0.0
100
AcDbAttribute
  2
NAME
 70
     1
  0
SEQEND
  5
150B0
330
150AE
100
AcDbEntity
  8
pitDCA_INFO
  0
INSERT
  5
150B1
330
2
100
AcDbEntity
  8
pitDCA_INFO
100
AcDbBlockReference
 66
     1
  2
PROJ_NAM
 10
-6526.399040967402
 20
-28645.47923686388
 30
0.0
 41
0.0999999999730819
 42
0.0999999999539796
 43
0.1
 50
31.70789239687185
1001
SDI_SETUP
1070
   305
1040
250.0
1070
   304
1040
50.0
1070
   130
1000
None
1070
   230
1070
     0
1070
   233
1070
     0
1070
   234
1070
     1
1070
   134
1000
None
1070
   330
1040
3.0
1070
   331
1040
50.0
1070
   332
1040
25.0
1070
   333
1040
25.0
1070
   334
1040
25.0
1070
   335
1040
707.0
1070
   336
1040
1000.0
1070
   231
1070
     1
1070
   232
1070
     0
  0
ATTRIB
  5
150B2
330
150B1
100
AcDbEntity
  8
0
100
AcDbText
 10
-6526.397823010869
 20
-28645.47847747893
 30
0.0
 40
0.02
  1
2307
 50
31.70789242611182
 72
     1
 11
-6526.367844598893
 21
-28645.45995672918
 31
0.0
100
AcDbAttribute
  2
NAME
 70
     1
  0
SEQEND
  5
150B3
330
150B1
100
AcDbEntity
  8
pitDCA_INFO
  0
INSERT
  5
150B4
330
2
100
AcDbEntity
  8
pitDCA_INFO
100
AcDbBlockReference
 66
     1
  2
PROJ_NAM
 10
-6526.399040967402
 20
-28645.47923686388
 30
0.0
 41
0.0999999999730819
 42
0.0999999999539796
 43
0.1
 50
31.70789239687185
1001
SDI_SETUP
1070
   305
1040
250.0
1070
   304
1040
100.0
1070
   130
1000
None
1070
   230
1070
     1
1070
   233
1070
     0
1070
   234
1070
     1
1070
   134
1000
None
1070
   330
1040
0.000002
1070
   331
1040
0.00005
1070
   332
1040
0.000025
1070
   333
1040
0.000025
1070
   334
1040
0.000025
1070
   335
1040
420.0
1070
   336
1040
594.0
1070
   231
1070
     1
1070
   232
1070
     0
1070
   133
1000
72
  0
ATTRIB
  5
150B5
330
150B4
100
AcDbEntity
  8
0
100
AcDbText
 10
-6526.395797442493
 20
-28645.47722607692
 30
0.0
 40
0.02
  1
1586
 50
31.70789242611182
 72
     1
 11
-6526.367844598893
 21
-28645.45995672918
 31
0.0
100
AcDbAttribute
  2
NAME
 70
     1
  0
SEQEND
  5
150B6
330
150B4
100
AcDbEntity
  8
pitDCA_INFO
  0
INSERT
  5
150B7
330
2
100
AcDbEntity
  8
0
100
AcDbBlockReference
 66
     1
  2
TR_CONF
 10
-6526.399040967402
 20
-28645.47923686388
 30
0.0
 41
0.0999999999730819
 42
0.0999999999539796
 43
0.1
 50
31.70789239687185
1001
TR_DXF
1040
1.25
1040
200.0
1040
2.1
1040
0.7
1040
1.8
1040
3.0
1040
3.0
1040
1.5
1040
1250.0
1040
1.0
1040
0.02
1040
0.0
1040
0.0
1040
0.0
1040
3.0
1040
0.001
1000

1000

  0
SEQEND
  5
150B8
330
150B7
100
AcDbEntity
  8
0
  0
INSERT
  5
150B9
330
2
100
AcDbEntity
  8
pitDCA_INFO
100
AcDbBlockReference
 66
     1
  2
PROJ_NAM
 10
-19861.67288780326
 20
-257744.9953517214
 30
0.0
 50
31.70789242611182
1001
SDI_SETUP
1070
   305
1040
250.0
1070
   304
1040
50.0
1070
   130
1000
None
1070
   230
1070
     0
1070
   233
1070
     0
1070
   234
1070
     1
1070
   134
1000
None
1070
   330
1040
3.0
1070
   331
1040
50.0
1070
   332
1040
25.0
1070
   333
1040
25.0
1070
   334
1040
25.0
1070
   335
1040
707.0
1070
   336
1040
1000.0
1070
   231
1070
     1
1070
   232
1070
     0
  0
ATTRIB
  5
150BA
330
150B9
100
AcDbEntity
  8
0
100
AcDbText
 10
-19861.66070823825
 20
-257744.987757871
 30
0.0
 40
0.2
  1
4738
 50
31.70789242611182
 72
     1
 11
-19861.36092411848
 21
-257744.8025503735
 31
0.0
100
AcDbAttribute
  2
NAME
 70
     1
  0
SEQEND
  5
150BB
330
150B9
100
AcDbEntity
  8
pitDCA_INFO
  0
INSERT
  5
150BC
330
2
100
AcDbEntity
  8
pitDCA_INFO
100
AcDbBlockReference
 66
     1
  2
PROJ_NAM
 10
-5219.713537885052
 20
-3574.443554093461
 30
0.0
 50
27.26889038819678
1001
SDI_SETUP
1070
   305
1040
250.0
1070
   304
1040
50.0
1070
   130
1000
None
1070
   230
1070
     0
1070
   233
1070
     0
1070
   234
1070
     1
1070
   134
1000
None
1070
   330
1040
3.0
1070
   331
1040
50.0
1070
   332
1040
25.0
1070
   333
1040
25.0
1070
   334
1040
25.0
1070
   335
1040
707.0
1070
   336
1040
1000.0
1070
   231
1070
     1
1070
   232
1070
     0
  0
ATTRIB
  5
150BD
330
150BC
100
AcDbEntity
  8
0
100
AcDbText
 10
-5219.683876325066
 20
-3574.428198702658
 30
0.0
 40
0.2
  1
2153
 50
27.26889038819678
 72
     1
 11
-5219.387587614272
 21
-3574.275476369756
 31
0.0
100
AcDbAttribute
  2
NAME
 70
     1
  0
SEQEND
  5
150BE
330
150BC
100
AcDbEntity
  8
pitDCA_INFO
  0
TEXT
  5
150BF
330
2
100
AcDbEntity
  8
pitCTACK
100
AcDbText
 10
-5122.608618858245
 20
-3101.365527215409
 30
0.0
 40
0.4
  1
 
 50
27.26889038819678
  7
SIVAN
 72
     2
 11
-5122.28693397224
 21
-3101.199714396829
 31
0.0
100
AcDbText
  0
INSERT
  5
150C0
330
2
100
AcDbEntity
  8
pitDCA_INFO
100
AcDbBlockReference
 66
     1
  2
PROJ_NAM
 10
15518.46501974822
 20
-73823.83328587293
 30
0.0
 41
0.0999999999730819
 42
0.0999999999539796
 43
0.1
 50
31.70789239687185
1001
SDI_SETUP
1070
   305
1040
250.0
1070
   304
1040
50.0
1070
   130
1000
None
1070
   230
1070
     0
1070
   233
1070
     0
1070
   234
1070
     1
1070
   134
1000
None
1070
   330
1040
3.0
1070
   331
1040
50.0
1070
   332
1040
25.0
1070
   333
1040
25.0
1070
   334
1040
25.0
1070
   335
1040
707.0
1070
   336
1040
1000.0
1070
   231
1070
     1
1070
   232
1070
     0
  0
ATTRIB
  5
150C1
330
150C0
100
AcDbEntity
  8
0
100
AcDbText
 10
15518.49054452527
 20
-73823.81750966374
 30
0.0
 40
0.02
  1
P
 50
31.70789242611182
 72
     1
 11
15518.49621611673
 21
-73823.81400573811
 31
0.0
100
AcDbAttribute
  2
NAME
 70
     1
  0
SEQEND
  5
150C2
330
150C0
100
AcDbEntity
  8
pitDCA_INFO
  0
INSERT
  5
150C3
330
2
100
AcDbEntity
  8
pitDCA_INFO
100
AcDbBlockReference
 66
     1
  2
PROJ_NAM
 10
-6507.364342549265
 20
-28659.01171070778
 30
0.0
 41
0.0999999999730819
 42
0.0999999999539796
 43
0.1
 50
31.70789239687185
1001
SDI_SETUP
1070
   305
1040
250.0
1070
   304
1040
50.0
1070
   130
1000
None
1070
   230
1070
     0
1070
   233
1070
     0
1070
   234
1070
     1
1070
   134
1000
None
1070
   330
1040
3.0
1070
   331
1040
50.0
1070
   332
1040
25.0
1070
   333
1040
25.0
1070
   334
1040
25.0
1070
   335
1040
707.0
1070
   336
1040
1000.0
1070
   231
1070
     1
1070
   232
1070
     0
  0
ATTRIB
  5
150C4
330
150C3
100
AcDbEntity
  8
0
100
AcDbText
 10
-6507.362719479058
 20
-28659.01070104231
 30
0.0
 40
0.02
  1
3966
 50
31.70789242611182
 72
     1
 11
-6507.333146180755
 21
-28658.99243057296
 31
0.0
100
AcDbAttribute
  2
NAME
 70
     1
  0
SEQEND
  5
150C5
330
150C3
100
AcDbEntity
  8
pitDCA_INFO
  0
INSERT
  5
150C6
330
2
100
AcDbEntity
  8
pitDCA_INFO
100
AcDbBlockReference
 66
     1
  2
PROJ_NAM
 10
-6507.364342549265
 20
-28659.01171070778
 30
0.0
 41
0.0999999999730819
 42
0.0999999999539796
 43
0.1
 50
31.70789239687185
  0
ATTRIB
  5
150C7
330
150C6
100
AcDbEntity
  8
0
100
AcDbText
 10
-6507.362719479058
 20
-28659.01070104231
 30
0.0
 40
0.02
  1
3256
 50
31.70789242611182
 72
     1
 11
-6507.333146180755
 21
-28658.99243057296
 31
0.0
100
AcDbAttribute
  2
NAME
 70
     1
  0
SEQEND
  5
150C8
330
150C6
100
AcDbEntity
  8
pitDCA_INFO
  0
INSERT
  5
150C9
330
2
100
AcDbEntity
  8
pitDCA_INFO
100
AcDbBlockReference
 66
     1
  2
PROJ_NAM
 10
-6507.364342549265
 20
-28659.01171070778
 30
0.0
 41
0.0999999999730819
 42
0.0999999999539796
 43
0.1
 50
31.70789239687185
  0
ATTRIB
  5
150CA
330
150C9
100
AcDbEntity
  8
0
100
AcDbText
 10
-6507.363124592732
 20
-28659.01095132271
 30
0.0
 40
0.02
  1
2982
 50
31.70789242611182
 72
     1
 11
-6507.333146180755
 21
-28658.99243057296
 31
0.0
100
AcDbAttribute
  2
NAME
 70
     1
  0
SEQEND
  5
150CB
330
150C9
100
AcDbEntity
  8
pitDCA_INFO
  0
INSERT
  5
150CC
330
2
100
AcDbEntity
  8
pitDCA_INFO
100
AcDbBlockReference
 66
     1
  2
PROJ_NAM
 10
-6507.364342549265
 20
-28659.01171070778
 30
0.0
 41
0.0999999999730819
 42
0.0999999999539796
 43
0.1
 50
31.70789239687185
1001
SDI_SETUP
1070
   305
1040
250.0
1070
   304
1040
50.0
1070
   130
1000
None
1070
   230
1070
     0
1070
   233
1070
     0
1070
   234
1070
     1
1070
   134
1000
None
1070
   330
1040
3.0
1070
   331
1040
50.0
1070
   332
1040
25.0
1070
   333
1040
25.0
1070
   334
1040
25.0
1070
   335
1040
707.0
1070
   336
1040
1000.0
1070
   231
1070
     1
1070
   232
1070
     0
  0
ATTRIB
  5
150CD
330
150CC
100
AcDbEntity
  8
0
100
AcDbText
 10
-6507.363124592732
 20
-28659.01095132271
 30
0.0
 40
0.02
  1
2982
 50
31.70789242611182
 72
     1
 11
-6507.333146180755
 21
-28658.99243057296
 31
0.0
100
AcDbAttribute
  2
NAME
 70
     1
  0
SEQEND
  5
150CE
330
150CC
100
AcDbEntity
  8
pitDCA_INFO
  0
INSERT
  5
150CF
330
2
100
AcDbEntity
  8
pitDCA_INFO
100
AcDbBlockReference
 66
     1
  2
PROJ_NAM
 10
-6507.364342549265
 20
-28659.01171070778
 30
0.0
 41
0.0999999999730819
 42
0.0999999999539796
 43
0.1
 50
31.70789239687185
1001
SDI_SETUP
1070
   305
1040
250.0
1070
   304
1040
50.0
1070
   130
1000
None
1070
   230
1070
     0
1070
   233
1070
     0
1070
   234
1070
     1
1070
   134
1000
None
1070
   330
1040
3.0
1070
   331
1040
50.0
1070
   332
1040
25.0
1070
   333
1040
25.0
1070
   334
1040
25.0
1070
   335
1040
707.0
1070
   336
1040
1000.0
1070
   231
1070
     1
1070
   232
1070
     0
  0
ATTRIB
  5
150D0
330
150CF
100
AcDbEntity
  8
0
100
AcDbText
 10
-6507.361504138031
 20
-28659.0099502011
 30
0.0
 40
0.02
  1
1365
 50
31.70789242611182
 72
     1
 11
-6507.333146180755
 21
-28658.99243057296
 31
0.0
100
AcDbAttribute
  2
NAME
 70
     1
  0
SEQEND
  5
150D1
330
150CF
100
AcDbEntity
  8
pitDCA_INFO
  0
INSERT
  5
150D2
330
2
100
AcDbEntity
  8
pitDCA_INFO
100
AcDbBlockReference
 66
     1
  2
PROJ_NAM
 10
-6507.364342549265
 20
-28659.01171070778
 30
0.0
 41
0.0999999999730819
 42
0.0999999999539796
 43
0.1
 50
31.70789239687185
1001
SDI_SETUP
1070
   305
1040
1250.0
1070
   304
1040
1.0
1070
   130
1000
FRACTION
1070
   230
1070
     0
1070
   233
1070
     0
1070
   234
1070
     1
1070
   134
1000
None
1070
   330
1040
3.0
1070
   331
1040
50.0
1070
   332
1040
25.0
1070
   333
1040
25.0
1070
   334
1040
25.0
1070
   335
1040
594.0
1070
   336
1040
841.0
1070
   231
1070
     0
1070
   232
1070
     0
  0
ATTRIB
  5
150D3
330
150D2
100
AcDbEntity
  8
0
100
AcDbText
 10
-6507.361504138031
 20
-28659.0099502011
 30
0.0
 40
0.02
  1
1480
 50
31.70789242611182
 72
     1
 11
-6507.333146180755
 21
-28658.99243057296
 31
0.0
100
AcDbAttribute
  2
NAME
 70
     1
  0
SEQEND
  5
150D4
330
150D2
100
AcDbEntity
  8
pitDCA_INFO
  0
INSERT
  5
150D5
330
2
100
AcDbEntity
  8
pitDCA_INFO
100
AcDbBlockReference
 66
     1
  2
PROJ_NAM
 10
-6526.399040967402
 20
-28645.47923686388
 30
0.0
 41
0.0999999999730819
 42
0.0999999999539796
 43
0.1
 50
31.70789239687185
1001
SDI_SETUP
1070
   305
1040
250.0
1070
   304
1040
50.0
1070
   130
1000
None
1070
   230
1070
     0
1070
   233
1070
     0
1070
   234
1070
     1
1070
   134
1000
None
1070
   330
1040
3.0
1070
   331
1040
50.0
1070
   332
1040
25.0
1070
   333
1040
25.0
1070
   334
1040
25.0
1070
   335
1040
707.0
1070
   336
1040
1000.0
1070
   231
1070
     1
1070
   232
1070
     0
  0
ATTRIB
  5
150D6
330
150D5
100
AcDbEntity
  8
0
100
AcDbText
 10
-6526.396202556168
 20
-28645.47747635733
 30
0.0
 40
0.02
  1
4013
 50
31.70789242611182
 72
     1
 11
-6526.367844598893
 21
-28645.45995672918
 31
0.0
100
AcDbAttribute
  2
NAME
 70
     1
  0
SEQEND
  5
150D7
330
150D5
100
AcDbEntity
  8
pitDCA_INFO
  0
INSERT
  5
150D8
330
2
100
AcDbEntity
  8
pitDCA_INFO
100
AcDbBlockReference
 66
     1
  2
PROJ_NAM
 10
-6526.399040967402
 20
-28645.47923686388
 30
0.0
 41
0.0999999999730819
 42
0.0999999999539796
 43
0.1
 50
31.70789239687185
1001
SDI_SETUP
1070
   305
1040
250.0
1070
   304
1040
50.0
1070
   130
1000
None
1070
   230
1070
     0
1070
   233
1070
     0
1070
   234
1070
     1
1070
   134
1000
None
1070
   330
1040
3.0
1070
   331
1040
50.0
1070
   332
1040
25.0
1070
   333
1040
25.0
1070
   334
1040
25.0
1070
   335
1040
707.0
1070
   336
1040
1000.0
1070
   231
1070
     1
1070
   232
1070
     0
  0
ATTRIB
  5
150D9
330
150D8
100
AcDbEntity
  8
0
100
AcDbText
 10
-6526.397823010869
 20
-28645.47847747893
 30
0.0
 40
0.02
  1
2307
 50
31.70789242611182
 72
     1
 11
-6526.367844598893
 21
-28645.45995672918
 31
0.0
100
AcDbAttribute
  2
NAME
 70
     1
  0
SEQEND
  5
150DA
330
150D8
100
AcDbEntity
  8
pitDCA_INFO
  0
INSERT
  5
150DB
330
2
100
AcDbEntity
  8
pitDCA_INFO
100
AcDbBlockReference
 66
     1
  2
PROJ_NAM
 10
-6526.399040967402
 20
-28645.47923686388
 30
0.0
 41
0.0999999999730819
 42
0.0999999999539796
 43
0.1
 50
31.70789239687185
1001
SDI_SETUP
1070
   305
1040
250.0
1070
   304
1040
100.0
1070
   130
1000
None
1070
   230
1070
     1
1070
   233
1070
     0
1070
   234
1070
     1
1070
   134
1000
None
1070
   330
1040
0.000002
1070
   331
1040
0.00005
1070
   332
1040
0.000025
1070
   333
1040
0.000025
1070
   334
1040
0.000025
1070
   335
1040
420.0
1070
   336
1040
594.0
1070
   231
1070
     1
1070
   232
1070
     0
1070
   133
1000
72
  0
ATTRIB
  5
150DC
330
150DB
100
AcDbEntity
  8
0
100
AcDbText
 10
-6526.395797442493
 20
-28645.47722607692
 30
0.0
 40
0.02
  1
1586
 50
31.70789242611182
 72
     1
 11
-6526.367844598893
 21
-28645.45995672918
 31
0.0
100
AcDbAttribute
  2
NAME
 70
     1
  0
SEQEND
  5
150DD
330
150DB
100
AcDbEntity
  8
pitDCA_INFO
  0
MTEXT
  5
16D04
330
2
100
AcDbEntity
  8
0
 62
     4
100
AcDbMText
 10
-3219.697727072416
 20
-2784.111636183464
 30
0.0
 40
20.0
 41
0.0
 71
     7
 72
     1
  1

  7
MONOSI
 73
     1
 44
1.0
  0
MTEXT
  5
185B1
330
2
100
AcDbEntity
  8
railm
 62
     4
100
AcDbMText
 10
-21246.0793180018
 20
75.68761986357277
 30
0.0
 40
20.0
 41
0.0
 71
     9
 72
     1
  1

  7
MONOSI
 73
     1
 44
1.0
  0
MTEXT
  5
195DE
330
2
100
AcDbEntity
  8
0
 62
     4
100
AcDbMText
 10
-49983.44263511911
 20
293.1965231125823
 30
0.0
 40
20.0
 41
0.0
 71
     7
 72
     1
  1

  7
MONOSI
 73
     1
 44
1.0
  0
MTEXT
  5
196AC
330
2
100
AcDbEntity
  8
BETON
 62
     4
100
AcDbMText
 10
-50691.65627848764
 20
234.563190772792
 30
0.0
 40
20.0
 41
0.0
 71
     9
 72
     1
  1

  7
MONOSI
 73
     1
 44
1.0
  0
MTEXT
  5
2B62A
330
2
100
AcDbEntity
  8
0
 62
     4
100
AcDbMText
 10
-21583.73385703965
 20
4705.719782104294
 30
0.0
 40
15.0
 41
0.0
 71
     9
 72
     1
  1

  7
MONOSI
 73
     1
 44
1.0
  0
MTEXT
  5
2BC60
330
2
100
AcDbEntity
  8
0
 62
     4
100
AcDbMText
 10
-18261.97070158625
 20
8609.064072192763
 30
0.0
 40
15.0
 41
0.0
 71
     7
 72
     1
  1

  7
MONOSI
 73
     1
 44
1.0
  0
MTEXT
  5
2DCD5
330
2
100
AcDbEntity
  8
0
 62
     4
100
AcDbMText
 10
-18177.49526087584
 20
6902.372654495251
 30
0.0
 40
15.0
 41
0.0
 71
     7
 72
     1
  1

  7
MONOSI
 73
     1
 44
1.0
  0
MTEXT
  5
332B4
330
2
100
AcDbEntity
  8
0
100
AcDbMText
 10
-24898.19720789647
 20
539.7917697814846
 30
0.0
 40
15.0
 41
0.0
 71
     9
 72
     1
  1

  7
MONOSI
 73
     1
 44
1.0
  0
MTEXT
  5
332C4
330
2
100
AcDbEntity
  8
0
100
AcDbMText
 10
-25370.14553679752
 20
6406.433922221811
 30
0.0
 40
15.0
 41
0.0
 71
     7
 72
     1
  1

  7
MONOSI
 73
     1
 44
1.0
  0
TEXT
  5
5CAED
330
2
100
AcDbEntity
  8
None
  6
Continuous
 62
     7
370
     0
100
AcDbText
 10
3998.768746297052
 20
1690.281680970883
 30
0.0
 40
1.264350839843749
  1

  7
Arial (italic)
100
AcDbText
  0
MTEXT
  5
672EC
330
2
100
AcDbEntity
  8
0
 62
     4
100
AcDbMText
 10
413.966623388004
 20
344.58767274219
 30
0.0
 40
15.0
 41
0.0
 71
     9
 72
     1
  1

  7
MONOSI
 73
     1
 44
1.0
  0
LINE
  5
67856
330
2
100
AcDbEntity
  8
AK-BT
100
AcDbLine
 10
-22.29785872315289
 20
-27.36109599063746
 30
0.0
 11
-22.29785872315233
 21
-99.4670684947178
 31
0.0
  0
LINE
  5
67857
330
2
100
AcDbEntity
  8
AK-TIH
100
AcDbLine
 10
-21.09785872315308
 20
-27.53532378816544
 30
0.0
 11
-21.09785872315217
 21
-123.6480206316151
 31
0.0
  0
LINE
  5
67858
330
2
100
AcDbEntity
  8
AK-TIH
100
AcDbLine
 10
-43.79785872315278
 20
-24.23951461826181
 30
0.0
 11
-43.79785872315278
 21
-56.3748449329633
 31
0.0
  0
LINE
  5
67859
330
2
100
AcDbEntity
  8
AK-BT
100
AcDbLine
 10
-42.29785872315278
 20
-24.45729936517182
 30
0.0
 11
-42.29785872315233
 21
-74.4670684947178
 31
0.0
  0
LWPOLYLINE
  5
6785A
330
2
100
AcDbEntity
  8
AK-LN2
100
AcDbPolyline
 90
        6
 70
     0
 43
0.0
 10
-182.3991043145397
 20
-63.50188507918034
 10
-185.3446195723472
 20
-83.78922360678377
 10
-184.6758109966645
 20
-84.31667875477257
 10
-186.2581986873724
 20
-84.94763404040538
 10
-185.5893901116896
 20
-85.47508918839417
 10
-188.1116986681836
 20
-102.8475768782864
  0
LINE
  5
6785B
330
2
100
AcDbEntity
  8
AK-TIH
100
AcDbLine
 10
-43.79785872315278
 20
-100.9670684947177
 30
0.0
 11
-91.94392377436452
 21
-100.9670684947177
 31
0.0
  0
LINE
  5
6785C
330
2
100
AcDbEntity
  8
AK-RAS1
100
AcDbLine
 10
-60.12901383424469
 20
-72.61706849471204
 30
0.0
 11
-49.0516403744632
 21
-72.61706849471199
 31
0.0
  0
LINE
  5
6785D
102
{ACAD_REACTORS
330
67B8D
102
}
330
2
100
AcDbEntity
  8
AK-RAS1
100
AcDbLine
 10
-61.07127084773424
 20
-66.37724062435705
 30
0.0
 11
-43.89908398606713
 21
-66.37724062435705
 31
0.0
  0
LINE
  5
6785E
102
{ACAD_REACTORS
330
678F5
102
}
330
2
100
AcDbEntity
  8
AK-BT
100
AcDbLine
 10
-183.9911374445218
 20
-74.4670684947178
 30
0.0
 11
-151.9439237743645
 21
-74.4670684947178
 31
0.0
  0
LWPOLYLINE
  5
6785F
102
{ACAD_REACTORS
330
67B8D
102
}
330
2
100
AcDbEntity
  8
AK-RAS1
100
AcDbPolyline
 90
        8
 70
     0
 43
0.0
 10
-60.72281525267817
 20
-68.77724062435851
 10
-46.36807855680399
 20
-68.77724062435851
 42
0.4292125925937424
 10
-43.41094391241859
 20
-65.66550757244664
 10
-43.41094391241949
 20
-61.9167755080835
 10
-43.81094391241913
 20
-61.9167755080835
 10
-43.81094391241913
 20
-65.66771834282377
 42
-0.3980757505087231
 10
-46.37434109157766
 20
-68.37724062435706
 10
-60.78089118518767
 20
-68.37724062435706
  0
LWPOLYLINE
  5
67860
330
2
100
AcDbEntity
  8
AK-RAS1
100
AcDbPolyline
 90
        8
 70
     0
 43
0.0
 10
-60.12901383424457
 20
-72.36706849471199
 10
-49.0516403744632
 20
-72.36706849471199
 42
0.4131675910078742
 10
-43.03649800156972
 20
-66.37337686314101
 10
-43.03649800157018
 20
-57.05502857528159
 10
-42.53649682430841
 20
-57.05502857528159
 10
-42.53649682430841
 20
-66.37337686314101
 42
-0.4151798693015415
 10
-49.0516403744632
 20
-72.86706849471198
 10
-60.12901383424457
 20
-72.86706849471198
  0
LINE
  5
67861
330
2
100
AcDbEntity
  8
AK-BT
100
AcDbLine
 10
-187.6208832263546
 20
-99.4670684947178
 30
0.0
 11
-141.9439237743645
 21
-99.4670684947178
 31
0.0
  0
LINE
  5
67862
330
2
100
AcDbEntity
  8
AK-RAS1
100
AcDbLine
 10
-42.78649682430841
 20
-66.37337686314828
 30
0.0
 11
-42.78649682430841
 21
-57.05502857528159
 31
0.0
  0
LINE
  5
67863
330
2
100
AcDbEntity
  8
AK-RAS1
100
AcDbLine
 10
-43.03649800157018
 20
-61.9167755080835
 30
0.0
 11
-43.41094391241949
 21
-61.9167755080835
 31
0.0
  0
HATCH
  5
67864
330
2
100
AcDbEntity
  8
HATCH9
100
AcDbHatch
 10
0.0
 20
0.0
 30
0.0
210
0.0
220
0.0
230
1.0
  2
ANSI31
 70
     0
 71
     0
 91
        1
 92
        7
 72
     0
 73
     1
 93
        3
 10
-42.29785872315233
 20
-74.4670684947178
 10
-42.29785872315233
 20
-69.4770974649129
 10
-47.28782975295826
 20
-74.4670684947178
 97
        0
 75
     0
 76
     1
 52
90.0
 41
3.0
 77
     0
 78
     1
 53
135.0
 43
-508.4448838365183
 44
-290.3551284249751
 45
-0.2651650429449553
 46
-0.2651650429449553
 79
     0
 47
0.0244294620225656
 98
        1
 10
-43.33946536102575
 20
-73.48591077959833
  0
LINE
  5
67865
330
2
100
AcDbEntity
  8
AK-RAS1
100
AcDbLine
 10
-47.28782975295826
 20
-74.4670684947178
 30
0.0
 11
-42.29785872315233
 21
-69.47709746491279
 31
0.0
  0
ARC
  5
67866
330
2
100
AcDbEntity
  8
AK-RAS1
100
AcDbCircle
 10
-49.0148504195622
 20
-66.38688171573273
 30
0.0
 40
6.228367671426298
100
AcDbArc
 50
269.6746216668612
 51
0.1194392872748248
  0
LINE
  5
67867
330
2
100
AcDbEntity
  8
AK-AVIZAR
100
AcDbLine
 10
-42.25074709421005
 20
-57.95273328302397
 30
0.0
 11
-39.15074709421014
 21
-57.95273328302397
 31
0.0
  0
LINE
  5
67868
330
2
100
AcDbEntity
  8
AK-AVIZAR
100
AcDbLine
 10
-42.25074709421005
 20
-57.90273328302106
 30
0.0
 11
-39.15074709421014
 21
-57.90273328302106
 31
0.0
  0
LINE
  5
67869
330
2
100
AcDbEntity
  8
AK-AVIZAR
100
AcDbLine
 10
-40.5606042969407
 20
-57.52773328302106
 30
0.0
 11
-41.57372770684014
 21
-57.15576097069249
 31
0.0
  0
LINE
  5
6786A
330
2
100
AcDbEntity
  8
AK-AVIZAR
100
AcDbLine
 10
-40.5606042969407
 20
-58.32773328302398
 30
0.0
 11
-41.5737277068406
 21
-58.69970559534528
 31
0.0
  0
LWPOLYLINE
  5
6786B
330
2
100
AcDbEntity
  8
AK-PROFIL
100
AcDbPolyline
 90
        8
 70
     1
 43
0.0
 10
-42.29785872315278
 20
-54.55524580902244
 10
-42.44785872315287
 20
-54.55524580902244
 10
-42.44785872315287
 20
-56.54859660311746
 10
-43.18649800156982
 20
-56.98620565455172
 10
-43.18649800156982
 20
-58.86874755409195
 10
-43.03649800157018
 20
-58.86874755409195
 10
-43.03649800157018
 20
-57.05502857528159
 10
-42.29785872315278
 20
-56.61741952385461
  0
LINE
  5
6786C
330
2
100
AcDbEntity
  8
AK-LN2
100
AcDbLine
 10
-43.18649800156982
 20
-56.98620565455172
 30
0.0
 11
-43.79785872315278
 21
-56.3748449329633
 31
0.0
  0
LINE
  5
6786D
330
2
100
AcDbEntity
  8
AK-AVIZAR
100
AcDbLine
 10
-42.95074709420987
 20
-58.32773328302398
 30
0.0
 11
-42.95074709420987
 21
-57.52773328302106
 31
0.0
  0
LINE
  5
6786E
330
2
100
AcDbEntity
  8
AK-AVIZAR
100
AcDbLine
 10
-43.18649800156982
 20
-57.47691992767619
 30
0.0
 11
-43.18649800156982
 21
-58.37803328096748
 31
0.0
  0
ARC
  5
6786F
330
2
100
AcDbEntity
  8
AK-AVIZAR
100
AcDbCircle
 10
-43.15656101241166
 20
-57.92747660432183
 30
0.0
 40
0.4515501546795914
100
AcDbArc
 50
93.80139872795403
 51
266.1986012720459
  0
LWPOLYLINE
  5
67870
330
2
100
AcDbEntity
  8
AK-AVIZAR
100
AcDbPolyline
 90
        4
 70
     0
 43
0.0
 10
-41.15738994422827
 20
-57.52773328302106
 10
-41.03987202961661
 20
-57.64660398884558
 10
-40.85074709420996
 20
-57.64660398884558
 10
-40.85074709420996
 20
-57.52773328302106
  0
LINE
  5
67871
330
2
100
AcDbEntity
  8
AK-AVIZAR
100
AcDbLine
 10
-41.15738994422827
 20
-57.52773328302106
 30
0.0
 11
-41.28898682522685
 21
-57.52773328302106
 31
0.0
  0
LINE
  5
67872
330
2
100
AcDbEntity
  8
AK-AVIZAR
100
AcDbLine
 10
-41.60819349435633
 20
-57.24963380750529
 30
0.0
 11
-41.57372770684014
 21
-57.15576097069249
 31
0.0
  0
LINE
  5
67873
330
2
100
AcDbEntity
  8
AK-AVIZAR
100
AcDbLine
 10
-42.25074709421005
 20
-57.90273328302106
 30
0.0
 11
-42.25074709421005
 21
-57.95273328302397
 31
0.0
  0
LINE
  5
67874
330
2
100
AcDbEntity
  8
AK-AVIZAR
100
AcDbLine
 10
-41.54562967524543
 20
-57.52773328302106
 30
0.0
 11
-42.95074709420987
 21
-57.52773328302106
 31
0.0
  0
LINE
  5
67875
330
2
100
AcDbEntity
  8
AK-AVIZAR
100
AcDbLine
 10
-43.18649800156982
 20
-57.72773328301815
 30
0.0
 11
-42.95074709420987
 21
-57.72773328301815
 31
0.0
  0
LINE
  5
67876
330
2
100
AcDbEntity
  8
AK-AVIZAR
100
AcDbLine
 10
-43.18649800156982
 20
-58.12773328301961
 30
0.0
 11
-42.95074709420987
 21
-58.12773328301961
 31
0.0
  0
ARC
  5
67877
330
2
100
AcDbEntity
  8
AK-AVIZAR
100
AcDbCircle
 10
-43.20507318457567
 20
-58.15335385961049
 30
0.0
 40
0.3991769165793324
100
AcDbArc
 50
145.5381405921426
 51
165.1380941260836
  0
ARC
  5
67878
330
2
100
AcDbEntity
  8
AK-AVIZAR
100
AcDbCircle
 10
-43.20507318457567
 20
-57.70159934903318
 30
0.0
 40
0.3991769165793324
100
AcDbArc
 50
194.8619058739163
 51
214.4618594078572
  0
LINE
  5
67879
330
2
100
AcDbEntity
  8
AK-AVIZAR
100
AcDbLine
 10
-43.18649800156982
 20
-57.92773328302252
 30
0.0
 11
-43.53297312614768
 21
-57.92773328302252
 31
0.0
  0
LINE
  5
6787A
330
2
100
AcDbEntity
  8
AK-AVIZAR
100
AcDbLine
 10
-40.85074709420996
 20
-57.52773328302106
 30
0.0
 11
-41.60819349435633
 21
-57.24963380750529
 31
0.0
  0
LWPOLYLINE
  5
6787B
330
2
100
AcDbEntity
  8
AK-AVIZAR
100
AcDbPolyline
 90
        4
 70
     0
 43
0.0
 10
-41.54562967524543
 20
-57.52773328302106
 10
-41.42811176063332
 20
-57.64660398884558
 10
-41.28898682522685
 20
-57.64660398884558
 10
-41.28898682522685
 20
-57.52773328302106
  0
LWPOLYLINE
  5
6787C
330
2
100
AcDbEntity
  8
AK-AVIZAR
100
AcDbPolyline
 90
        4
 70
     0
 43
0.0
 10
-41.15738994422827
 20
-58.32773328302398
 10
-41.03987202961661
 20
-58.20886257719945
 10
-40.85074709420996
 20
-58.20886257719945
 10
-40.85074709420996
 20
-58.32773328302398
  0
LINE
  5
6787D
330
2
100
AcDbEntity
  8
AK-AVIZAR
100
AcDbLine
 10
-41.15738994422827
 20
-58.32773328302398
 30
0.0
 11
-41.28898682522685
 21
-58.32773328302398
 31
0.0
  0
LINE
  5
6787E
330
2
100
AcDbEntity
  8
AK-AVIZAR
100
AcDbLine
 10
-41.54562967524543
 20
-58.32773328302398
 30
0.0
 11
-42.95074709420987
 21
-58.32773328302398
 31
0.0
  0
LINE
  5
6787F
330
2
100
AcDbEntity
  8
AK-AVIZAR
100
AcDbLine
 10
-41.60819349435633
 20
-58.60583275853975
 30
0.0
 11
-41.5737277068406
 21
-58.69970559534528
 31
0.0
  0
LWPOLYLINE
  5
67880
330
2
100
AcDbEntity
  8
AK-AVIZAR
100
AcDbPolyline
 90
        4
 70
     0
 43
0.0
 10
-41.54562967524543
 20
-58.32773328302398
 10
-41.42811176063332
 20
-58.20886257719945
 10
-41.28898682522685
 20
-58.20886257719945
 10
-41.28898682522685
 20
-58.32773328302398
  0
LINE
  5
67881
330
2
100
AcDbEntity
  8
AK-AVIZAR
100
AcDbLine
 10
-40.85074709420996
 20
-58.32773328302398
 30
0.0
 11
-41.60819349435633
 21
-58.60583275853975
 31
0.0
  0
TEXT
  5
67882
330
2
100
AcDbEntity
  8
TEXT04
100
AcDbText
 10
-59.43979703126979
 20
-37.57423832003957
 30
0.0
 40
3.0
  1
%%U
  7
ORON
100
AcDbText
  0
TEXT
  5
67883
330
2
100
AcDbEntity
  8
TEXT03
100
AcDbText
 10
-60.09874681372093
 20
-47.82023622671085
 30
0.0
 40
1.6
  1
 
  7
ORON
100
AcDbText
  0
LINE
  5
67884
330
2
100
AcDbEntity
  8
AK-AVIZAR
100
AcDbLine
 10
-39.15074709421014
 20
-57.95273328302397
 30
0.0
 11
-39.15074709421014
 21
-58.20886257719945
 31
0.0
  0
LWPOLYLINE
  5
67885
330
2
100
AcDbEntity
  8
AK-AVIZAR
100
AcDbPolyline
 90
        2
 70
     0
 43
0.0
 10
-39.2682650088218
 20
-57.52773328302106
 10
-39.15074709421014
 20
-57.64660398884558
  0
LINE
  5
67886
330
2
100
AcDbEntity
  8
AK-AVIZAR
100
AcDbLine
 10
-39.15074709421014
 20
-57.90273328302106
 30
0.0
 11
-39.15074709421014
 21
-57.64660398884558
 31
0.0
  0
LINE
  5
67887
330
2
100
AcDbEntity
  8
AK-AVIZAR
100
AcDbLine
 10
-39.2682650088218
 20
-57.52773328302106
 30
0.0
 11
-39.37933391630804
 21
-57.52773328302106
 31
0.0
  0
LINE
  5
67888
330
2
100
AcDbEntity
  8
AK-AVIZAR
100
AcDbLine
 10
-39.63597676632662
 20
-57.52773328302106
 30
0.0
 11
-39.79405409638229
 21
-57.52773328302106
 31
0.0
  0
LINE
  5
67889
330
2
100
AcDbEntity
  8
AK-AVIZAR
100
AcDbLine
 10
-40.05069694640042
 20
-57.52773328302106
 30
0.0
 11
-40.22557214882453
 21
-57.52773328302106
 31
0.0
  0
LWPOLYLINE
  5
6788A
330
2
100
AcDbEntity
  8
AK-AVIZAR
100
AcDbPolyline
 90
        4
 70
     0
 43
0.0
 10
-40.48221499884312
 20
-57.52773328302106
 10
-40.364697084231
 20
-57.64660398884558
 10
-40.22557214882453
 20
-57.64660398884558
 10
-40.22557214882453
 20
-57.52773328302106
  0
LWPOLYLINE
  5
6788B
330
2
100
AcDbEntity
  8
AK-AVIZAR
100
AcDbPolyline
 90
        4
 70
     0
 43
0.0
 10
-40.05069694640042
 20
-57.52773328302106
 10
-39.93317903178876
 20
-57.64660398884558
 10
-39.79405409638229
 20
-57.64660398884558
 10
-39.79405409638229
 20
-57.52773328302106
  0
LWPOLYLINE
  5
6788C
330
2
100
AcDbEntity
  8
AK-AVIZAR
100
AcDbPolyline
 90
        4
 70
     0
 43
0.0
 10
-39.63597676632662
 20
-57.52773328302106
 10
-39.51845885171451
 20
-57.64660398884558
 10
-39.37933391630804
 20
-57.64660398884558
 10
-39.37933391630804
 20
-57.52773328302106
  0
LINE
  5
6788D
330
2
100
AcDbEntity
  8
AK-AVIZAR
100
AcDbLine
 10
-40.48221499884312
 20
-57.52773328302106
 30
0.0
 11
-40.5606042969407
 21
-57.52773328302106
 31
0.0
  0
LINE
  5
6788E
330
2
100
AcDbEntity
  8
AK-AVIZAR
100
AcDbLine
 10
-39.2682650088218
 20
-58.32773328302398
 30
0.0
 11
-39.37933391630804
 21
-58.32773328302398
 31
0.0
  0
LWPOLYLINE
  5
6788F
330
2
100
AcDbEntity
  8
AK-AVIZAR
100
AcDbPolyline
 90
        4
 70
     0
 43
0.0
 10
-39.63597676632662
 20
-58.32773328302398
 10
-39.51845885171451
 20
-58.20886257719945
 10
-39.37933391630804
 20
-58.20886257719945
 10
-39.37933391630804
 20
-58.32773328302398
  0
LWPOLYLINE
  5
67890
330
2
100
AcDbEntity
  8
AK-AVIZAR
100
AcDbPolyline
 90
        4
 70
     0
 43
0.0
 10
-40.05069694640042
 20
-58.32773328302398
 10
-39.93317903178876
 20
-58.20886257719945
 10
-39.79405409638229
 20
-58.20886257719945
 10
-39.79405409638229
 20
-58.32773328302398
  0
LWPOLYLINE
  5
67891
330
2
100
AcDbEntity
  8
AK-AVIZAR
100
AcDbPolyline
 90
        4
 70
     0
 43
0.0
 10
-40.48221499884312
 20
-58.32773328302398
 10
-40.364697084231
 20
-58.20886257719945
 10
-40.22557214882453
 20
-58.20886257719945
 10
-40.22557214882453
 20
-58.32773328302398
  0
LINE
  5
67892
330
2
100
AcDbEntity
  8
AK-AVIZAR
100
AcDbLine
 10
-40.05069694640042
 20
-58.32773328302398
 30
0.0
 11
-40.22557214882453
 21
-58.32773328302398
 31
0.0
  0
LINE
  5
67893
330
2
100
AcDbEntity
  8
AK-AVIZAR
100
AcDbLine
 10
-39.63597676632662
 20
-58.32773328302398
 30
0.0
 11
-39.79405409638229
 21
-58.32773328302398
 31
0.0
  0
LWPOLYLINE
  5
67894
330
2
100
AcDbEntity
  8
AK-AVIZAR
100
AcDbPolyline
 90
        2
 70
     0
 43
0.0
 10
-39.2682650088218
 20
-58.32773328302398
 10
-39.15074709421014
 20
-58.20886257719945
  0
LINE
  5
67895
330
2
100
AcDbEntity
  8
AK-AVIZAR
100
AcDbLine
 10
-40.48221499884312
 20
-58.32773328302398
 30
0.0
 11
-40.5606042969407
 21
-58.32773328302398
 31
0.0
  0
LINE
  5
67896
330
2
100
AcDbEntity
  8
AK-BT
100
AcDbLine
 10
-42.29785872315233
 20
-99.4670684947178
 30
0.0
 11
-42.29785872315233
 21
-120.5699962086215
 31
0.0
  0
TEXT
  5
67897
330
2
100
AcDbEntity
  8
TEXT03
100
AcDbText
 10
-71.60462767213767
 20
-60.22812200607751
 30
0.0
 40
1.6
  1
  
  7
ORON
100
AcDbText
1001
ACAD
1000
MTEXTBEGIN
1070
    73
1070
     1
1070
    44
1040
1.0
1070
    74
1070
     0
1000
MTEXTEND
  0
TEXT
  5
67898
330
2
100
AcDbEntity
  8
TEXT04
100
AcDbText
 10
-13.28746101384354
 20
-83.86518514409345
 30
0.0
 40
3.0
  1
%%U
  7
ORON
100
AcDbText
1001
ACAD
1000
MTEXTBEGIN
1070
    73
1070
     1
1070
    44
1040
1.0
1070
    74
1070
     0
1000
MTEXTEND
  0
LINE
  5
67899
330
2
100
AcDbEntity
  8
AK-TIH
100
AcDbLine
 10
-43.79785872315278
 20
-100.9670684947177
 30
0.0
 11
-43.79785872315278
 21
-120.3522114617114
 31
0.0
  0
LINE
  5
6789A
330
2
100
AcDbEntity
  8
AK-BT
100
AcDbLine
 10
-22.29785872315233
 20
-99.4670684947178
 30
0.0
 11
-22.29785872315233
 21
-123.4737928340871
 31
0.0
  0
LWPOLYLINE
  5
6789B
330
2
100
AcDbEntity
  8
AK-LN2
100
AcDbPolyline
 90
        6
 70
     0
 43
0.0
 10
-11.85400423982491
 20
-124.9901343043646
 10
-32.14134276742834
 20
-122.0446190465571
 10
-32.66879791541714
 20
-122.7134276222398
 10
-33.29975320104995
 20
-121.1310399315319
 10
-33.82720834903875
 20
-121.7998485072146
 10
-51.19969603893105
 20
-119.2775399507207
  0
TEXT
  5
6789C
330
2
100
AcDbEntity
  8
TEXT04
100
AcDbText
 10
-127.214487428367
 20
-123.6656582406822
 30
0.0
 40
2.699999999999999
  1
1:10 "
  7
TOV
 72
     2
 11
-103.2041527826977
 21
-122.3156582406822
 31
0.0
100
AcDbText
 73
     2
  0
TEXT
  5
6789D
330
2
100
AcDbEntity
  8
TEXT05
100
AcDbText
 10
-130.6509638063197
 20
-118.8306617893756
 30
0.0
 40
3.599999999999999
  1
%%U1-1 
  7
TOV
 72
     2
 11
-103.2041527826977
 21
-117.0306617893757
 31
0.0
100
AcDbText
 73
     2
  0
LWPOLYLINE
  5
6789E
330
2
100
AcDbEntity
  8
AK-LN2
100
AcDbPolyline
 90
        6
 70
     0
 43
0.0
 10
-11.85400423982491
 20
-28.87743746091501
 10
-32.14134276742834
 20
-25.93192220310749
 10
-32.66879791541714
 20
-26.60073077879025
 10
-33.29975320104995
 20
-25.0183430880823
 10
-33.82720834903875
 20
-25.68715166376506
 10
-51.19969603893105
 20
-23.16484310727111
  0
LEADER
  5
6789F
330
2
100
AcDbEntity
  8
TEXT03
100
AcDbLeader
  3
LEADER-10
 40
15.0
 76
     3
 10
-58.96689665600638
 20
-70.74209685680421
 30
0.0
 10
-62.76268703081155
 20
-60.75378886305657
 30
0.0
 10
-72.11651611328534
 20
-60.75378886305657
 30
0.0
213
10.78021550819107
223
0.0
233
0.0
  0
LEADER
  5
678A0
330
2
100
AcDbEntity
  8
TEXT03
100
AcDbLeader
  3
LEADER-10
 40
15.0
 76
     3
 10
-43.81094391241913
 20
-65.66771834282377
 30
0.0
 10
-47.55007826855103
 20
-55.20021498973642
 30
0.0
 10
-55.16714278068594
 20
-55.20021498973642
 30
0.0
213
10.78021550819107
223
0.0
233
0.0
  0
TEXT
  5
678A1
330
2
100
AcDbEntity
  8
TEXT03
100
AcDbText
 10
-13.78840030139872
 20
-47.82023622671078
 30
0.0
 40
1.6
  1
 
  7
ORON
100
AcDbText
  0
LEADER
  5
678A2
330
2
100
AcDbEntity
  8
TEXT03
100
AcDbLeader
  3
LEADER-10
 40
15.0
 76
     3
 10
-21.09785872315285
 20
-43.53257551125415
 30
0.0
 10
-13.90912449646964
 20
-48.32906994330136
 30
0.0
 10
-4.623196025627976
 20
-48.32906994330136
 30
0.0
211
-1.0
221
0.0
231
0.0
210
0.0
220
0.0
230
-1.0
213
-4.697365185055105
223
0.0
233
0.0
  0
TEXT
  5
678A3
330
2
100
AcDbEntity
  8
TEXT03
100
AcDbText
 10
-13.78840030139872
 20
-111.7365262632064
 30
0.0
 40
1.6
  1
 
  7
ORON
100
AcDbText
  0
LEADER
  5
678A4
330
2
100
AcDbEntity
  8
TEXT03
100
AcDbLeader
  3
LEADER-10
 40
15.0
 76
     3
 10
-21.09785872315285
 20
-107.4488655477497
 30
0.0
 10
-13.90912449646964
 20
-112.245359979797
 30
0.0
 10
-4.623196025627976
 20
-112.245359979797
 30
0.0
211
-1.0
221
0.0
231
0.0
210
0.0
220
0.0
230
-1.0
213
-4.697365185055105
223
0.0
233
0.0
  0
TEXT
  5
678A5
330
2
100
AcDbEntity
  8
TEXT03
100
AcDbText
 10
-8.898295753674574
 20
-63.97717351168364
 30
0.0
 40
1.6
  1

  7
ORON
100
AcDbText
  0
LEADER
  5
678A6
330
2
100
AcDbEntity
  8
TEXT03
100
AcDbLeader
  3
LEADER-10
 40
15.0
 76
     3
 10
-30.14713131675216
 20
-59.49825328552674
 30
0.0
 10
-11.07387377175132
 20
-64.29474771757395
 30
0.0
 10
-4.623196025627976
 20
-64.29474771757395
 30
0.0
211
-1.0
221
0.0
231
0.0
210
0.0
220
0.0
230
-1.0
213
-4.697365185055105
223
0.0
233
0.0
  0
TEXT
  5
678A7
330
2
100
AcDbEntity
  8
TEXT03
100
AcDbText
 10
-62.99694457639884
 20
-108.0050483751132
 30
0.0
 40
1.6
  1
 
  7
ORON
100
AcDbText
  0
LEADER
  5
678A8
330
2
100
AcDbEntity
  8
TEXT03
100
AcDbLeader
  3
LEADER-10
 40
15.0
 76
     3
 10
-43.79785872315278
 20
-103.7173876596566
 30
0.0
 10
-53.30222227779882
 20
-108.5138820917038
 30
0.0
 10
-63.31005306156476
 20
-108.5138820917038
 30
0.0
213
4.697365185055105
223
0.0
233
0.0
  0
TEXT
  5
678A9
330
2
100
AcDbEntity
  8
TEXT04
100
AcDbText
 10
-72.09628675705267
 20
-115.7408312697146
 30
0.0
 40
3.0
  1
%%U 
  7
ORON
100
AcDbText
  0
LINE
  5
678AA
330
2
100
AcDbEntity
  8
AK-BT
100
AcDbLine
 10
-141.9439237743645
 20
-99.4670684947178
 30
0.0
 11
-141.9439237743645
 21
-54.46706849471786
 31
0.0
  0
LINE
  5
678AB
330
2
100
AcDbEntity
  8
AK-BT
100
AcDbLine
 10
-91.94392377436452
 20
-99.46706849471775
 30
0.0
 11
-91.94392377436452
 21
-54.46706849471786
 31
0.0
  0
LINE
  5
678AC
330
2
100
AcDbEntity
  8
AK-BT
100
AcDbLine
 10
-91.94392377436452
 20
-99.4670684947178
 30
0.0
 11
-22.29785872315233
 21
-99.4670684947178
 31
0.0
  0
LINE
  5
678AD
330
2
100
AcDbEntity
  8
AK-BT
100
AcDbLine
 10
-81.94392377436452
 20
-74.4670684947178
 30
0.0
 11
-42.29785872315233
 21
-74.4670684947178
 31
0.0
  0
LINE
  5
678AE
330
2
100
AcDbEntity
  8
AK-TIH
100
AcDbLine
 10
-141.9439237743645
 20
-99.4670684947178
 30
0.0
 11
-141.9439237743645
 21
-100.9670684947177
 31
0.0
  0
LINE
  5
678AF
330
2
100
AcDbEntity
  8
AK-TIH
100
AcDbLine
 10
-91.94392377436452
 20
-99.4670684947178
 30
0.0
 11
-91.94392377436452
 21
-100.9670684947177
 31
0.0
  0
LINE
  5
678B0
330
2
100
AcDbEntity
  8
HIDDEN
100
AcDbLine
 10
-91.94392377436452
 20
-99.4670684947178
 30
0.0
 11
-141.9439237743645
 21
-99.4670684947178
 31
0.0
  0
LINE
  5
678B1
330
2
100
AcDbEntity
  8
MABAT
100
AcDbLine
 10
-91.94392377436452
 20
-54.46706849471786
 30
0.0
 11
-141.9439237743645
 21
-54.46706849471786
 31
0.0
  0
LINE
  5
678B2
330
2
100
AcDbEntity
  8
AK-TIH
100
AcDbLine
 10
-141.9439237743645
 20
-100.9670684947177
 30
0.0
 11
-187.8386679732648
 21
-100.9670684947178
 31
0.0
  0
LINE
  5
678B3
330
2
100
AcDbEntity
  8
MABAT2
100
AcDbLine
 10
-43.37119820874841
 20
-100.4962428517122
 30
0.0
 11
-42.29785872315233
 21
-99.4670684947178
 31
0.0
  0
LWPOLYLINE
  5
678B4
330
2
100
AcDbEntity
  8
MABAT2
100
AcDbPolyline
 90
        3
 70
     0
 43
0.0
 10
-43.37119820874841
 20
-101.7462428517124
 10
-43.37119820874841
 20
-100.4962428517122
 10
-44.62119820874841
 20
-100.4962428517124
  0
LWPOLYLINE
  5
678B5
330
2
100
AcDbEntity
  8
MABAT2
100
AcDbPolyline
 90
        3
 70
     0
 43
0.0
 10
-91.72711587812614
 20
-99.70457988607501
 10
-90.47711587812614
 20
-99.70457988607478
 10
-90.47711587812614
 20
-100.7337542430694
  0
LWPOLYLINE
  5
678B6
330
2
100
AcDbEntity
  8
MABAT2
100
AcDbPolyline
 90
        3
 70
     0
 43
0.0
 10
-142.1607316706029
 20
-99.70457988607501
 10
-143.4107316706028
 20
-99.70457988607478
 10
-143.4107316706028
 20
-100.7337542430694
  0
LINE
  5
678B7
102
{ACAD_REACTORS
330
678F5
102
}
330
2
100
AcDbEntity
  8
AK-BT
100
AcDbLine
 10
-151.9439237743645
 20
-74.4670684947178
 30
0.0
 11
-151.9439237743645
 21
-54.4670684947178
 31
0.0
  0
LINE
  5
678B8
330
2
100
AcDbEntity
  8
AK-BT
100
AcDbLine
 10
-81.94392377436452
 20
-74.4670684947178
 30
0.0
 11
-81.94392377436452
 21
-54.4670684947178
 31
0.0
  0
LINE
  5
678B9
330
2
100
AcDbEntity
  8
AK-BT
100
AcDbLine
 10
-151.9439237743645
 20
-54.4670684947178
 30
0.0
 11
-141.9439237743645
 21
-54.4670684947178
 31
0.0
  0
LINE
  5
678BA
330
2
100
AcDbEntity
  8
AK-BT
100
AcDbLine
 10
-91.94392377436452
 20
-54.4670684947178
 30
0.0
 11
-81.94392377436452
 21
-54.4670684947178
 31
0.0
  0
LINE
  5
678BB
330
2
100
AcDbEntity
  8
AK-RAS1
100
AcDbLine
 10
-183.7225362566662
 20
-72.61706849471199
 30
0.0
 11
-158.6977054256754
 21
-72.61706849471199
 31
0.0
  0
LINE
  5
678BC
330
2
100
AcDbEntity
  8
AK-RAS1
100
AcDbLine
 10
-182.8165767009948
 20
-66.37724062435705
 30
0.0
 11
-153.5451490372793
 21
-66.37724062435705
 31
0.0
  0
LWPOLYLINE
  5
678BD
330
2
100
AcDbEntity
  8
AK-RAS1
100
AcDbPolyline
 90
        8
 70
     0
 43
0.0
 10
-183.1650322960508
 20
-68.77724062435851
 10
-156.0141436080161
 20
-68.77724062435851
 42
0.4292125925937424
 10
-153.0570089636307
 20
-65.66550757244664
 10
-153.0570089636315
 20
-54.20520736075861
 10
-153.4570089636312
 20
-54.20520736075861
 10
-153.4570089636313
 20
-65.66771834282377
 42
-0.3980757505087231
 10
-156.0204061427898
 20
-68.37724062435706
 10
-183.1069563635413
 20
-68.37724062435706
  0
LWPOLYLINE
  5
678BE
330
2
100
AcDbEntity
  8
AK-RAS1
100
AcDbPolyline
 90
        8
 70
     0
 43
0.0
 10
-183.6862387988478
 20
-72.36706849471199
 10
-158.6977054256754
 20
-72.36706849471199
 42
0.4131675910078742
 10
-152.6825630527819
 20
-66.37337686314101
 10
-152.6825630527822
 20
-54.22843039356172
 10
-152.1825618755205
 20
-54.22843039356172
 10
-152.1825618755206
 20
-66.37337686314101
 42
-0.4151798693015415
 10
-158.6977054256754
 20
-72.86706849471198
 10
-183.7588337144844
 20
-72.86706849471198
  0
LINE
  5
678BF
102
{ACAD_REACTORS
330
678F5
102
}
330
2
100
AcDbEntity
  8
AK-RAS1
100
AcDbLine
 10
-156.9338948041704
 20
-74.4670684947178
 30
0.0
 11
-151.9439237743645
 21
-69.47709746491279
 31
0.0
  0
ARC
  5
678C0
330
2
100
AcDbEntity
  8
AK-RAS1
100
AcDbCircle
 10
-158.6609154707744
 20
-66.38688171573273
 30
0.0
 40
6.228367671426298
100
AcDbArc
 50
269.6746216668612
 51
0.1194392872748248
  0
TEXT
  5
678C1
330
2
100
AcDbEntity
  8
TEXT03
100
AcDbText
 10
-163.9078303170411
 20
-59.2130755836809
 30
0.0
 40
1.6
  1

  7
ORON
100
AcDbText
1001
ACAD
1000
MTEXTBEGIN
1070
    73
1070
     1
1070
    44
1040
1.0
1070
    74
1070
     0
1000
MTEXTEND
  0
LEADER
  5
678C2
330
2
100
AcDbEntity
  8
TEXT03
100
AcDbLeader
  3
LEADER-10
 40
15.0
 76
     3
 10
-153.4570089636313
 20
-65.66771834282377
 30
0.0
 10
-157.1961433197632
 20
-59.66841950237608
 30
0.0
 10
-164.6340468853095
 20
-59.66841950237608
 30
0.0
213
10.78021550819107
223
0.0
233
0.0
  0
LINE
  5
678C3
330
2
100
AcDbEntity
  8
AK-RAS1
100
AcDbLine
 10
-60.16531129206282
 20
-72.61706849471199
 30
0.0
 11
-75.19014212305364
 21
-72.61706849471199
 31
0.0
  0
LINE
  5
678C4
102
{ACAD_REACTORS
330
67B8D
102
}
330
2
100
AcDbEntity
  8
AK-RAS1
100
AcDbLine
 10
-61.07127084773424
 20
-66.37724062435705
 30
0.0
 11
-80.34269851144973
 21
-66.37724062435705
 31
0.0
  0
LWPOLYLINE
  5
678C5
102
{ACAD_REACTORS
330
67B8D
102
}
330
2
100
AcDbEntity
  8
AK-RAS1
100
AcDbPolyline
 90
        8
 70
     0
 43
0.0
 10
-60.72281525267817
 20
-68.77724062435851
 10
-77.87370394071285
 20
-68.77724062435851
 42
-0.4292125925937424
 10
-80.83083858509827
 20
-65.66550757244664
 10
-80.83083858509747
 20
-54.22843039356172
 10
-80.43083858509783
 20
-54.22843039356172
 10
-80.43083858509772
 20
-65.66771834282377
 42
0.3980757505087231
 10
-77.86744140593919
 20
-68.37724062435706
 10
-60.78089118518767
 20
-68.37724062435706
  0
LWPOLYLINE
  5
678C6
330
2
100
AcDbEntity
  8
AK-RAS1
100
AcDbPolyline
 90
        8
 70
     0
 43
0.0
 10
-60.20160874988119
 20
-72.36706849471199
 10
-75.19014212305364
 20
-72.36706849471199
 42
-0.4131675910078742
 10
-81.20528449594713
 20
-66.37337686314101
 10
-81.20528449594678
 20
-54.22843039356172
 10
-81.70528567320856
 20
-54.22843039356172
 10
-81.70528567320843
 20
-66.37337686314101
 42
0.4151798693015415
 10
-75.19014212305364
 20
-72.86706849471198
 10
-60.12901383424457
 20
-72.86706849471198
  0
LINE
  5
678C7
330
2
100
AcDbEntity
  8
AK-RAS1
100
AcDbLine
 10
-76.95395274455859
 20
-74.4670684947178
 30
0.0
 11
-81.94392377436452
 21
-69.47709746491279
 31
0.0
  0
ARC
  5
678C8
330
2
100
AcDbEntity
  8
AK-RAS1
100
AcDbCircle
 10
-75.22693207795464
 20
-66.38688171573273
 30
0.0
 40
6.228367671426298
100
AcDbArc
 50
179.8805607127251
 51
270.3253783331387
  0
HATCH
  5
678F4
330
2
100
AcDbEntity
  8
HATCH9
100
AcDbHatch
 10
0.0
 20
0.0
 30
0.0
210
0.0
220
0.0
230
1.0
  2
ANSI31
 70
     0
 71
     0
 91
        1
 92
        7
 72
     0
 73
     1
 93
        3
 10
-81.94392377436452
 20
-69.47709746491284
 10
-81.94392377436441
 20
-74.4670684947178
 10
-76.9539527445587
 20
-74.46706849471786
 97
        0
 75
     0
 76
     1
 52
90.0
 41
3.0
 77
     0
 78
     1
 53
135.0
 43
-471.4360572829686
 44
-375.9454028818695
 45
-0.2651650429449553
 46
-0.2651650429449553
 79
     0
 47
0.1261861154840935
 98
        1
 10
-80.58031219844565
 20
-73.35471075143892
  0
HATCH
  5
678F5
330
2
100
AcDbEntity
  8
HATCH9
100
AcDbHatch
 10
0.0
 20
0.0
 30
0.0
210
0.0
220
0.0
230
1.0
  2
ANSI31
 70
     0
 71
     1
 91
        1
 92
        7
 72
     0
 73
     1
 93
        3
 10
-151.9439237743644
 20
-74.4670684947178
 10
-151.9439237743645
 20
-69.47709746491279
 10
-156.9338948041704
 20
-74.4670684947178
 97
        3
330
678BF
330
6785E
330
678B7
 75
     0
 76
     1
 52
90.0
 41
3.0
 77
     0
 78
     1
 53
135.0
 43
-496.4360572829686
 44
-375.9454028818695
 45
-0.2651650429449553
 46
-0.2651650429449553
 79
     0
 47
0.1261861154840935
 98
        1
 10
-153.2987145304666
 20
-73.98564067078542
  0
HATCH
  5
678F7
330
2
100
AcDbEntity
  8
HATCH9
100
AcDbHatch
 10
0.0
 20
0.0
 30
0.0
210
0.0
220
0.0
230
1.0
  2
MUDST
 70
     0
 71
     0
 91
        1
 92
        7
 72
     1
 73
     1
 93
       10
 10
-152.6825630527819
 20
-66.37337686314163
 42
0.0
 10
-152.6825630527821
 20
-63.75371751969703
 42
0.0
 10
-152.832563052782
 20
-63.75371751969692
 42
0.0
 10
-152.832563052782
 20
-63.26300324657399
 42
-0.1338136199049297
 10
-153.0570089636313
 20
-63.18552415217334
 42
0.0
 10
-153.0570089636307
 20
-65.66550757244613
 42
-0.4292125925935462
 10
-156.0141436080136
 20
-68.77724062435851
 42
0.0
 10
-183.1650322960508
 20
-68.77724062435857
 42
0.0
 10
-183.6862387988478
 20
-72.36706849471199
 42
0.0
 10
-158.6977054256754
 20
-72.36706849471199
 42
0.4131675910078494
 97
        0
 75
     0
 76
     1
 52
0.0
 41
4.0
 77
     1
 78
     1
 53
0.0
 43
-496.4360572829686
 44
-375.9454028818695
 45
2.0
 46
1.0
 79
     6
 49
1.0
 49
-1.0
 49
0.0
 49
-1.0
 49
0.0
 49
-1.0
 47
0.1261861154840935
 98
        1
 10
-163.7765659997808
 20
-71.84047768769892
  0
HATCH
  5
678F8
330
2
100
AcDbEntity
  8
HATCH9
100
AcDbHatch
 10
0.0
 20
0.0
 30
0.0
210
0.0
220
0.0
230
1.0
  2
AR-SAND
 70
     0
 71
     0
 91
        1
 92
        7
 72
     1
 73
     1
 93
        8
 10
-151.9439237743645
 20
-69.47709746491284
 42
0.0
 10
-151.9439237743645
 20
-63.21270324862894
 42
0.0
 10
-152.1825618755206
 20
-63.21270324862894
 42
0.0
 10
-152.1825618755206
 20
-66.37337686314134
 42
-0.415179869301405
 10
-158.6977054256726
 20
-72.86706849471198
 42
0.0
 10
-183.7588337144844
 20
-72.86706849471198
 42
0.0
 10
-183.9911374445225
 20
-74.4670684947178
 42
0.0
 10
-156.9338948041704
 20
-74.4670684947178
 42
0.0
 97
        0
 75
     0
 76
     1
 52
0.0
 41
1.0
 77
     0
 78
     4
 53
37.5
 43
-496.4360572829686
 44
-375.9454028818695
 45
-0.0629933581096082
 46
1.926823769013158
 79
     6
 49
0.0
 49
-1.52
 49
0.0
 49
-1.7
 49
0.0
 49
-1.625
 53
7.499999999999999
 43
-496.4360572829686
 44
-375.9454028818695
 45
1.769776705267727
 46
2.82214606522974
 79
     6
 49
0.0
 49
-0.8199999999999999
 49
0.0
 49
-1.37
 49
0.0
 49
-0.525
 53
327.4999999999999
 43
-497.6660572829687
 44
-375.9454028818695
 45
3.114141861751495
 46
0.0056590535369645
 79
     6
 49
0.0
 49
-0.5
 49
0.0
 49
-1.8
 49
0.0
 49
-2.35
 53
317.5
 43
-497.6660572829687
 44
-375.9454028818695
 45
3.006126604572293
 46
0.877675564934249
 79
     6
 49
0.0
 49
-0.25
 49
0.0
 49
-1.179999999999999
 49
0.0
 49
-1.35
 47
0.1261861154840935
 98
        1
 10
-159.2319560886098
 20
-73.73326958858342
  0
LINE
  5
678FB
330
2
100
AcDbEntity
  8
MABAT
100
AcDbLine
 10
-91.94392377436452
 20
-100.9670684947177
 30
0.0
 11
-141.9439237743645
 21
-100.9670684947177
 31
0.0
  0
LINE
  5
678FC
330
2
100
AcDbEntity
  8
MABAT8
100
AcDbLine
 10
-92.44392377436453
 20
-99.46706849471775
 30
0.0
 11
-92.44392377436453
 21
-54.46706849471786
 31
0.0
  0
LINE
  5
678FD
330
2
100
AcDbEntity
  8
MABAT8
100
AcDbLine
 10
-116.9439237743645
 20
-99.4670684947178
 30
0.0
 11
-116.9439237743645
 21
-54.46706849471792
 31
0.0
  0
LINE
  5
678FE
330
2
100
AcDbEntity
  8
MABAT8
100
AcDbLine
 10
-93.44392377436452
 20
-99.46706849471775
 30
0.0
 11
-93.44392377436452
 21
-54.46706849471786
 31
0.0
  0
LINE
  5
678FF
330
2
100
AcDbEntity
  8
MABAT8
100
AcDbLine
 10
-95.94392377436452
 20
-99.46706849471775
 30
0.0
 11
-95.94392377436452
 21
-54.46706849471786
 31
0.0
  0
LINE
  5
67900
330
2
100
AcDbEntity
  8
MABAT8
100
AcDbLine
 10
-100.9439237743645
 20
-99.46706849471775
 30
0.0
 11
-100.9439237743645
 21
-54.46706849471786
 31
0.0
  0
LINE
  5
67901
330
2
100
AcDbEntity
  8
MABAT8
100
AcDbLine
 10
-141.4439237743646
 20
-99.46706849471775
 30
0.0
 11
-141.4439237743645
 21
-54.46706849471786
 31
0.0
  0
LINE
  5
67902
330
2
100
AcDbEntity
  8
MABAT8
100
AcDbLine
 10
-140.4439237743646
 20
-99.46706849471775
 30
0.0
 11
-140.4439237743645
 21
-54.46706849471786
 31
0.0
  0
LINE
  5
67903
330
2
100
AcDbEntity
  8
MABAT8
100
AcDbLine
 10
-137.9439237743646
 20
-99.46706849471775
 30
0.0
 11
-137.9439237743645
 21
-54.46706849471786
 31
0.0
  0
LINE
  5
67904
330
2
100
AcDbEntity
  8
MABAT8
100
AcDbLine
 10
-132.9439237743646
 20
-99.46706849471775
 30
0.0
 11
-132.9439237743645
 21
-54.46706849471786
 31
0.0
  0
DIMENSION
  5
67905
330
2
100
AcDbEntity
  8
DIMH
100
AcDbDimension
  2
*D12
 10
-151.9439237743645
 20
-42.7848282420232
 30
0.0
 11
-116.9439237743645
 21
-41.28482824202319
 31
0.0
 70
    32
 71
     5
 42
70.0
  3
DIM10A
100
AcDbAlignedDimension
 13
-81.94392377436452
 23
-54.4670684947178
 33
0.0
 14
-151.9439237743645
 24
-54.4670684947178
 34
0.0
100
AcDbRotatedDimension
  0
DIMENSION
  5
67906
330
2
100
AcDbEntity
  8
DIMH
100
AcDbDimension
  2
*D13
 10
-91.94392377436452
 20
-46.64568988712608
 30
0.0
 11
-86.94392377436452
 21
-45.14568988712608
 31
0.0
 70
    32
 71
     5
 42
10.0
  3
DIM10A
100
AcDbAlignedDimension
 13
-81.94392377436452
 23
-54.4670684947178
 33
0.0
 14
-91.94392377436452
 24
-54.4670684947178
 34
0.0
100
AcDbRotatedDimension
1001
ACAD
1000
DSTYLE
1002
{
1070
   271
1070
     1
1002
}
  0
DIMENSION
  5
67907
330
2
100
AcDbEntity
  8
DIMH
100
AcDbDimension
  2
*D14
 10
-141.9439237743645
 20
-46.64568988712608
 30
0.0
 11
-116.9439237743645
 21
-45.14568988712608
 31
0.0
 70
    32
  1
{\Fmonosi.shx;%%c50}
 71
     5
 42
50.0
  3
DIM10A
100
AcDbAlignedDimension
 13
-91.94392377436452
 23
-54.4670684947178
 33
0.0
 14
-141.9439237743645
 24
-54.4670684947178
 34
0.0
100
AcDbRotatedDimension
  0
DIMENSION
  5
67908
330
2
100
AcDbEntity
  8
DIMH
100
AcDbDimension
  2
*D15
 10
-151.9439237743645
 20
-46.64568988712608
 30
0.0
 11
-146.9439237743645
 21
-45.14568988712608
 31
0.0
 70
    32
 71
     5
 42
10.0
  3
DIM10A
100
AcDbAlignedDimension
 13
-141.9439237743645
 23
-54.4670684947178
 33
0.0
 14
-151.9439237743645
 24
-54.4670684947178
 34
0.0
100
AcDbRotatedDimension
1001
ACAD
1000
DSTYLE
1002
{
1070
   271
1070
     1
1002
}
  0
TEXT
  5
67909
330
2
100
AcDbEntity
  8
TEXT03
100
AcDbText
 10
-76.30382675549753
 20
-54.74487107104124
 30
0.0
 40
1.6
  1

  7
ORON
100
AcDbText
1001
ACAD
1000
MTEXTBEGIN
1070
    73
1070
     1
1070
    44
1040
1.0
1070
    74
1070
     0
1000
MTEXTEND
  0
LEADER
  5
6790A
330
2
100
AcDbEntity
  8
TEXT03
100
AcDbLeader
  3
LEADER-10
 40
15.0
 76
     3
 10
-80.43083858509772
 20
-65.66771834282377
 30
0.0
 10
-76.69170422896582
 20
-55.20021498973642
 30
0.0
 10
-69.2538006634195
 20
-55.20021498973642
 30
0.0
211
-1.0
221
0.0
231
0.0
210
0.0
220
0.0
230
-1.0
213
-10.78021550819107
223
0.0
233
0.0
  0
TEXT
  5
6790B
330
2
100
AcDbEntity
  8
TEXT03
100
AcDbText
 10
-54.67914818217105
 20
-54.74487107104124
 30
0.0
 40
1.6
  1

  7
ORON
100
AcDbText
1001
ACAD
1000
MTEXTBEGIN
1070
    73
1070
     1
1070
    44
1040
1.0
1070
    74
1070
     0
1000
MTEXTEND
  0
LEADER
  5
6790C
330
2
100
AcDbEntity
  8
TEXT03
100
AcDbLeader
  3
LEADER-10
 40
15.0
 76
     3
 10
-43.79785872315278
 20
-43.53257551125415
 30
0.0
 10
-50.98659294983599
 20
-48.32906994330136
 30
0.0
 10
-60.27252142067766
 20
-48.32906994330136
 30
0.0
213
4.697365185055105
223
0.0
233
0.0
  0
TEXT
  5
6790D
330
2
100
AcDbEntity
  8
TEXT03
100
AcDbText
 10
-169.6215342674029
 20
-106.8029880591031
 30
0.0
 40
1.6
  1
 
  7
ORON
100
AcDbText
  0
LEADER
  5
6790E
330
2
100
AcDbEntity
  8
TEXT03
100
AcDbLeader
  3
LEADER-10
 40
15.0
 76
     3
 10
-151.6687178632851
 20
-91.33711033061899
 30
0.0
 10
-156.8521617053304
 20
-107.2240108356745
 30
0.0
 10
-170.1064848119794
 20
-107.2240108356745
 30
0.0
213
4.697365185055105
223
0.0
233
0.0
  0
LWPOLYLINE
  5
6790F
330
2
100
AcDbEntity
  8
MABAT3
100
AcDbPolyline
 90
        4
 70
     1
 43
0.0
 10
-151.4439237743645
 20
-139.1724072128768
 10
-151.4439237743645
 20
-209.1724072128767
 10
-81.44392377436451
 20
-209.1724072128767
 10
-81.44392377436451
 20
-139.1724072128768
  0
INSERT
  5
67911
330
2
100
AcDbEntity
  8
TEXT04
100
AcDbBlockReference
 66
     1
  2
HAZ100
 10
-116.9439237743645
 20
-33.95145931410388
 30
0.0
 41
0.1
 42
0.1
 43
0.1
 50
180.0
  0
ATTRIB
  5
67912
330
67911
100
AcDbEntity
  8
0
100
AcDbText
 10
-126.1862104649208
 20
-30.3194195842641
 30
0.0
 40
3.0
  1
2 
  7
TOV
 72
     4
 11
-117.2079132208264
 21
-28.67384871812237
 31
0.0
100
AcDbAttribute
  2
HAZ
 70
     0
  0
SEQEND
  5
67913
330
67911
100
AcDbEntity
  8
TEXT04
  0
TEXT
  5
67914
330
2
100
AcDbEntity
  8
TEXT04
100
AcDbText
 10
-127.8647790949184
 20
-220.8087076082102
 30
0.0
 40
2.699999999999999
  1
1:10 "
  7
TOV
 72
     2
 11
-103.854444449249
 21
-219.4587076082102
 31
0.0
100
AcDbText
 73
     2
  0
TEXT
  5
67915
330
2
100
AcDbEntity
  8
TEXT05
100
AcDbText
 10
-125.364444449249
 20
-215.9737111569036
 30
0.0
 40
3.599999999999999
  1
%%U2 
  7
TOV
 72
     2
 11
-103.854444449249
 21
-214.1737111569036
 31
0.0
100
AcDbText
 73
     2
  0
TEXT
  5
67916
330
2
100
AcDbEntity
  8
TEXT03
100
AcDbText
 10
-75.47190968807592
 20
-157.7212390425308
 30
0.0
 40
1.6
  1

  7
ORON
100
AcDbText
  0
LEADER
  5
67917
330
2
100
AcDbEntity
  8
TEXT03
100
AcDbLeader
  3
LEADER-10
 40
15.0
 76
     3
 10
-83.9875450391437
 20
-166.8944932042468
 30
0.0
 10
-76.0356858433986
 20
-158.1422618191022
 30
0.0
 10
-71.0250543815946
 20
-158.1422618191022
 30
0.0
211
-1.0
221
0.0
231
0.0
210
0.0
220
0.0
230
-1.0
213
-4.697365185055105
223
0.0
233
0.0
  0
DIMENSION
  5
67919
330
2
100
AcDbEntity
  8
DIMV
100
AcDbDimension
  2
*D16
 10
-151.4439237743645
 20
-134.8215429594983
 30
0.0
 11
-116.4439237743645
 21
-133.3215429594984
 31
0.0
 70
    32
 71
     5
 42
70.0
  3
DIM10A
100
AcDbAlignedDimension
 13
-81.44392377436451
 23
-139.1724072128768
 33
0.0
 14
-151.4439237743645
 24
-139.1724072128768
 34
0.0
100
AcDbRotatedDimension
  0
LWPOLYLINE
  5
6791A
330
2
100
AcDbEntity
  8
MABAT2
100
AcDbPolyline
 90
        4
 70
     1
 43
0.0
 10
-192.273717054838
 20
0.0
 10
0.0
 20
0.0
 10
0.0
 20
-233.1726836536022
 10
-192.273717054838
 20
-233.1726836536022
  0
TEXT
  5
6791B
330
2
100
AcDbEntity
  8
TEXT04
100
AcDbText
 10
-27.17114718286609
 20
-11.94381009472463
 30
0.0
 40
2.699999999999999
  1
1:10 "
  7
TOV
 72
     2
 11
-3.160812537196761
 21
-10.59381009472463
 31
0.0
100
AcDbText
 73
     2
  0
TEXT
  5
6791C
330
2
100
AcDbEntity
  8
TEXT05
100
AcDbText
 10
-182.115635371843
 20
-6.858813643418034
 30
0.0
 40
3.1
  1
%%U   TVL-20@ ""   
  7
TOV
 72
     2
 11
-3.160812537196761
 21
-5.308813643418034
 31
0.0
100
AcDbText
 73
     2
  0
INSERT
  5
6791D
330
2
100
AcDbEntity
  8
TEXT04
100
AcDbBlockReference
 66
     1
  2
SEC100
 10
-63.3923540501205
 20
-173.3132507765995
 30
0.0
 41
0.1
 42
0.1
 43
0.1
  0
ATTRIB
  5
6791E
330
6791D
100
AcDbEntity
  8
0
100
AcDbText
 10
-64.514420889641
 20
-179.1251186549511
 30
0.0
 40
4.0
  1
1
  7
TOV
 72
     4
 11
-63.36442088964099
 21
-177.1251186549511
 31
0.0
100
AcDbAttribute
  2
SECTION
 70
     0
  0
SEQEND
  5
6791F
330
6791D
100
AcDbEntity
  8
TEXT04
  0
INSERT
  5
67920
330
2
100
AcDbEntity
  8
TEXT04
100
AcDbBlockReference
 66
     1
  2
SEC100
 10
-174.8941818564681
 20
-173.3132507765995
 30
0.0
 41
-0.1
 42
0.1
 43
0.1
  0
ATTRIB
  5
67921
330
67920
100
AcDbEntity
  8
0
100
AcDbText
 10
-176.0721150169476
 20
-179.1251186549511
 30
0.0
 40
4.0
  1
1
  7
TOV
 72
     4
 11
-174.9221150169476
 21
-177.1251186549511
 31
0.0
100
AcDbAttribute
  2
SECTION
 70
     0
  0
SEQEND
  5
67922
330
67920
100
AcDbEntity
  8
TEXT04
  0
DIMENSION
  5
67923
330
2
100
AcDbEntity
  8
DIMV
100
AcDbDimension
  2
*D17
 10
-155.7947880277429
 20
-139.1724072128768
 30
0.0
 11
-157.2947880277429
 21
-169.9916632742579
 31
0.0
 70
   160
 71
     5
 42
70.00000000000011
  3
DIM10A
100
AcDbAlignedDimension
 13
-151.4439237743644
 23
-209.1724072128769
 33
0.0
 14
-151.4439237743645
 24
-139.1724072128768
 34
0.0
 50
270.0
100
AcDbRotatedDimension
  0
HATCH
  5
67926
330
2
100
AcDbEntity
  8
HATCH9
100
AcDbHatch
 10
0.0
 20
0.0
 30
0.0
210
0.0
220
0.0
230
1.0
  2
_USER
 70
     0
 71
     0
 91
        1
 92
        7
 72
     0
 73
     1
 93
        8
 10
-22.29785872315233
 20
-99.4670684947178
 10
-42.29785872315233
 20
-99.4670684947178
 10
-42.29785872315233
 20
-120.5699962086215
 10
-33.82720834903875
 20
-121.7998485072146
 10
-33.29975320104995
 20
-121.1310399315319
 10
-32.66879791541714
 20
-122.7134276222398
 10
-32.14134276742834
 20
-122.0446190465571
 10
-22.29785872315233
 20
-123.4737928340871
 97
        0
 75
     0
 76
     0
 52
45.0
 41
2.5
 77
     0
 78
     1
 53
45.0
 43
-481.4360572829687
 44
-375.9454028818695
 45
-1.767766952966368
 46
1.767766952966368
 79
     0
 47
0.3525249844141306
 98
        1
 10
-38.81787852060734
 20
-109.5103532692878
  0
LINE
  5
67927
330
2
100
AcDbEntity
  8
AK-RAS1
100
AcDbLine
 10
-89.66502476381355
 20
-54.22843039356178
 30
0.0
 11
-81.70528567320856
 21
-54.22843039356172
 31
0.0
  0
LINE
  5
67928
330
2
100
AcDbEntity
  8
AK-RAS1
100
AcDbLine
 10
-89.66502476381355
 20
-53.72842921629995
 30
0.0
 11
-81.20528449594678
 21
-53.72842921629995
 31
0.0
  0
LINE
  5
67929
330
2
100
AcDbEntity
  8
AK-RAS1
100
AcDbLine
 10
-89.66502476381355
 20
-53.35326385355393
 30
0.0
 11
-80.83083858509747
 21
-53.35326385355393
 31
0.0
  0
LINE
  5
6792A
330
2
100
AcDbEntity
  8
AK-RAS1
100
AcDbLine
 10
-89.66502476381355
 20
-52.95326385355434
 30
0.0
 11
-80.43083858509783
 21
-52.95326385355434
 31
0.0
  0
LINE
  5
6792B
330
2
100
AcDbEntity
  8
AK-RAS1
100
AcDbLine
 10
-81.20528449594678
 20
-54.22843039356172
 30
0.0
 11
-81.20528449594678
 21
-53.72842921629995
 31
0.0
  0
LINE
  5
6792C
330
2
100
AcDbEntity
  8
AK-RAS1
100
AcDbLine
 10
-80.43083858509783
 20
-54.22843039356172
 30
0.0
 11
-80.43083858509783
 21
-52.95326385355434
 31
0.0
  0
LINE
  5
6792D
330
2
100
AcDbEntity
  8
AK-RAS1
100
AcDbLine
 10
-80.83083858509747
 20
-54.22843039356172
 30
0.0
 11
-80.83083858509747
 21
-53.35326385355393
 31
0.0
  0
LINE
  5
6792E
330
2
100
AcDbEntity
  8
AK-AVIZAR
100
AcDbLine
 10
-91.06916144372007
 20
-54.51418012366054
 30
0.0
 11
-91.06916144372007
 21
-57.61418012366045
 31
0.0
  0
LINE
  5
6792F
330
2
100
AcDbEntity
  8
AK-AVIZAR
100
AcDbLine
 10
-91.01916144371717
 20
-54.51418012366054
 30
0.0
 11
-91.01916144371717
 21
-57.61418012366045
 31
0.0
  0
LINE
  5
67930
330
2
100
AcDbEntity
  8
AK-AVIZAR
100
AcDbLine
 10
-90.64416144371717
 20
-56.20432292092989
 30
0.0
 11
-90.27218913138858
 21
-55.19119951103045
 31
0.0
  0
LINE
  5
67931
330
2
100
AcDbEntity
  8
AK-AVIZAR
100
AcDbLine
 10
-91.44416144372007
 20
-56.20432292092989
 30
0.0
 11
-91.81613375604138
 21
-55.19119951102999
 31
0.0
  0
LWPOLYLINE
  5
67932
330
2
100
AcDbEntity
  8
AK-PROFIL
100
AcDbPolyline
 90
        8
 70
     1
 43
0.0
 10
-87.67167396971855
 20
-54.4670684947178
 10
-87.67167396971855
 20
-54.31706849471772
 10
-89.66502476381355
 20
-54.31706849471772
 10
-90.10263381524783
 20
-53.57842921630077
 10
-91.98517571478806
 20
-53.57842921630077
 10
-91.98517571478806
 20
-53.72842921630041
 10
-90.1714567359777
 20
-53.72842921630041
 10
-89.73384768455071
 20
-54.4670684947178
  0
LINE
  5
67933
330
2
100
AcDbEntity
  8
AK-AVIZAR
100
AcDbLine
 10
-91.44416144372007
 20
-53.81418012366072
 30
0.0
 11
-90.64416144371717
 21
-53.81418012366072
 31
0.0
  0
LINE
  5
67934
330
2
100
AcDbEntity
  8
AK-AVIZAR
100
AcDbLine
 10
-90.59334808837229
 20
-53.57842921630077
 30
0.0
 11
-91.49446144166359
 21
-53.57842921630077
 31
0.0
  0
ARC
  5
67935
330
2
100
AcDbEntity
  8
AK-AVIZAR
100
AcDbCircle
 10
-91.04390476501794
 20
-53.60836620545893
 30
0.0
 40
0.4515501546795914
100
AcDbArc
 50
3.801398727954018
 51
176.198601272046
  0
LWPOLYLINE
  5
67936
330
2
100
AcDbEntity
  8
AK-AVIZAR
100
AcDbPolyline
 90
        4
 70
     0
 43
0.0
 10
-90.64416144371717
 20
-55.60753727364232
 10
-90.76303214954169
 20
-55.72505518825398
 10
-90.76303214954169
 20
-55.91418012366062
 10
-90.64416144371717
 20
-55.91418012366062
  0
LINE
  5
67937
330
2
100
AcDbEntity
  8
AK-AVIZAR
100
AcDbLine
 10
-90.64416144371717
 20
-55.60753727364232
 30
0.0
 11
-90.64416144371717
 21
-55.47594039264374
 31
0.0
  0
LINE
  5
67938
330
2
100
AcDbEntity
  8
AK-AVIZAR
100
AcDbLine
 10
-90.36606196820139
 20
-55.15673372351426
 30
0.0
 11
-90.27218913138858
 21
-55.19119951103045
 31
0.0
  0
LINE
  5
67939
330
2
100
AcDbEntity
  8
AK-AVIZAR
100
AcDbLine
 10
-91.01916144371717
 20
-54.51418012366054
 30
0.0
 11
-91.06916144372007
 21
-54.51418012366054
 31
0.0
  0
LINE
  5
6793A
330
2
100
AcDbEntity
  8
AK-AVIZAR
100
AcDbLine
 10
-90.64416144371717
 20
-55.21929754262515
 30
0.0
 11
-90.64416144371717
 21
-53.81418012366072
 31
0.0
  0
LINE
  5
6793B
330
2
100
AcDbEntity
  8
AK-AVIZAR
100
AcDbLine
 10
-90.84416144371425
 20
-53.57842921630077
 30
0.0
 11
-90.84416144371425
 21
-53.81418012366072
 31
0.0
  0
LINE
  5
6793C
330
2
100
AcDbEntity
  8
AK-AVIZAR
100
AcDbLine
 10
-91.2441614437157
 20
-53.57842921630077
 30
0.0
 11
-91.2441614437157
 21
-53.81418012366072
 31
0.0
  0
ARC
  5
6793D
330
2
100
AcDbEntity
  8
AK-AVIZAR
100
AcDbCircle
 10
-91.2697820203066
 20
-53.55985403329492
 30
0.0
 40
0.3991769165793324
100
AcDbArc
 50
55.53814059214269
 51
75.13809412608367
  0
ARC
  5
6793E
330
2
100
AcDbEntity
  8
AK-AVIZAR
100
AcDbCircle
 10
-90.81802750972929
 20
-53.55985403329492
 30
0.0
 40
0.3991769165793324
100
AcDbArc
 50
104.8619058739163
 51
124.4618594078572
  0
LINE
  5
6793F
330
2
100
AcDbEntity
  8
AK-AVIZAR
100
AcDbLine
 10
-91.04416144371862
 20
-53.57842921630077
 30
0.0
 11
-91.04416144371862
 21
-53.23195409172291
 31
0.0
  0
LINE
  5
67940
330
2
100
AcDbEntity
  8
AK-AVIZAR
100
AcDbLine
 10
-90.64416144371717
 20
-55.91418012366062
 30
0.0
 11
-90.36606196820139
 21
-55.15673372351426
 31
0.0
  0
LWPOLYLINE
  5
67941
330
2
100
AcDbEntity
  8
AK-AVIZAR
100
AcDbPolyline
 90
        4
 70
     0
 43
0.0
 10
-90.64416144371717
 20
-55.21929754262515
 10
-90.76303214954169
 20
-55.33681545723727
 10
-90.76303214954169
 20
-55.47594039264374
 10
-90.64416144371717
 20
-55.47594039264374
  0
LWPOLYLINE
  5
67942
330
2
100
AcDbEntity
  8
AK-AVIZAR
100
AcDbPolyline
 90
        4
 70
     0
 43
0.0
 10
-91.44416144372007
 20
-55.60753727364232
 10
-91.32529073789555
 20
-55.72505518825398
 10
-91.32529073789555
 20
-55.91418012366062
 10
-91.44416144372007
 20
-55.91418012366062
  0
LINE
  5
67943
330
2
100
AcDbEntity
  8
AK-AVIZAR
100
AcDbLine
 10
-91.44416144372007
 20
-55.60753727364232
 30
0.0
 11
-91.44416144372007
 21
-55.47594039264374
 31
0.0
  0
LINE
  5
67944
330
2
100
AcDbEntity
  8
AK-AVIZAR
100
AcDbLine
 10
-91.44416144372007
 20
-55.21929754262515
 30
0.0
 11
-91.44416144372007
 21
-53.81418012366072
 31
0.0
  0
LINE
  5
67945
330
2
100
AcDbEntity
  8
AK-AVIZAR
100
AcDbLine
 10
-91.72226091923585
 20
-55.15673372351426
 30
0.0
 11
-91.81613375604138
 21
-55.19119951102999
 31
0.0
  0
LWPOLYLINE
  5
67946
330
2
100
AcDbEntity
  8
AK-AVIZAR
100
AcDbPolyline
 90
        4
 70
     0
 43
0.0
 10
-91.44416144372007
 20
-55.21929754262515
 10
-91.32529073789555
 20
-55.33681545723727
 10
-91.32529073789555
 20
-55.47594039264374
 10
-91.44416144372007
 20
-55.47594039264374
  0
LINE
  5
67947
330
2
100
AcDbEntity
  8
AK-AVIZAR
100
AcDbLine
 10
-91.44416144372007
 20
-55.91418012366062
 30
0.0
 11
-91.72226091923585
 21
-55.15673372351426
 31
0.0
  0
LINE
  5
67948
330
2
100
AcDbEntity
  8
AK-AVIZAR
100
AcDbLine
 10
-91.06916144372007
 20
-57.61418012366045
 30
0.0
 11
-91.32529073789555
 21
-57.61418012366045
 31
0.0
  0
LWPOLYLINE
  5
67949
330
2
100
AcDbEntity
  8
AK-AVIZAR
100
AcDbPolyline
 90
        2
 70
     0
 43
0.0
 10
-90.64416144371717
 20
-57.49666220904879
 10
-90.76303214954169
 20
-57.61418012366045
  0
LINE
  5
6794A
330
2
100
AcDbEntity
  8
AK-AVIZAR
100
AcDbLine
 10
-91.01916144371717
 20
-57.61418012366045
 30
0.0
 11
-90.76303214954169
 21
-57.61418012366045
 31
0.0
  0
LINE
  5
6794B
330
2
100
AcDbEntity
  8
AK-AVIZAR
100
AcDbLine
 10
-90.64416144371717
 20
-57.49666220904879
 30
0.0
 11
-90.64416144371717
 21
-57.38559330156255
 31
0.0
  0
LINE
  5
6794C
330
2
100
AcDbEntity
  8
AK-AVIZAR
100
AcDbLine
 10
-90.64416144371717
 20
-57.12895045154397
 30
0.0
 11
-90.64416144371717
 21
-56.9708731214883
 31
0.0
  0
LINE
  5
6794D
330
2
100
AcDbEntity
  8
AK-AVIZAR
100
AcDbLine
 10
-90.64416144371717
 20
-56.71423027147017
 30
0.0
 11
-90.64416144371717
 21
-56.53935506904606
 31
0.0
  0
LWPOLYLINE
  5
6794E
330
2
100
AcDbEntity
  8
AK-AVIZAR
100
AcDbPolyline
 90
        4
 70
     0
 43
0.0
 10
-90.64416144371717
 20
-56.28271221902747
 10
-90.76303214954169
 20
-56.40023013363958
 10
-90.76303214954169
 20
-56.53935506904606
 10
-90.64416144371717
 20
-56.53935506904606
  0
LWPOLYLINE
  5
6794F
330
2
100
AcDbEntity
  8
AK-AVIZAR
100
AcDbPolyline
 90
        4
 70
     0
 43
0.0
 10
-90.64416144371717
 20
-56.71423027147017
 10
-90.76303214954169
 20
-56.83174818608183
 10
-90.76303214954169
 20
-56.9708731214883
 10
-90.64416144371717
 20
-56.9708731214883
  0
LWPOLYLINE
  5
67950
330
2
100
AcDbEntity
  8
AK-AVIZAR
100
AcDbPolyline
 90
        4
 70
     0
 43
0.0
 10
-90.64416144371717
 20
-57.12895045154397
 10
-90.76303214954169
 20
-57.24646836615608
 10
-90.76303214954169
 20
-57.38559330156255
 10
-90.64416144371717
 20
-57.38559330156255
  0
LINE
  5
67951
330
2
100
AcDbEntity
  8
AK-AVIZAR
100
AcDbLine
 10
-90.64416144371717
 20
-56.28271221902747
 30
0.0
 11
-90.64416144371717
 21
-56.20432292092989
 31
0.0
  0
LINE
  5
67952
330
2
100
AcDbEntity
  8
AK-AVIZAR
100
AcDbLine
 10
-91.44416144372007
 20
-57.49666220904879
 30
0.0
 11
-91.44416144372007
 21
-57.38559330156255
 31
0.0
  0
LWPOLYLINE
  5
67953
330
2
100
AcDbEntity
  8
AK-AVIZAR
100
AcDbPolyline
 90
        4
 70
     0
 43
0.0
 10
-91.44416144372007
 20
-57.12895045154397
 10
-91.32529073789555
 20
-57.24646836615608
 10
-91.32529073789555
 20
-57.38559330156255
 10
-91.44416144372007
 20
-57.38559330156255
  0
LWPOLYLINE
  5
67954
330
2
100
AcDbEntity
  8
AK-AVIZAR
100
AcDbPolyline
 90
        4
 70
     0
 43
0.0
 10
-91.44416144372007
 20
-56.71423027147017
 10
-91.32529073789555
 20
-56.83174818608183
 10
-91.32529073789555
 20
-56.9708731214883
 10
-91.44416144372007
 20
-56.9708731214883
  0
LWPOLYLINE
  5
67955
330
2
100
AcDbEntity
  8
AK-AVIZAR
100
AcDbPolyline
 90
        4
 70
     0
 43
0.0
 10
-91.44416144372007
 20
-56.28271221902747
 10
-91.32529073789555
 20
-56.40023013363958
 10
-91.32529073789555
 20
-56.53935506904606
 10
-91.44416144372007
 20
-56.53935506904606
  0
LINE
  5
67956
330
2
100
AcDbEntity
  8
AK-AVIZAR
100
AcDbLine
 10
-91.44416144372007
 20
-56.71423027147017
 30
0.0
 11
-91.44416144372007
 21
-56.53935506904606
 31
0.0
  0
LINE
  5
67957
330
2
100
AcDbEntity
  8
AK-AVIZAR
100
AcDbLine
 10
-91.44416144372007
 20
-57.12895045154397
 30
0.0
 11
-91.44416144372007
 21
-56.9708731214883
 31
0.0
  0
LWPOLYLINE
  5
67958
330
2
100
AcDbEntity
  8
AK-AVIZAR
100
AcDbPolyline
 90
        2
 70
     0
 43
0.0
 10
-91.44416144372007
 20
-57.49666220904879
 10
-91.32529073789555
 20
-57.61418012366045
  0
LINE
  5
67959
330
2
100
AcDbEntity
  8
AK-AVIZAR
100
AcDbLine
 10
-91.44416144372007
 20
-56.28271221902747
 30
0.0
 11
-91.44416144372007
 21
-56.20432292092989
 31
0.0
  0
LINE
  5
6795A
330
2
100
AcDbEntity
  8
AK-RAS1
100
AcDbLine
 10
-89.66502476381355
 20
-54.22843039356178
 30
0.0
 11
-89.66502476381355
 21
-53.72842921630001
 31
0.0
  0
LINE
  5
6795B
330
2
100
AcDbEntity
  8
AK-RAS1
100
AcDbLine
 10
-89.66502476381355
 20
-53.35326385355393
 30
0.0
 11
-89.66502476381355
 21
-52.95326385355429
 31
0.0
  0
LINE
  5
6795C
330
2
100
AcDbEntity
  8
AK-BT
100
AcDbLine
 10
-141.9439237743645
 20
-54.4670684947178
 30
0.0
 11
-151.9439237743645
 21
-54.4670684947178
 31
0.0
  0
LINE
  5
6795D
330
2
100
AcDbEntity
  8
AK-RAS1
100
AcDbLine
 10
-144.2228227849154
 20
-54.22843039356178
 30
0.0
 11
-152.1825618755205
 21
-54.22843039356172
 31
0.0
  0
LINE
  5
6795E
330
2
100
AcDbEntity
  8
AK-RAS1
100
AcDbLine
 10
-144.2228227849154
 20
-53.72842921629995
 30
0.0
 11
-152.6825630527822
 21
-53.72842921629995
 31
0.0
  0
LINE
  5
6795F
330
2
100
AcDbEntity
  8
AK-RAS1
100
AcDbLine
 10
-144.2228227849154
 20
-53.35326385355393
 30
0.0
 11
-153.0570089636315
 21
-53.35326385355393
 31
0.0
  0
LINE
  5
67960
330
2
100
AcDbEntity
  8
AK-RAS1
100
AcDbLine
 10
-144.2228227849154
 20
-52.95326385355434
 30
0.0
 11
-153.4570089636312
 21
-52.95326385355434
 31
0.0
  0
LINE
  5
67961
330
2
100
AcDbEntity
  8
AK-RAS1
100
AcDbLine
 10
-152.6825630527822
 20
-54.22843039356172
 30
0.0
 11
-152.6825630527822
 21
-53.72842921629995
 31
0.0
  0
LINE
  5
67962
330
2
100
AcDbEntity
  8
AK-RAS1
100
AcDbLine
 10
-153.4570089636312
 20
-54.22843039356172
 30
0.0
 11
-153.4570089636312
 21
-52.95326385355434
 31
0.0
  0
LINE
  5
67963
330
2
100
AcDbEntity
  8
AK-RAS1
100
AcDbLine
 10
-153.0570089636315
 20
-54.22843039356172
 30
0.0
 11
-153.0570089636315
 21
-53.35326385355393
 31
0.0
  0
LINE
  5
67964
330
2
100
AcDbEntity
  8
AK-AVIZAR
100
AcDbLine
 10
-142.8186861050089
 20
-54.51418012366054
 30
0.0
 11
-142.8186861050089
 21
-57.61418012366045
 31
0.0
  0
LINE
  5
67965
330
2
100
AcDbEntity
  8
AK-AVIZAR
100
AcDbLine
 10
-142.8686861050118
 20
-54.51418012366054
 30
0.0
 11
-142.8686861050118
 21
-57.61418012366045
 31
0.0
  0
LINE
  5
67966
330
2
100
AcDbEntity
  8
AK-AVIZAR
100
AcDbLine
 10
-143.2436861050118
 20
-56.20432292092989
 30
0.0
 11
-143.6156584173404
 21
-55.19119951103045
 31
0.0
  0
LINE
  5
67967
330
2
100
AcDbEntity
  8
AK-AVIZAR
100
AcDbLine
 10
-142.4436861050089
 20
-56.20432292092989
 30
0.0
 11
-142.0717137926876
 21
-55.19119951102999
 31
0.0
  0
LWPOLYLINE
  5
67968
330
2
100
AcDbEntity
  8
AK-PROFIL
100
AcDbPolyline
 90
        8
 70
     1
 43
0.0
 10
-146.2161735790105
 20
-54.4670684947178
 10
-146.2161735790105
 20
-54.31706849471772
 10
-144.2228227849154
 20
-54.31706849471772
 10
-143.7852137334812
 20
-53.57842921630077
 10
-141.9026718339409
 20
-53.57842921630077
 10
-141.9026718339409
 20
-53.72842921630041
 10
-143.7163908127513
 20
-53.72842921630041
 10
-144.1539998641783
 20
-54.4670684947178
  0
LINE
  5
67969
330
2
100
AcDbEntity
  8
AK-AVIZAR
100
AcDbLine
 10
-142.4436861050089
 20
-53.81418012366072
 30
0.0
 11
-143.2436861050118
 21
-53.81418012366072
 31
0.0
  0
LINE
  5
6796A
330
2
100
AcDbEntity
  8
AK-AVIZAR
100
AcDbLine
 10
-143.2944994603567
 20
-53.57842921630077
 30
0.0
 11
-142.3933861070654
 21
-53.57842921630077
 31
0.0
  0
ARC
  5
6796B
330
2
100
AcDbEntity
  8
AK-AVIZAR
100
AcDbCircle
 10
-142.8439427837111
 20
-53.60836620545893
 30
0.0
 40
0.4515501546795914
100
AcDbArc
 50
3.801398727954012
 51
176.1986012720459
  0
LWPOLYLINE
  5
6796C
330
2
100
AcDbEntity
  8
AK-AVIZAR
100
AcDbPolyline
 90
        4
 70
     0
 43
0.0
 10
-143.2436861050118
 20
-55.60753727364232
 10
-143.1248153991873
 20
-55.72505518825398
 10
-143.1248153991873
 20
-55.91418012366062
 10
-143.2436861050118
 20
-55.91418012366062
  0
LINE
  5
6796D
330
2
100
AcDbEntity
  8
AK-AVIZAR
100
AcDbLine
 10
-143.2436861050118
 20
-55.60753727364232
 30
0.0
 11
-143.2436861050118
 21
-55.47594039264374
 31
0.0
  0
LINE
  5
6796E
330
2
100
AcDbEntity
  8
AK-AVIZAR
100
AcDbLine
 10
-143.5217855805276
 20
-55.15673372351426
 30
0.0
 11
-143.6156584173404
 21
-55.19119951103045
 31
0.0
  0
LINE
  5
6796F
330
2
100
AcDbEntity
  8
AK-AVIZAR
100
AcDbLine
 10
-142.8686861050118
 20
-54.51418012366054
 30
0.0
 11
-142.8186861050089
 21
-54.51418012366054
 31
0.0
  0
LINE
  5
67970
330
2
100
AcDbEntity
  8
AK-AVIZAR
100
AcDbLine
 10
-143.2436861050118
 20
-55.21929754262515
 30
0.0
 11
-143.2436861050118
 21
-53.81418012366072
 31
0.0
  0
LINE
  5
67971
330
2
100
AcDbEntity
  8
AK-AVIZAR
100
AcDbLine
 10
-143.0436861050147
 20
-53.57842921630077
 30
0.0
 11
-143.0436861050147
 21
-53.81418012366072
 31
0.0
  0
LINE
  5
67972
330
2
100
AcDbEntity
  8
AK-AVIZAR
100
AcDbLine
 10
-142.6436861050133
 20
-53.57842921630077
 30
0.0
 11
-142.6436861050133
 21
-53.81418012366072
 31
0.0
  0
ARC
  5
67973
330
2
100
AcDbEntity
  8
AK-AVIZAR
100
AcDbCircle
 10
-142.6180655284224
 20
-53.55985403329492
 30
0.0
 40
0.3991769165793324
100
AcDbArc
 50
104.8619058739163
 51
124.4618594078573
  0
ARC
  5
67974
330
2
100
AcDbEntity
  8
AK-AVIZAR
100
AcDbCircle
 10
-143.0698200389997
 20
-53.55985403329492
 30
0.0
 40
0.3991769165793324
100
AcDbArc
 50
55.53814059214273
 51
75.13809412608367
  0
LINE
  5
67975
330
2
100
AcDbEntity
  8
AK-AVIZAR
100
AcDbLine
 10
-142.8436861050104
 20
-53.57842921630077
 30
0.0
 11
-142.8436861050104
 21
-53.23195409172291
 31
0.0
  0
LINE
  5
67976
330
2
100
AcDbEntity
  8
AK-AVIZAR
100
AcDbLine
 10
-143.2436861050118
 20
-55.91418012366062
 30
0.0
 11
-143.5217855805276
 21
-55.15673372351426
 31
0.0
  0
LWPOLYLINE
  5
67977
330
2
100
AcDbEntity
  8
AK-AVIZAR
100
AcDbPolyline
 90
        4
 70
     0
 43
0.0
 10
-143.2436861050118
 20
-55.21929754262515
 10
-143.1248153991873
 20
-55.33681545723727
 10
-143.1248153991873
 20
-55.47594039264374
 10
-143.2436861050118
 20
-55.47594039264374
  0
LWPOLYLINE
  5
67978
330
2
100
AcDbEntity
  8
AK-AVIZAR
100
AcDbPolyline
 90
        4
 70
     0
 43
0.0
 10
-142.4436861050089
 20
-55.60753727364232
 10
-142.5625568108334
 20
-55.72505518825398
 10
-142.5625568108334
 20
-55.91418012366062
 10
-142.4436861050089
 20
-55.91418012366062
  0
LINE
  5
67979
330
2
100
AcDbEntity
  8
AK-AVIZAR
100
AcDbLine
 10
-142.4436861050089
 20
-55.60753727364232
 30
0.0
 11
-142.4436861050089
 21
-55.47594039264374
 31
0.0
  0
LINE
  5
6797A
330
2
100
AcDbEntity
  8
AK-AVIZAR
100
AcDbLine
 10
-142.4436861050089
 20
-55.21929754262515
 30
0.0
 11
-142.4436861050089
 21
-53.81418012366072
 31
0.0
  0
LINE
  5
6797B
330
2
100
AcDbEntity
  8
AK-AVIZAR
100
AcDbLine
 10
-142.1655866294931
 20
-55.15673372351426
 30
0.0
 11
-142.0717137926876
 21
-55.19119951102999
 31
0.0
  0
LWPOLYLINE
  5
6797C
330
2
100
AcDbEntity
  8
AK-AVIZAR
100
AcDbPolyline
 90
        4
 70
     0
 43
0.0
 10
-142.4436861050089
 20
-55.21929754262515
 10
-142.5625568108334
 20
-55.33681545723727
 10
-142.5625568108334
 20
-55.47594039264374
 10
-142.4436861050089
 20
-55.47594039264374
  0
LINE
  5
6797D
330
2
100
AcDbEntity
  8
AK-AVIZAR
100
AcDbLine
 10
-142.4436861050089
 20
-55.91418012366062
 30
0.0
 11
-142.1655866294931
 21
-55.15673372351426
 31
0.0
  0
LINE
  5
6797E
330
2
100
AcDbEntity
  8
AK-AVIZAR
100
AcDbLine
 10
-142.8186861050089
 20
-57.61418012366045
 30
0.0
 11
-142.5625568108334
 21
-57.61418012366045
 31
0.0
  0
LWPOLYLINE
  5
6797F
330
2
100
AcDbEntity
  8
AK-AVIZAR
100
AcDbPolyline
 90
        2
 70
     0
 43
0.0
 10
-143.2436861050118
 20
-57.49666220904879
 10
-143.1248153991873
 20
-57.61418012366045
  0
LINE
  5
67980
330
2
100
AcDbEntity
  8
AK-AVIZAR
100
AcDbLine
 10
-142.8686861050118
 20
-57.61418012366045
 30
0.0
 11
-143.1248153991873
 21
-57.61418012366045
 31
0.0
  0
LINE
  5
67981
330
2
100
AcDbEntity
  8
AK-AVIZAR
100
AcDbLine
 10
-143.2436861050118
 20
-57.49666220904879
 30
0.0
 11
-143.2436861050118
 21
-57.38559330156255
 31
0.0
  0
LINE
  5
67982
330
2
100
AcDbEntity
  8
AK-AVIZAR
100
AcDbLine
 10
-143.2436861050118
 20
-57.12895045154397
 30
0.0
 11
-143.2436861050118
 21
-56.9708731214883
 31
0.0
  0
LINE
  5
67983
330
2
100
AcDbEntity
  8
AK-AVIZAR
100
AcDbLine
 10
-143.2436861050118
 20
-56.71423027147017
 30
0.0
 11
-143.2436861050118
 21
-56.53935506904606
 31
0.0
  0
LWPOLYLINE
  5
67984
330
2
100
AcDbEntity
  8
AK-AVIZAR
100
AcDbPolyline
 90
        4
 70
     0
 43
0.0
 10
-143.2436861050118
 20
-56.28271221902747
 10
-143.1248153991873
 20
-56.40023013363958
 10
-143.1248153991873
 20
-56.53935506904606
 10
-143.2436861050118
 20
-56.53935506904606
  0
LWPOLYLINE
  5
67985
330
2
100
AcDbEntity
  8
AK-AVIZAR
100
AcDbPolyline
 90
        4
 70
     0
 43
0.0
 10
-143.2436861050118
 20
-56.71423027147017
 10
-143.1248153991873
 20
-56.83174818608183
 10
-143.1248153991873
 20
-56.9708731214883
 10
-143.2436861050118
 20
-56.9708731214883
  0
LWPOLYLINE
  5
67986
330
2
100
AcDbEntity
  8
AK-AVIZAR
100
AcDbPolyline
 90
        4
 70
     0
 43
0.0
 10
-143.2436861050118
 20
-57.12895045154397
 10
-143.1248153991873
 20
-57.24646836615608
 10
-143.1248153991873
 20
-57.38559330156255
 10
-143.2436861050118
 20
-57.38559330156255
  0
LINE
  5
67987
330
2
100
AcDbEntity
  8
AK-AVIZAR
100
AcDbLine
 10
-143.2436861050118
 20
-56.28271221902747
 30
0.0
 11
-143.2436861050118
 21
-56.20432292092989
 31
0.0
  0
LINE
  5
67988
330
2
100
AcDbEntity
  8
AK-AVIZAR
100
AcDbLine
 10
-142.4436861050089
 20
-57.49666220904879
 30
0.0
 11
-142.4436861050089
 21
-57.38559330156255
 31
0.0
  0
LWPOLYLINE
  5
67989
330
2
100
AcDbEntity
  8
AK-AVIZAR
100
AcDbPolyline
 90
        4
 70
     0
 43
0.0
 10
-142.4436861050089
 20
-57.12895045154397
 10
-142.5625568108334
 20
-57.24646836615608
 10
-142.5625568108334
 20
-57.38559330156255
 10
-142.4436861050089
 20
-57.38559330156255
  0
LWPOLYLINE
  5
6798A
330
2
100
AcDbEntity
  8
AK-AVIZAR
100
AcDbPolyline
 90
        4
 70
     0
 43
0.0
 10
-142.4436861050089
 20
-56.71423027147017
 10
-142.5625568108334
 20
-56.83174818608183
 10
-142.5625568108334
 20
-56.9708731214883
 10
-142.4436861050089
 20
-56.9708731214883
  0
LWPOLYLINE
  5
6798B
330
2
100
AcDbEntity
  8
AK-AVIZAR
100
AcDbPolyline
 90
        4
 70
     0
 43
0.0
 10
-142.4436861050089
 20
-56.28271221902747
 10
-142.5625568108334
 20
-56.40023013363958
 10
-142.5625568108334
 20
-56.53935506904606
 10
-142.4436861050089
 20
-56.53935506904606
  0
LINE
  5
6798C
330
2
100
AcDbEntity
  8
AK-AVIZAR
100
AcDbLine
 10
-142.4436861050089
 20
-56.71423027147017
 30
0.0
 11
-142.4436861050089
 21
-56.53935506904606
 31
0.0
  0
LINE
  5
6798D
330
2
100
AcDbEntity
  8
AK-AVIZAR
100
AcDbLine
 10
-142.4436861050089
 20
-57.12895045154397
 30
0.0
 11
-142.4436861050089
 21
-56.9708731214883
 31
0.0
  0
LWPOLYLINE
  5
6798E
330
2
100
AcDbEntity
  8
AK-AVIZAR
100
AcDbPolyline
 90
        2
 70
     0
 43
0.0
 10
-142.4436861050089
 20
-57.49666220904879
 10
-142.5625568108334
 20
-57.61418012366045
  0
LINE
  5
6798F
330
2
100
AcDbEntity
  8
AK-AVIZAR
100
AcDbLine
 10
-142.4436861050089
 20
-56.28271221902747
 30
0.0
 11
-142.4436861050089
 21
-56.20432292092989
 31
0.0
  0
LINE
  5
67990
330
2
100
AcDbEntity
  8
AK-RAS1
100
AcDbLine
 10
-144.2228227849154
 20
-54.22843039356178
 30
0.0
 11
-144.2228227849154
 21
-53.72842921630001
 31
0.0
  0
LINE
  5
67991
330
2
100
AcDbEntity
  8
AK-RAS1
100
AcDbLine
 10
-144.2228227849154
 20
-53.35326385355393
 30
0.0
 11
-144.2228227849154
 21
-52.95326385355429
 31
0.0
  0
DIMENSION
  5
67992
330
2
100
AcDbEntity
  8
DIMV
100
AcDbDimension
  2
*D11
 10
-167.6316606868808
 20
-54.4670684947178
 30
0.0
 11
-169.1316606868808
 21
-64.46706849471782
 31
0.0
 70
    32
 71
     5
 42
19.99999999999999
  3
DIM10A
100
AcDbAlignedDimension
 13
-151.9439237743645
 23
-74.4670684947178
 33
0.0
 14
-151.9439237743645
 24
-54.4670684947178
 34
0.0
 50
90.0
100
AcDbRotatedDimension
  0
CIRCLE
  5
67AB6
330
2
100
AcDbEntity
  8
MABAT3
100
AcDbCircle
 10
-116.4439237743645
 20
-174.1724072128768
 30
0.0
 40
25.0
  0
DIMENSION
  5
67AC5
330
2
100
AcDbEntity
  8
HATCH9
100
AcDbDimension
  2
*D18
 10
-93.93991444125546
 20
-163.2834419757505
 30
0.0
 11
-116.6244570934375
 21
-172.2403447969772
 31
0.0
 70
   163
 71
     5
 42
50.00000000000008
  3
DIM10A
100
AcDbDiametricDimension
 15
-138.9479331074735
 25
-185.061372450003
 35
0.0
 40
0.0
1001
ACAD
1000
DSTYLE
1002
{
1070
   288
1070
     1
1002
}
  0
HATCH
  5
67B7E
330
2
100
AcDbEntity
  8
HATCH9
100
AcDbHatch
 10
0.0
 20
0.0
 30
0.0
210
0.0
220
0.0
230
1.0
  2
GRASS
 70
     0
 71
     0
 91
        1
 92
        7
 72
     1
 73
     1
 93
        4
 10
-153.5514068809287
 20
-66.37724062435705
 42
0.0
 10
-182.8165767009948
 20
-66.377240624357
 42
0.0
 10
-183.1069563635414
 20
-68.37724062435706
 42
0.0
 10
-156.0204061427896
 20
-68.37724062435706
 42
0.3233211164968084
 97
        0
 75
     0
 76
     1
 52
0.0
 41
1.0
 77
     0
 78
     3
 53
90.0
 43
-693.9183992461116
 44
-375.9454028818695
 45
-0.7071067809999999
 46
0.7071067809999999
 79
     2
 49
0.1875
 49
-1.226713562999999
 53
45.0
 43
-693.9183992461116
 44
-375.9454028818695
 45
-0.7071067811865475
 46
0.7071067811865476
 79
     2
 49
0.1875
 49
-0.8125
 53
135.0
 43
-693.9183992461116
 44
-375.9454028818695
 45
-0.7071067811865476
 46
-0.7071067811865475
 79
     2
 49
0.1875
 49
-0.8125
 47
0.1435696228752252
 98
        1
 10
-163.726059553293
 20
-66.51369328020428
  0
HATCH
  5
67B8D
330
2
100
AcDbEntity
  8
HATCH9
100
AcDbHatch
 10
0.0
 20
0.0
 30
0.0
210
0.0
220
0.0
230
1.0
  2
GRASS
 70
     0
 71
     1
 91
        1
 92
        7
 72
     1
 73
     1
 93
        6
 10
-80.33644066780036
 20
-66.37724062435705
 42
0.3233211164968389
 10
-77.86744140593919
 20
-68.37724062435706
 42
0.0
 10
-60.78089118518767
 20
-68.37724062435706
 42
0.0
 10
-46.37434109157766
 20
-68.37724062435706
 42
0.3233211164968389
 10
-43.90534182971649
 20
-66.37724062435705
 42
0.0
 10
-61.07127084773424
 20
-66.37724062435705
 42
0.0
 97
        4
330
6785D
330
678C4
330
678C5
330
6785F
 75
     0
 76
     1
 52
0.0
 41
1.0
 77
     0
 78
     3
 53
90.0
 43
-693.9183992461116
 44
-375.9454028818695
 45
-0.7071067809999999
 46
0.7071067809999999
 79
     2
 49
0.1875
 49
-1.226713562999999
 53
45.0
 43
-693.9183992461116
 44
-375.9454028818695
 45
-0.7071067811865475
 46
0.7071067811865476
 79
     2
 49
0.1875
 49
-0.8125
 53
135.0
 43
-693.9183992461116
 44
-375.9454028818695
 45
-0.7071067811865476
 46
-0.7071067811865475
 79
     2
 49
0.1875
 49
-0.8125
 47
0.1435696228752252
 98
        1
 10
-69.50479458702876
 20
-66.94440308763296
  0
HATCH
  5
67BAF
330
2
100
AcDbEntity
  8
HATCH9
100
AcDbHatch
 10
0.0
 20
0.0
 30
0.0
210
0.0
220
0.0
230
1.0
  2
AR-SAND
 70
     0
 71
     0
 91
        1
 92
        7
 72
     1
 73
     1
 93
       17
 10
-42.29785872315233
 20
-69.47709746491284
 42
0.0
 10
-42.29785872315244
 20
-58.32773328302398
 42
0.0
 10
-42.53649682430841
 20
-58.32773328302398
 42
0.0
 10
-42.53649682430841
 20
-66.37337686314134
 42
-0.4151798693014126
 10
-49.0516403744607
 20
-72.86706849471198
 42
0.0
 10
-60.12901383424457
 20
-72.86706849471198
 42
0.0
 10
-75.19014212305672
 20
-72.86706849471198
 42
-0.4151798693013845
 10
-81.70528567320843
 20
-66.3733768631414
 42
0.0
 10
-81.70528567320856
 20
-54.22843039356178
 42
0.0
 10
-89.71753867215978
 20
-54.22843039356178
 42
0.0
 10
-89.66502476381355
 20
-54.31706849471777
 42
0.0
 10
-87.67167396971855
 20
-54.31706849471772
 42
0.0
 10
-87.67167396971855
 20
-54.4670684947178
 42
0.0
 10
-81.94392377436452
 20
-54.4670684947178
 42
0.0
 10
-81.94392377436452
 20
-69.47709746491284
 42
0.0
 10
-76.95395274455847
 20
-74.4670684947178
 42
0.0
 10
-47.28782975295837
 20
-74.4670684947178
 42
0.0
 97
        0
 75
     0
 76
     1
 52
0.0
 41
1.0
 77
     0
 78
     4
 53
37.5
 43
-693.9183992461116
 44
-375.9454028818695
 45
-0.0629933581096082
 46
1.926823769013158
 79
     6
 49
0.0
 49
-1.52
 49
0.0
 49
-1.7
 49
0.0
 49
-1.625
 53
7.499999999999999
 43
-693.9183992461116
 44
-375.9454028818695
 45
1.769776705267727
 46
2.82214606522974
 79
     6
 49
0.0
 49
-0.8199999999999999
 49
0.0
 49
-1.37
 49
0.0
 49
-0.525
 53
327.4999999999999
 43
-695.1483992461117
 44
-375.9454028818695
 45
3.114141861751495
 46
0.0056590535369645
 79
     6
 49
0.0
 49
-0.5
 49
0.0
 49
-1.8
 49
0.0
 49
-2.35
 53
317.5
 43
-695.1483992461117
 44
-375.9454028818695
 45
3.006126604572293
 46
0.877675564934249
 79
     6
 49
0.0
 49
-0.25
 49
0.0
 49
-1.179999999999999
 49
0.0
 49
-1.35
 47
0.1435696228752252
 98
        1
 10
-64.47774500314881
 20
-73.83574448877107
  0
HATCH
  5
67C4D
330
2
100
AcDbEntity
  8
HATCH9
100
AcDbHatch
 10
0.0
 20
0.0
 30
0.0
210
0.0
220
0.0
230
1.0
  2
MUDST
 70
     0
 71
     0
 91
        1
 92
        7
 72
     1
 73
     1
 93
       16
 10
-43.41094391241836
 20
-65.66550757244954
 42
-0.42921259259321
 10
-46.36807855680149
 20
-68.77724062435851
 42
0.0
 10
-60.72281525267817
 20
-68.77724062435851
 42
0.0
 10
-77.87370394071536
 20
-68.77724062435851
 42
-0.4289912815250453
 10
-80.83095046411006
 20
-65.66771834282377
 42
0.0
 10
-81.20528449594701
 20
-65.66771834282372
 42
0.0
 10
-81.20528449594701
 20
-68.87212476168731
 42
0.3036230902320266
 10
-75.19014212305672
 20
-72.86706849471198
 42
0.0
 10
-60.12901383424457
 20
-72.86706849471198
 42
0.0
 10
-49.05164037446036
 20
-72.86706849471198
 42
0.4151798693013972
 10
-42.53649682430841
 20
-66.37337686314134
 42
0.0
 10
-42.53649682430841
 20
-65.66550757244948
 42
0.0
 10
-42.78649682430841
 20
-65.66550757244948
 42
0.0
 10
-42.78649682430841
 20
-66.37364000294576
 42
-0.0010630175070442
 10
-42.78649682430841
 20
-66.40012342851946
 42
0.0
 10
-42.7864968243083
 20
-65.66550757244948
 42
0.0
 97
        0
 75
     0
 76
     1
 52
0.0
 41
4.0
 77
     1
 78
     1
 53
0.0
 43
-693.9183992461116
 44
-375.9454028818695
 45
2.0
 46
1.0
 79
     6
 49
1.0
 49
-1.0
 49
0.0
 49
-1.0
 49
0.0
 49
-1.0
 47
0.065608521605158
 98
        1
 10
-53.48136717558009
 20
-70.28769757708414
  0
HATCH
  5
67C89
330
2
100
AcDbEntity
  8
HATCH9
100
AcDbHatch
 10
0.0
 20
0.0
 30
0.0
210
0.0
220
0.0
230
1.0
  2
_USER
 70
     0
 71
     0
 91
        2
 92
        7
 72
     0
 73
     1
 93
       10
 10
-141.9439237743645
 20
-54.4670684947178
 10
-151.9439237743645
 20
-54.4670684947178
 10
-151.9439237743645
 20
-74.4670684947178
 10
-183.9911374445227
 20
-74.4670684947178
 10
-185.3446195723471
 20
-83.78922360678382
 10
-184.6758109966645
 20
-84.31667875477257
 10
-186.2581986873723
 20
-84.94763404040538
 10
-185.5893901116897
 20
-85.47508918839417
 10
-187.6208832263551
 20
-99.4670684947178
 10
-141.9439237743646
 20
-99.46706849471775
 97
        0
 92
        7
 72
     0
 73
     1
 93
       12
 10
-22.29785872315289
 20
-27.36109599063758
 10
-32.14134276742857
 20
-25.93192220310754
 10
-32.66879791541703
 20
-26.60073077879025
 10
-33.29975320104995
 20
-25.0183430880823
 10
-33.82720834903875
 20
-25.68715166376512
 10
-42.29785872315267
 20
-24.45729936517182
 10
-42.29785872315244
 20
-74.4670684947178
 10
-81.94392377436452
 20
-74.4670684947178
 10
-81.94392377436452
 20
-54.4670684947178
 10
-91.94392377436452
 20
-54.46706849471775
 10
-91.94392377436452
 20
-99.46706849471787
 10
-22.29785872315233
 20
-99.46706849471775
 97
        0
 75
     0
 76
     0
 52
45.0
 41
2.5
 77
     1
 78
     2
 53
45.0
 43
-693.9183992461116
 44
-375.9454028818695
 45
-1.767766952966368
 46
1.767766952966368
 79
     0
 53
135.0
 43
-693.9183992461116
 44
-375.9454028818695
 45
-1.767766952966368
 46
-1.767766952966368
 79
     0
 47
0.3239519667470386
 98
        2
 10
-174.9568175676913
 20
-91.36412144940095
 10
-65.73911294653044
 20
-95.25154475415275
  0
LINE
  5
67C8C
330
2
100
AcDbEntity
  8
MABAT8
100
AcDbLine
 10
-107.9439237743645
 20
-99.46706849471775
 30
0.0
 11
-107.9439237743645
 21
-54.46706849471786
 31
0.0
  0
LINE
  5
67C8D
330
2
100
AcDbEntity
  8
MABAT8
100
AcDbLine
 10
-125.9439237743646
 20
-99.46706849471775
 30
0.0
 11
-125.9439237743645
 21
-54.46706849471786
 31
0.0
  0
INSERT
  5
67CBE
330
2
100
AcDbEntity
  8
HATCH9
100
AcDbBlockReference
  2
A$C54C46ADD
 10
-91.94392377436452
 20
-74.69772448725326
 30
0.0
 41
0.15
 42
0.15
 43
0.15
  0
TEXT
  5
67CBF
330
2
100
AcDbEntity
  8
TEXT03
100
AcDbText
 10
-127.1107431526461
 20
-104.3311717286486
 30
0.0
 40
1.6
  1
 
  7
ORON
100
AcDbText
1001
ACAD
1000
MTEXTBEGIN
1070
    73
1070
     1
1070
    44
1040
1.0
1070
    74
1070
     0
1000
MTEXTEND
  0
LEADER
  5
67CC0
330
2
100
AcDbEntity
  8
TEXT03
100
AcDbLeader
  3
LEADER-10
 40
15.0
 76
     3
 10
-93.44392377436452
 20
-78.61649422356743
 30
0.0
 10
-100.1372564008172
 20
-104.7865156473437
 30
0.0
 10
-127.8344358156887
 20
-104.7865156473437
 30
0.0
213
10.78021550819107
223
0.0
233
0.0
  0
TEXT
  5
67CC1
330
2
100
AcDbEntity
  8
TEXT03
100
AcDbText
 10
-127.1156100647617
 20
-106.7960450024082
 30
0.0
 40
1.6
  1
   
  7
ORON
100
AcDbText
1001
ACAD
1000
MTEXTBEGIN
1070
    73
1070
     1
1070
    44
1040
1.0
1070
    74
1070
     0
1000
MTEXTEND
  0
TEXT
  5
67CC2
330
2
100
AcDbEntity
  8
TEXT03
100
AcDbText
 10
-127.0042396053959
 20
-109.368087522729
 30
0.0
 40
1.6
  1
  
  7
ORON
100
AcDbText
1001
ACAD
1000
MTEXTBEGIN
1070
    73
1070
     1
1070
    44
1040
1.0
1070
    74
1070
     0
1000
MTEXTEND
  0
INSERT
  5
67D39
330
2
100
AcDbEntity
  8
0
100
AcDbBlockReference
  2
LOGO
 10
0.0
 20
-233.1726836536022
 30
0.0
  0
VIEWPORT
  5
1494
330
1493
100
AcDbEntity
 67
     1
  8
0
100
AcDbViewport
 10
7563.297887047443
 20
1007.372414954556
 30
0.0
 40
1842.802600321187
 41
1214.064101430124
 68
     1
 69
     1
 12
7563.297887047443
 22
1007.372414954556
 13
0.0
 23
0.0
 14
1.0
 24
1.0
 15
0.0
 25
0.0
 16
0.0
 26
0.0
 36
1.0
 17
0.0
 27
0.0
 37
0.0
 42
50.0
 43
0.0
 44
0.0
 45
1214.064101430124
 50
0.0
 51
0.0
 72
   100
 90
    32800
  1

281
     0
 71
     1
 74
     0
110
0.0
120
0.0
130
0.0
111
1.0
121
0.0
131
0.0
112
0.0
122
1.0
132
0.0
 79
     0
146
0.0
  0
LWPOLYLINE
  5
4CBFB
330
1493
100
AcDbEntity
 67
     1
  8
f2
100
AcDbPolyline
 90
        4
 70
     1
 43
0.0
 10
7109.861697547059
 20
1302.571988947794
 10
8016.738582299842
 20
1302.571988947794
 10
8016.738484699841
 20
712.177600947688
 10
7109.861599947059
 20
712.177600947688
  0
LWPOLYLINE
  5
4CBFC
330
1493
100
AcDbEntity
 67
     1
  8
f2
100
AcDbPolyline
 90
        4
 70
     1
 43
0.0
 10
7104.861697547059
 20
1307.571988947794
 10
8021.738582299841
 20
1307.571988947794
 10
8021.738484699842
 20
707.177600947688
 10
7104.86159994706
 20
707.177600947688
  0
VIEWPORT
  5
4CC11
330
1493
100
AcDbEntity
 67
     1
  8
fr9
100
AcDbViewport
 10
7515.984006924854
 20
1004.457358282563
 30
0.0
 40
797.6483674967385
 41
560.5714451991173
 68
     2
 69
     2
 12
992.6047980877482
 22
-188.7333022934842
 13
0.0
 23
0.0
 14
1.0
 24
1.0
 15
0.0
 25
0.0
 16
0.0
 26
0.0
 36
1.0
 17
0.0
 27
0.0
 37
0.0
 42
50.0
 43
0.0
 44
0.0
 45
560.5714466855928
 50
0.0
 51
0.0
 72
   100
 90
    33312
  1

281
     0
 71
     1
 74
     0
110
0.0
120
0.0
130
0.0
111
1.0
121
0.0
131
0.0
112
0.0
122
1.0
132
0.0
 79
     0
146
0.0
  0
TEXT
  5
53944
330
1493
100
AcDbEntity
 67
     1
  8
remtxt
100
AcDbText
 10
8007.344325539122
 20
1073.76185885723
 30
0.0
 40
2.5
  1
1
  7
ORON
 72
     1
 11
8007.641944586742
 21
1075.01185885723
 31
0.0
100
AcDbText
 73
     2
  0
TEXT
  5
53945
330
1493
100
AcDbEntity
 67
     1
  8
remtxt
100
AcDbText
 10
7974.313533235947
 20
1074.260531210475
 30
0.0
 40
2.5
  1
 
 41
0.8
  7
ORON
 72
     2
 11
7990.694485616899
 21
1075.510531210475
 31
0.0
100
AcDbText
 73
     2
  0
TEXT
  5
53946
330
1493
100
AcDbEntity
 67
     1
  8
remtxt
100
AcDbText
 10
7918.419218225832
 20
1074.31916125911
 30
0.0
 40
2.5
  1
19.09.12
  7
ORON
 72
     1
 11
7925.919218225832
 21
1075.56916125911
 31
0.0
100
AcDbText
 73
     2
  0
INSERT
  5
57071
330
1493
100
AcDbEntity
 67
     1
  8
DIMVT
100
AcDbBlockReference
 66
     1
  2
arbilitaba1
 10
8016.738484699841
 20
712.177600947688
 30
0.0
  0
ATTRIB
  5
57072
330
57071
100
AcDbEntity
 67
     1
  8
TEXT03
100
AcDbText
 10
7922.540924116012
 20
845.6021370487858
 30
0.0
 40
3.0
  1
23.09.12
  7
ROMANS
 72
     2
 11
7942.112352687439
 21
845.6021370487858
 31
0.0
100
AcDbAttribute
  2
1DATE
 70
     0
  0
ATTRIB
  5
57073
330
57071
100
AcDbEntity
 67
     1
  8
TEXT04
100
AcDbText
 10
7972.416708053879
 20
845.2260390495348
 30
0.0
 40
4.5
  1
1:50
  7
ROMANS
 72
     2
 11
7986.773850911022
 21
845.2260390495348
 31
0.0
100
AcDbAttribute
  2
SCALE
 70
     0
  0
ATTRIB
  5
57074
330
57071
100
AcDbEntity
 67
     1
  8
TEXT03
100
AcDbText
 10
7950.738484699842
 20
831.1776009476879
 30
0.0
 40
2.0
  1

  7
ORON
 72
     2
 11
7950.738484699842
 21
831.1776009476879
 31
0.0
100
AcDbAttribute
  2
NAME
 70
     0
  0
ATTRIB
  5
57075
330
57071
100
AcDbEntity
 67
     1
  8
TEXT03
100
AcDbText
 10
8000.738484699843
 20
831.1776009476879
 30
0.0
 40
2.0
  1

  7
ORON
 72
     2
 11
8000.738484699843
 21
831.1776009476879
 31
0.0
100
AcDbAttribute
  2
NAME
 70
     0
  0
ATTRIB
  5
57076
330
57071
100
AcDbEntity
 67
     1
  8
T3
100
AcDbText
 10
7918.738484699841
 20
727.177600947688
 30
0.0
 40
3.0
  1
AOONER-PRATIM.DWG
  7
ORON
 11
7918.738484699841
 21
728.677600947688
 31
0.0
100
AcDbAttribute
  2
FILE
 70
     0
 74
     2
  0
ATTRIB
  5
57077
330
57071
100
AcDbEntity
 67
     1
  8
TEXT04
100
AcDbText
 10
7983.35753231889
 20
931.2415247277813
 30
0.0
 40
4.0
  1
 
  7
ORON
 72
     1
 11
7997.738484699842
 21
933.2415247277813
 31
0.0
100
AcDbAttribute
  2
LOCATION
 70
     0
 74
     2
  0
ATTRIB
  5
57078
330
57071
100
AcDbEntity
 67
     1
  8
TEXT04
100
AcDbText
 10
7925.548008509365
 20
931.2415247277813
 30
0.0
 40
4.0
  1
  
  7
ORON
 72
     1
 11
7947.738484699842
 21
933.2415247277813
 31
0.0
100
AcDbAttribute
  2
PROJNAME
 70
     0
 74
     2
  0
ATTRIB
  5
57079
330
57071
100
AcDbEntity
 67
     1
  8
TEXT04
100
AcDbText
 10
7951.184977147988
 20
882.5826312846736
 30
0.0
 40
5.5
  1
 
  7
ORON
 72
     1
 11
7967.554024767036
 21
885.3326312846736
 31
0.0
100
AcDbAttribute
  2
PLANNAME1
 70
     0
 74
     2
  0
ATTRIB
  5
5707A
330
57071
100
AcDbEntity
 67
     1
  8
TEXT04
100
AcDbText
 10
7966.738484699842
 20
878.4495499979581
 30
0.0
 40
4.0
  1

  7
ORON
 72
     1
 11
7966.738484699842
 21
880.449549997958
 31
0.0
100
AcDbAttribute
  2
PLANNAME2
 70
     0
 74
     2
  0
ATTRIB
  5
5707B
330
57071
100
AcDbEntity
 67
     1
  8
T3
100
AcDbText
 10
7918.738484699841
 20
716.177600947688
 30
0.0
 40
3.0
  1
12.12.12
  7
ORON
 11
7918.738484699841
 21
717.6776009476879
 31
0.0
100
AcDbAttribute
  2
LASTDATE
 70
     0
 74
     2
  0
ATTRIB
  5
5707C
330
57071
100
AcDbEntity
 67
     1
  8
TEXT04
100
AcDbText
 10
7942.196530959684
 20
904.1432434218238
 30
0.0
 40
5.5
  1
05
  7
TOV
 72
     1
 11
7947.738484699842
 21
906.8932434218238
 31
0.0
100
AcDbAttribute
  2
SHEETNO
 70
     0
 74
     2
  0
SEQEND
  5
5707D
330
57071
100
AcDbEntity
 67
     1
  8
DIMVT
  0
INSERT
  5
64014
330
1493
100
AcDbEntity
 67
     1
  8
0
100
AcDbBlockReference
  2
status
 10
8016.738484699841
 20
745.177600947688
 30
0.0
  0
TEXT
  5
66999
330
1493
100
AcDbEntity
 67
     1
  8
remtxt
100
AcDbText
 10
8007.071817992729
 20
1079.927600947688
 30
0.0
 40
2.5
  1
2
 41
0.8
  7
ORON
 72
     1
 11
8007.738484659396
 21
1081.177600947688
 31
0.0
100
AcDbText
 73
     2
  0
TEXT
  5
6699A
330
1493
100
AcDbEntity
 67
     1
  8
remtxt
100
AcDbText
 10
7977.091126418263
 20
1080.46145437586
 30
0.0
 40
2.0
  1
 
 41
0.8
  7
ORON
 72
     2
 11
7990.195888323025
 21
1081.46145437586
 31
0.0
100
AcDbText
 73
     2
  0
TEXT
  5
6699D
330
1493
100
AcDbEntity
 67
     1
  8
remtxt
100
AcDbText
 10
7918.238484659397
 20
1079.927600947688
 30
0.0
 40
2.5
  1
07.10.12
  7
ORON
 72
     1
 11
7925.738484659397
 21
1081.177600947688
 31
0.0
100
AcDbText
 73
     2
  0
TEXT
  5
671B7
330
1493
100
AcDbEntity
 67
     1
  8
remtxt
100
AcDbText
 10
8007.071880521573
 20
1085.927600947688
 30
0.0
 40
2.5
  1
3
 41
0.8
  7
ORON
 72
     1
 11
8007.738547188239
 21
1087.177600947688
 31
0.0
100
AcDbText
 73
     2
  0
TEXT
  5
671B8
330
1493
100
AcDbEntity
 67
     1
  8
remtxt
100
AcDbText
 10
7977.091188947105
 20
1086.46145437586
 30
0.0
 40
2.0
  1
 
 41
0.8
  7
ORON
 72
     2
 11
7990.195950851867
 21
1087.46145437586
 31
0.0
100
AcDbText
 73
     2
  0
TEXT
  5
671B9
330
1493
100
AcDbEntity
 67
     1
  8
remtxt
100
AcDbText
 10
7918.476642426336
 20
1085.927600947688
 30
0.0
 40
2.5
  1
12.12.12
  7
ORON
 72
     1
 11
7925.73854718824
 21
1087.177600947688
 31
0.0
100
AcDbText
 73
     2
  0
ENDSEC
  0
SECTION
  2
OBJECTS
  0
DICTIONARY
  5
7
330
0
100
AcDbDictionary
281
     1
  3
ACAD_GROUP
350
BC34
  3
ACAD_IMAGE_DICT
350
67714
  3
ACAD_IMAGE_VARS
350
36287
  3
ACAD_LAYOUT
350
1492
  3
ACAD_MLINESTYLE
350
BC35
  3
ACAD_PLOTSETTINGS
350
BC36
  3
ACAD_PLOTSTYLENAME
350
6
  3
AcDbVariableDictionary
350
BD41
  3
ASE_INDEX_DICTIONARY
350
6772A
  3
DWGPROPS
350
63ECE
  0
DICTIONARY
  5
24B7
330
24B6
100
AcDbDictionary
280
     1
281
     1
  0
DICTIONARY
  5
148D
330
2
100
AcDbDictionary
280
     1
281
     1
  3
ACAD_SORTENTS
360
148E
  0
IMAGEDEF_REACTOR
  5
67D32
330
67D31
100
AcDbRasterImageDefReactor
 90
        2
330
67D31
  0
DICTIONARY
  5
BC34
102
{ACAD_REACTORS
330
7
102
}
330
7
100
AcDbDictionary
281
     1
  0
DICTIONARY
  5
67714
102
{ACAD_REACTORS
330
7
102
}
330
7
100
AcDbDictionary
281
     1
  3
LOGO-BLACK
350
67715
  0
RASTERVARIABLES
  5
36287
102
{ACAD_REACTORS
330
7
102
}
330
7
100
AcDbRasterVariables
 90
        0
 70
     1
 71
     1
 72
     0
  0
DICTIONARY
  5
1492
102
{ACAD_REACTORS
330
7
102
}
330
7
100
AcDbDictionary
281
     1
  3
Model
350
1491
  3
PRATIM
350
24B5
  0
DICTIONARY
  5
BC35
102
{ACAD_REACTORS
330
7
102
}
330
7
100
AcDbDictionary
281
     1
  3
Standard
350
BC37
  0
DICTIONARY
  5
BC36
102
{ACAD_REACTORS
330
7
102
}
330
7
100
AcDbDictionary
281
     1
  3
PDF
350
49983
  0
ACDBDICTIONARYWDFLT
  5
6
102
{ACAD_REACTORS
330
7
102
}
330
7
100
AcDbDictionary
281
     1
  3
Normal
350
5
  3
Style 1
350
18FE9
  3
Style 2
350
178DF
  3
Style 3
350
5C5A7
  3
Style 4
350
178E1
  3
Style 8
350
50400
  3
Style 9
350
50401
  3
Style_1
350
52D1B
100
AcDbDictionaryWithDefault
340
5
  0
DICTIONARY
  5
BD41
102
{ACAD_REACTORS
330
7
102
}
330
7
100
AcDbDictionary
281
     1
  3
SORTENTS
350
BD42
  0
DICTIONARY
  5
6772A
102
{ACAD_REACTORS
330
7
102
}
330
7
100
AcDbDictionary
281
     1
  3
ASEBlockHierarchyIndexRecord
350
6772B
1001
DCO15
1040
1783239577.843
  0
XRECORD
  5
63ECE
102
{ACAD_REACTORS
330
7
102
}
330
7
100
AcDbXrecord
280
     1
  1
DWGPROPS COOKIE
  2

  3

  4

  6

  7

  8
User
  9

300
=
301
=
302
=
303
=
304
=
305
=
306
=
307
=
308
=
309
=
 40
9.273921805555556
 41
2452912.915183912
 42
2455582.448934815
  1

 90
        0
  0
SORTENTSTABLE
  5
148E
102
{ACAD_REACTORS
330
148D
102
}
330
148D
100
AcDbSortentsTable
330
2
331
15
  5
27943
331
16D04
  5
36793
331
332B4
  5
3679B
331
150B1
  5
279A0
331
1F
  5
27946
331
145BD
  5
27980
331
14593
  5
2795E
331
20
  5
27947
331
92A
  5
2794C
331
150DB
  5
36792
331
1458A
  5
2795B
331
1506C
  5
27982
331
21
  5
27948
331
3
  5
276FC
331
150D2
  5
3678F
331
150BC
  5
2CCE2
331
150A8
  5
27998
331
145B4
  5
27976
331
150C6
  5
35BD8
331
14581
  5
27958
331
145A1
  5
27963
331
150C9
  5
3678C
331
1509F
  5
27993
331
145AB
  5
2796C
331
E
  5
276FD
331
14EBB
  5
27981
331
2DCD5
  5
3679A
331
145A2
  5
27966
331
1454E
  5
27952
331
150B4
  5
279A1
331
2B62A
  5
36797
331
14596
  5
2795F
331
F
  5
276FE
331
2CD
  5
2794B
331
196AC
  5
36796
331
1439D
  5
27951
331
14599
  5
27960
331
1458D
  5
2795C
331
150D5
  5
36790
331
150BF
  5
2F8AE
331
10
  5
276FF
331
150AB
  5
2799C
331
145B7
  5
27977
331
1A
  5
27944
331
14584
  5
27959
331
150CC
  5
3678D
331
145AE
  5
27972
331
150A2
  5
27994
331
150C0
  5
3399A
331
124E1
  5
27950
331
11
  5
27700
331
1459B
  5
27961
331
185B1
  5
36794
331
15099
  5
27990
331
145A5
  5
27968
331
150B7
  5
279A3
331
1457B
  5
27953
331
12
  5
27701
331
145BA
  5
2797F
331
14590
  5
2795D
331
150D8
  5
36791
331
150AE
  5
2799D
331
195DE
  5
36795
331
13
  5
27705
331
14587
  5
2795A
331
332C4
  5
3679C
331
1D
  5
27945
331
150CF
  5
3678E
331
150B9
  5
2B9AA
331
150A5
  5
27996
331
145B1
  5
27973
331
150C3
  5
339A4
331
14
  5
27942
331
1459E
  5
27962
331
145A8
  5
27969
331
1509C
  5
27991
331
2BC60
  5
36799
331
1457E
  5
27954
  0
IMAGEDEF
  5
67715
102
{ACAD_REACTORS
330
67714
330
67D32
102
}
330
67714
100
AcDbRasterImageDef
 90
        0
  1
F:\ARCHITECT\TERMO-VENT\LOGO-BLACK.jpg
 10
328.0
 20
336.0
 11
0.0030487804878049
 21
0.0030487804878049
280
     1
281
     0
  0
LAYOUT
  5
1491
102
{ACAD_REACTORS
330
1492
102
}
330
1492
100
AcDbPlotSettings
  1

  2
Bullzip PDF Printer
  4
A4
  6
OLE1
 40
3.174999952316284
 41
3.174999952316284
 42
3.175003051757812
 43
3.17498779296875
 44
209.8886566162109
 45
297.0530090332031
 46
5.629999999999999
 47
28.77
 48
-192.273717054838
 49
-233.1726836536022
140
0.0
141
0.0
142
1.0
143
1.0
 70
 11940
 72
     1
 73
     0
 74
     4
  7
CAN50.ctb
 75
     0
147
1.0
148
192.273717054838
149
233.1726836536022
100
AcDbLayout
  1
Model
 70
     1
 71
     0
 10
0.0
 20
0.0
 11
12.0
 21
9.0
 12
0.0
 22
0.0
 32
0.0
 14
0.0
 24
0.0
 34
0.0
 15
0.0
 25
0.0
 35
0.0
146
0.0
 13
0.0
 23
0.0
 33
0.0
 16
1.0
 26
0.0
 36
0.0
 17
0.0
 27
1.0
 37
0.0
 76
     0
330
2
  0
LAYOUT
  5
24B5
102
{ACAD_REACTORS
330
1492
102
}
330
1492
100
AcDbPlotSettings
  1

  2
DesignJet 750C Plus C4709B.pc3
  4
UserDefinedMetric (700.00 x 1000.00MM)
  6

 40
0.0
 41
0.0
 42
0.0
 43
0.0
 44
700.0
 45
1000.0
 46
0.0
 47
0.0
 48
7092.874656757508
 49
701.6136598874909
140
8036.712680214771
141
1316.121476489445
142
1.0
143
1.0
 70
   690
 72
     1
 73
     1
 74
     4
  7
CAN50.ctb
 75
    16
147
1.0
148
-7092.874656757508
149
-701.6136598874909
100
AcDbLayout
  1
PRATIM
 70
     1
 71
     1
 10
7092.874656757508
 20
701.6136598874909
 11
8092.874656757507
 21
1401.613659887491
 12
0.0
 22
0.0
 32
0.0
 14
7104.86159994706
 24
707.177600947688
 34
0.0
 15
8021.738582299841
 25
1307.571988947794
 35
0.0
146
0.0
 13
0.0
 23
0.0
 33
0.0
 16
1.0
 26
0.0
 36
0.0
 17
0.0
 27
1.0
 37
0.0
 76
     0
330
1493
331
1494
  0
MLINESTYLE
  5
BC37
102
{ACAD_REACTORS
330
BC35
102
}
330
BC35
100
AcDbMlineStyle
  2
STANDARD
 70
     0
  3

 62
   256
 51
90.0
 52
90.0
 71
     2
 49
0.5
 62
   256
  6
BYLAYER
 49
-0.5
 62
   256
  6
BYLAYER
  0
PLOTSETTINGS
  5
49983
102
{ACAD_REACTORS
330
BC36
102
}
330
BC36
100
AcDbPlotSettings
  1
PDF
  2
Bullzip PDF Printer
  4
User32767
  6

 40
3.174999952316284
 41
3.174999952316284
 42
3.175048828125
 43
3.17498779296875
 44
1994.619628906249
 45
894.5880126953126
 46
0.0
 47
0.0
 48
5026.63258982022
 49
569.915490985381
140
6817.209290809214
141
1219.915490985381
142
1.0
143
1.0
 70
   690
 72
     1
 73
     0
 74
     4
  7
can100-cl.ctb
 75
    16
147
1.0
148
-5026.63258982022
149
-569.915490985381
  0
ACDBPLACEHOLDER
  5
5
102
{ACAD_REACTORS
330
6
102
}
330
6
  0
ACDBPLACEHOLDER
  5
18FE9
102
{ACAD_REACTORS
330
6
102
}
330
6
  0
ACDBPLACEHOLDER
  5
178DF
102
{ACAD_REACTORS
330
6
102
}
330
6
  0
ACDBPLACEHOLDER
  5
5C5A7
102
{ACAD_REACTORS
330
6
102
}
330
6
  0
ACDBPLACEHOLDER
  5
178E1
102
{ACAD_REACTORS
330
6
102
}
330
6
  0
ACDBPLACEHOLDER
  5
50400
102
{ACAD_REACTORS
330
6
102
}
330
6
  0
ACDBPLACEHOLDER
  5
50401
102
{ACAD_REACTORS
330
6
102
}
330
6
  0
ACDBPLACEHOLDER
  5
52D1B
102
{ACAD_REACTORS
330
6
102
}
330
6
  0
DICTIONARYVAR
  5
BD42
102
{ACAD_REACTORS
330
BD41
102
}
330
BD41
100
DictionaryVariables
280
     0
  1
127
  0
XRECORD
  5
6772B
102
{ACAD_REACTORS
330
6772A
102
}
330
6772A
100
AcDbXrecord
280
     1
330
3
330
E
330
F
330
10
330
11
330
12
330
13
330
14
330
15
330
1439D
330
1454E
330
1457B
330
1457E
330
14581
330
14584
330
14587
330
1458A
330
1458D
330
14590
330
14593
330
14596
330
14599
330
1459B
330
1459E
330
145A2
330
145A5
330
145A8
330
145AB
330
145AE
330
145B1
330
145B4
330
145B7
330
145BA
330
145BD
330
14EBB
330
1506C
330
15099
330
1509C
330
1509F
330
150A2
330
150A5
330
150A8
330
150AB
330
150AE
330
150B1
330
150B4
330
150B7
330
150B9
330
150BC
330
150C0
330
150C3
330
150C6
330
150C9
330
150CC
330
150CF
330
150D2
330
150D5
330
150D8
330
150DB
330
0
330
0
330
0
330
0
330
0
330
0
330
0
330
0
330
0
330
0
330
0
330
0
330
0
330
0
330
0
330
0
330
0
330
0
330
0
330
0
330
0
330
0
330
0
330
0
330
0
330
0
330
0
330
0
330
0
330
0
330
0
330
0
330
0
330
0
330
0
330
0
330
0
330
0
330
0
330
0
330
0
330
0
330
0
330
0
330
0
330
0
330
0
330
0
330
0
330
0
330
0
330
0
330
0
330
0
330
0
330
0
330
0
330
0
330
0
330
0
330
0
330
0
330
0
330
0
330
0
330
0
330
0
330
0
330
0
330
0
330
0
330
0
330
0
330
0
330
0
330
0
330
0
330
0
330
0
330
0
330
0
330
0
330
0
330
0
330
0
330
0
330
0
330
0
330
0
330
0
330
0
330
0
330
0
330
0
330
0
330
0
330
0
330
0
330
0
330
0
330
0
330
0
330
0
330
57071
330
64014
330
0
330
0
330
0
330
0
330
0
330
0
330
0
330
0
330
0
330
0
330
0
330
0
330
0
330
0
330
0
330
0
330
0
330
0
330
0
330
0
330
0
330
0
330
0
330
0
330
0
330
0
330
0
330
0
330
0
330
0
330
0
330
0
330
0
330
0
330
0
330
0
330
0
330
0
330
0
330
0
330
0
330
0
330
0
330
0
330
0
330
0
330
0
330
0
330
0
330
0
330
0
330
0
330
0
330
0
330
0
330
0
330
0
330
0
330
0
330
0
330
0
330
0
330
0
330
0
330
0
330
0
330
0
330
0
330
0
330
0
330
0
330
0
330
0
330
0
330
0
330
0
330
0
330
0
330
0
330
0
330
0
330
0
330
0
330
0
330
0
330
0
330
0
330
0
330
0
330
0
330
0
330
0
330
0
330
0
330
0
330
0
330
0
330
0
330
0
330
0
330
0
330
0
330
0
330
0
330
0
330
0
330
0
330
0
330
0
330
0
330
0
  0
ENDSEC
  0
EOF
