  0
SECTION
  2
HEADER
  9
$ACADVER
  1
AC1015
  9
$ACADMAINTVER
 70
     6
  9
$DWGCODEPAGE
  3
ANSI_1255
  9
$INSBASE
 10
0.0
 20
0.0
 30
0.0
  9
$EXTMIN
 10
-266.6242834908248
 20
-215.7554255700995
 30
0.0
  9
$EXTMAX
 10
-0.0000000000000568
 20
-14.03185910384763
 30
0.0
  9
$LIMMIN
 10
188921.0820000172
 20
685996.9871578218
  9
$LIMMAX
 10
189010.5780000686
 20
686066.8568420409
  9
$ORTHOMODE
 70
     1
  9
$REGENMODE
 70
     1
  9
$FILLMODE
 70
     1
  9
$QTEXTMODE
 70
     0
  9
$MIRRTEXT
 70
     0
  9
$LTSCALE
 40
8.0
  9
$ATTMODE
 70
     1
  9
$TEXTSIZE
 40
1.6
  9
$TRACEWID
 40
0.05
  9
$TEXTSTYLE
  7
AUDIT_I_130617124200-2
  9
$CLAYER
  8
0
  9
$CELTYPE
  6
ByLayer
  9
$CECOLOR
 62
   256
  9
$CELTSCALE
 40
1.0
  9
$DISPSILH
 70
     0
  9
$DIMSCALE
 40
0.1
  9
$DIMASZ
 40
2.0
  9
$DIMEXO
 40
20.0
  9
$DIMDLI
 40
0.0
  9
$DIMRND
 40
0.0
  9
$DIMDLE
 40
11.0
  9
$DIMEXE
 40
0.0
  9
$DIMTP
 40
0.0
  9
$DIMTM
 40
0.0
  9
$DIMTXT
 40
20.0
  9
$DIMCEN
 40
1.0
  9
$DIMTSZ
 40
0.0
  9
$DIMTOL
 70
     0
  9
$DIMLIM
 70
     0
  9
$DIMTIH
 70
     0
  9
$DIMTOH
 70
     0
  9
$DIMSE1
 70
     0
  9
$DIMSE2
 70
     0
  9
$DIMTAD
 70
     1
  9
$DIMZIN
 70
     1
  9
$DIMBLK
  1
TIC
  9
$DIMASO
 70
     1
  9
$DIMSHO
 70
     1
  9
$DIMPOST
  1

  9
$DIMAPOST
  1

  9
$DIMALT
 70
     0
  9
$DIMALTD
 70
     2
  9
$DIMALTF
 40
25.4
  9
$DIMLFAC
 40
1.0
  9
$DIMTOFL
 70
     0
  9
$DIMTVP
 40
0.0
  9
$DIMTIX
 70
     0
  9
$DIMSOXD
 70
     0
  9
$DIMSAH
 70
     0
  9
$DIMBLK1
  1

  9
$DIMBLK2
  1

  9
$DIMSTYLE
  2
DIM10A
  9
$DIMCLRD
 70
   256
  9
$DIMCLRE
 70
    30
  9
$DIMCLRT
 70
     4
  9
$DIMTFAC
 40
1.0
  9
$DIMGAP
 40
5.0
  9
$DIMJUST
 70
     0
  9
$DIMSD1
 70
     0
  9
$DIMSD2
 70
     0
  9
$DIMTOLJ
 70
     1
  9
$DIMTZIN
 70
     1
  9
$DIMALTZ
 70
     1
  9
$DIMALTTZ
 70
     1
  9
$DIMUPT
 70
     0
  9
$DIMDEC
 70
     0
  9
$DIMTDEC
 70
     0
  9
$DIMALTU
 70
     2
  9
$DIMALTTD
 70
     2
  9
$DIMTXSTY
  7
MONOSI
  9
$DIMAUNIT
 70
     0
  9
$DIMADEC
 70
     0
  9
$DIMALTRND
 40
0.0
  9
$DIMAZIN
 70
     0
  9
$DIMDSEP
 70
    46
  9
$DIMATFIT
 70
     3
  9
$DIMFRAC
 70
     0
  9
$DIMLDRBLK
  1
TIC
  9
$DIMLUNIT
 70
     2
  9
$DIMLWD
 70
    -2
  9
$DIMLWE
 70
    -2
  9
$DIMTMOVE
 70
     2
  9
$LUNITS
 70
     2
  9
$LUPREC
 70
     3
  9
$SKETCHINC
 40
0.1
  9
$FILLETRAD
 40
0.0
  9
$AUNITS
 70
     0
  9
$AUPREC
 70
     0
  9
$MENU
  1
acad
  9
$ELEVATION
 40
0.0
  9
$PELEVATION
 40
0.0
  9
$THICKNESS
 40
0.0
  9
$LIMCHECK
 70
     0
  9
$CHAMFERA
 40
10.0
  9
$CHAMFERB
 40
10.0
  9
$CHAMFERC
 40
0.0
  9
$CHAMFERD
 40
0.0
  9
$SKPOLY
 70
     0
  9
$TDCREATE
 40
2452912.915183912
  9
$TDUCREATE
 40
2452912.831850578
  9
$TDUPDATE
 40
2456461.530115197
  9
$TDUUPDATE
 40
2456461.446781863
  9
$TDINDWG
 40
9.6045732060
  9
$TDUSRTIMER
 40
9.6045732060
  9
$USRTIMER
 70
     1
  9
$ANGBASE
 50
0.0
  9
$ANGDIR
 70
     0
  9
$PDMODE
 70
     0
  9
$PDSIZE
 40
0.0
  9
$PLINEWID
 40
0.0
  9
$SPLFRAME
 70
     0
  9
$SPLINETYPE
 70
     6
  9
$SPLINESEGS
 70
     8
  9
$HANDSEED
  5
6AB40
  9
$SURFTAB1
 70
     6
  9
$SURFTAB2
 70
     6
  9
$SURFTYPE
 70
     6
  9
$SURFU
 70
     6
  9
$SURFV
 70
     6
  9
$UCSBASE
  2

  9
$UCSNAME
  2

  9
$UCSORG
 10
0.0
 20
0.0
 30
0.0
  9
$UCSXDIR
 10
1.0
 20
0.0
 30
0.0
  9
$UCSYDIR
 10
0.0
 20
1.0
 30
0.0
  9
$UCSORTHOREF
  2

  9
$UCSORTHOVIEW
 70
     0
  9
$UCSORGTOP
 10
0.0
 20
0.0
 30
0.0
  9
$UCSORGBOTTOM
 10
0.0
 20
0.0
 30
0.0
  9
$UCSORGLEFT
 10
0.0
 20
0.0
 30
0.0
  9
$UCSORGRIGHT
 10
0.0
 20
0.0
 30
0.0
  9
$UCSORGFRONT
 10
0.0
 20
0.0
 30
0.0
  9
$UCSORGBACK
 10
0.0
 20
0.0
 30
0.0
  9
$PUCSBASE
  2

  9
$PUCSNAME
  2

  9
$PUCSORG
 10
0.0
 20
0.0
 30
0.0
  9
$PUCSXDIR
 10
1.0
 20
0.0
 30
0.0
  9
$PUCSYDIR
 10
0.0
 20
1.0
 30
0.0
  9
$PUCSORTHOREF
  2

  9
$PUCSORTHOVIEW
 70
     0
  9
$PUCSORGTOP
 10
0.0
 20
0.0
 30
0.0
  9
$PUCSORGBOTTOM
 10
0.0
 20
0.0
 30
0.0
  9
$PUCSORGLEFT
 10
0.0
 20
0.0
 30
0.0
  9
$PUCSORGRIGHT
 10
0.0
 20
0.0
 30
0.0
  9
$PUCSORGFRONT
 10
0.0
 20
0.0
 30
0.0
  9
$PUCSORGBACK
 10
0.0
 20
0.0
 30
0.0
  9
$USERI1
 70
     0
  9
$USERI2
 70
     0
  9
$USERI3
 70
     0
  9
$USERI4
 70
     0
  9
$USERI5
 70
     0
  9
$USERR1
 40
0.0
  9
$USERR2
 40
0.0
  9
$USERR3
 40
0.0
  9
$USERR4
 40
0.0
  9
$USERR5
 40
0.0
  9
$WORLDVIEW
 70
     1
  9
$SHADEDGE
 70
     3
  9
$SHADEDIF
 70
    70
  9
$TILEMODE
 70
     1
  9
$MAXACTVP
 70
    16
  9
$PINSBASE
 10
0.0
 20
0.0
 30
0.0
  9
$PLIMCHECK
 70
     0
  9
$PEXTMIN
 10
7104.86159994706
 20
707.177600947688
 30
0.0
  9
$PEXTMAX
 10
8021.738582299841
 20
1307.571988947794
 30
0.0
  9
$PLIMMIN
 10
7092.874656757508
 20
701.6136598874909
  9
$PLIMMAX
 10
8092.874656757507
 20
1401.613659887491
  9
$UNITMODE
 70
     0
  9
$VISRETAIN
 70
     0
  9
$PLINEGEN
 70
     0
  9
$PSLTSCALE
 70
     1
  9
$TREEDEPTH
 70
  3020
  9
$CMLSTYLE
  2
Standard
  9
$CMLJUST
 70
     0
  9
$CMLSCALE
 40
1.0
  9
$PROXYGRAPHICS
 70
     1
  9
$MEASUREMENT
 70
     0
  9
$CELWEIGHT
370
    -1
  9
$ENDCAPS
280
     0
  9
$JOINSTYLE
280
     0
  9
$LWDISPLAY
290
     0
  9
$INSUNITS
 70
     0
  9
$HYPERLINKBASE
  1

  9
$STYLESHEET
  1
CAN50.ctb
  9
$XEDIT
290
     1
  9
$CEPSNTYPE
380
     0
  9
$PSTYLEMODE
290
     1
  9
$FINGERPRINTGUID
  2

  9
$VERSIONGUID
  2
{C80CF5F9-F258-45FD-AF9F-60EFE93C73ED}
  9
$EXTNAMES
290
     1
  9
$PSVPSCALE
 40
1.0
  9
$OLESTARTUP
290
     0
  0
ENDSEC
  0
SECTION
  2
CLASSES
  0
CLASS
  1
ACDBDICTIONARYWDFLT
  2
AcDbDictionaryWithDefault
  3
AutoCAD 2000
 90
        0
280
     0
281
     0
  0
CLASS
  1
ACDBPLACEHOLDER
  2
AcDbPlaceHolder
  3
AutoCAD 2000
 90
        0
280
     0
281
     0
  0
CLASS
  1
LAYOUT
  2
AcDbLayout
  3
AutoCAD 2000
 90
        0
280
     0
281
     0
  0
CLASS
  1
DICTIONARYVAR
  2
AcDbDictionaryVar
  3
AutoCAD 2000
 90
        0
280
     0
281
     0
  0
CLASS
  1
PLOTSETTINGS
  2
AcDbPlotSettings
  3
AutoCAD 2000
 90
        0
280
     0
281
     0
  0
CLASS
  1
SORTENTSTABLE
  2
AcDbSortentsTable
  3
AutoCAD 2000
 90
        0
280
     0
281
     0
  0
CLASS
  1
WIPEOUT
  2
AcDbWipeout
  3
WipeOut|AutoCAD Express Tool|expresstools@autodesk.com
 90
    32895
280
     0
281
     1
  0
CLASS
  1
WIPEOUTVARIABLES
  2
AcDbWipeoutVariables
  3
WipeOut|AutoCAD Express Tool|expresstools@autodesk.com
 90
    32768
280
     0
281
     0
  0
CLASS
  1
RASTERVARIABLES
  2
AcDbRasterVariables
  3
ISM
 90
        0
280
     0
281
     0
  0
CLASS
  1
IMAGEDEF
  2
AcDbRasterImageDef
  3
ISM
 90
        0
280
     0
281
     0
  0
CLASS
  1
IMAGEDEF_REACTOR
  2
AcDbRasterImageDefReactor
  3
ISM
 90
        1
280
     0
281
     0
  0
CLASS
  1
IMAGE
  2
AcDbRasterImage
  3
ISM
 90
      127
280
     0
281
     1
  0
ENDSEC
  0
SECTION
  2
TABLES
  0
TABLE
  2
VPORT
  5
BC28
330
0
100
AcDbSymbolTable
 70
     2
  0
VPORT
  5
6AB3F
330
BC28
100
AcDbSymbolTableRecord
100
AcDbViewportTableRecord
  2
*Active
 70
     0
 10
0.0
 20
0.0
 11
1.0
 21
1.0
 12
-133.3121417454124
 22
-114.8936423369735
 13
0.0
 23
0.0
 14
1.0
 24
1.0
 15
0.0
 25
0.0
 16
0.0
 26
0.0
 36
1.0
 17
0.0
 27
0.0
 37
0.0
 40
406.428269382744
 41
1.517879161528976
 42
50.0
 43
0.0
 44
0.0
 50
0.0
 51
0.0
 71
     0
 72
   100
 73
     1
 74
     1
 75
     0
 76
     0
 77
     0
 78
     0
281
     0
 65
     1
110
0.0
120
0.0
130
0.0
111
1.0
121
0.0
131
0.0
112
0.0
122
1.0
132
0.0
 79
     0
146
0.0
  0
ENDTAB
  0
TABLE
  2
LTYPE
  5
BC23
330
0
100
AcDbSymbolTable
 70
     2
  0
LTYPE
  5
BC24
330
BC23
100
AcDbSymbolTableRecord
100
AcDbLinetypeTableRecord
  2
ByBlock
 70
     0
  3

 72
    65
 73
     0
 40
0.0
  0
LTYPE
  5
BC25
330
BC23
100
AcDbSymbolTableRecord
100
AcDbLinetypeTableRecord
  2
ByLayer
 70
     0
  3

 72
    65
 73
     0
 40
0.0
  0
LTYPE
  5
8
330
BC23
100
AcDbSymbolTableRecord
100
AcDbLinetypeTableRecord
  2
CONTINUOUS
 70
     0
  3
Solid line
 72
    65
 73
     0
 40
0.0
  0
LTYPE
  5
8D
330
BC23
100
AcDbSymbolTableRecord
100
AcDbLinetypeTableRecord
  2
HIDDEN
 70
     0
  3
_ _ _ _ _ _ _ _ _ _ _ _ _ _ _ _ _ _ _ _ _ _ _
 72
    65
 73
     2
 40
0.375
 49
0.25
 74
     0
 49
-0.125
 74
     0
  0
ENDTAB
  0
TABLE
  2
LAYER
  5
24B6
102
{ACAD_XDICTIONARY
360
24B7
102
}
330
0
100
AcDbSymbolTable
 70
    40
  0
LAYER
  5
C
330
24B6
100
AcDbSymbolTableRecord
100
AcDbLayerTableRecord
  2
0
 70
     0
 62
     7
  6
CONTINUOUS
370
    -3
390
5
  0
LAYER
  5
8BA
330
24B6
100
AcDbSymbolTableRecord
100
AcDbLayerTableRecord
  2
MABAT2
 70
     0
 62
     2
  6
CONTINUOUS
370
    -3
390
5
  0
LAYER
  5
89D
330
24B6
100
AcDbSymbolTableRecord
100
AcDbLayerTableRecord
  2
HIDDEN
 70
     0
 62
     9
  6
HIDDEN
370
    -3
390
5
  0
LAYER
  5
F5
330
24B6
100
AcDbSymbolTableRecord
100
AcDbLayerTableRecord
  2
TEXT03
 70
     0
 62
     4
  6
CONTINUOUS
370
    -3
390
5
  0
LAYER
  5
7B7
330
24B6
100
AcDbSymbolTableRecord
100
AcDbLayerTableRecord
  2
TEXT04
 70
     0
 62
     3
  6
CONTINUOUS
370
    -3
390
5
  0
LAYER
  5
8C
330
24B6
100
AcDbSymbolTableRecord
100
AcDbLayerTableRecord
  2
UP
 70
     0
 62
     3
  6
HIDDEN
370
    -3
390
5
  0
LAYER
  5
7B
330
24B6
100
AcDbSymbolTableRecord
100
AcDbLayerTableRecord
  2
BETON
 70
     0
 62
   140
  6
CONTINUOUS
370
    -3
390
5
  0
LAYER
  5
334
330
24B6
100
AcDbSymbolTableRecord
100
AcDbLayerTableRecord
  2
DIMH
 70
     0
 62
     9
  6
CONTINUOUS
370
    -3
390
5
  0
LAYER
  5
2EB
330
24B6
100
AcDbSymbolTableRecord
100
AcDbLayerTableRecord
  2
DIMV
 70
     0
 62
     9
  6
CONTINUOUS
370
    -3
390
5
  0
LAYER
  5
2FA
330
24B6
100
AcDbSymbolTableRecord
100
AcDbLayerTableRecord
  2
DEFPOINTS
 70
     0
 62
     7
  6
CONTINUOUS
290
     0
370
    -3
390
5
  0
LAYER
  5
7D2
330
24B6
100
AcDbSymbolTableRecord
100
AcDbLayerTableRecord
  2
DIMVT
 70
     0
 62
     4
  6
CONTINUOUS
370
    -3
390
5
  0
LAYER
  5
4
330
24B6
100
AcDbSymbolTableRecord
100
AcDbLayerTableRecord
  2
ASHADE
 70
     0
 62
     7
  6
CONTINUOUS
370
    -3
390
5
  0
LAYER
  5
1B
330
24B6
100
AcDbSymbolTableRecord
100
AcDbLayerTableRecord
  2
pit233
 70
     0
 62
     4
  6
CONTINUOUS
370
    -3
390
5
  0
LAYER
  5
1E
330
24B6
100
AcDbSymbolTableRecord
100
AcDbLayerTableRecord
  2
pitdimh
 70
     0
 62
     9
  6
CONTINUOUS
370
    -3
390
5
  0
LAYER
  5
13F79
330
24B6
100
AcDbSymbolTableRecord
100
AcDbLayerTableRecord
  2
DCA_INFO
 70
     0
 62
     7
  6
CONTINUOUS
370
    -3
390
5
  0
LAYER
  5
13F8A
330
24B6
100
AcDbSymbolTableRecord
100
AcDbLayerTableRecord
  2
CTACK
 70
     0
 62
     7
  6
CONTINUOUS
370
    -3
390
5
  0
LAYER
  5
14A8F
330
24B6
100
AcDbSymbolTableRecord
100
AcDbLayerTableRecord
  2
pitDCA_INFO
 70
     0
 62
     7
  6
CONTINUOUS
370
    -3
390
5
  0
LAYER
  5
14AA2
330
24B6
100
AcDbSymbolTableRecord
100
AcDbLayerTableRecord
  2
pitCTACK
 70
     0
 62
     7
  6
CONTINUOUS
370
    -3
390
5
  0
LAYER
  5
1859E
330
24B6
100
AcDbSymbolTableRecord
100
AcDbLayerTableRecord
  2
railm
 70
     0
 62
     6
  6
CONTINUOUS
370
    -3
390
5
  0
LAYER
  5
4CBD7
330
24B6
100
AcDbSymbolTableRecord
100
AcDbLayerTableRecord
  2
f2
 70
     0
 62
     2
  6
CONTINUOUS
370
    -3
390
5
  0
LAYER
  5
4CBD9
330
24B6
100
AcDbSymbolTableRecord
100
AcDbLayerTableRecord
  2
T1
 70
     0
 62
     1
  6
CONTINUOUS
370
    -3
390
5
  0
LAYER
  5
4CC0E
330
24B6
100
AcDbSymbolTableRecord
100
AcDbLayerTableRecord
  2
fr9
 70
     0
 62
     9
  6
CONTINUOUS
290
     0
370
    -3
390
5
  0
LAYER
  5
53943
330
24B6
100
AcDbSymbolTableRecord
100
AcDbLayerTableRecord
  2
remtxt
 70
     0
 62
     4
  6
CONTINUOUS
370
    -3
390
5
  0
LAYER
  5
56113
330
24B6
100
AcDbSymbolTableRecord
100
AcDbLayerTableRecord
  2
F1
 70
     0
 62
     1
  6
CONTINUOUS
370
    -3
390
52D1B
  0
LAYER
  5
568FF
330
24B6
100
AcDbSymbolTableRecord
100
AcDbLayerTableRecord
  2
T3
 70
     0
 62
     4
  6
CONTINUOUS
370
    -3
390
178E1
  0
LAYER
  5
5C56B
330
24B6
100
AcDbSymbolTableRecord
100
AcDbLayerTableRecord
  2
MABAT3
 70
     0
 62
     3
  6
CONTINUOUS
370
    -3
390
50400
  0
LAYER
  5
5C56C
330
24B6
100
AcDbSymbolTableRecord
100
AcDbLayerTableRecord
  2
MABAT
 70
     0
 62
     4
  6
CONTINUOUS
370
    -3
390
178E1
  0
LAYER
  5
5C56D
330
24B6
100
AcDbSymbolTableRecord
100
AcDbLayerTableRecord
  2
HATCH9
 70
     0
 62
    30
  6
CONTINUOUS
370
    -3
390
178DF
  0
LAYER
  5
5C56E
330
24B6
100
AcDbSymbolTableRecord
100
AcDbLayerTableRecord
  2
TEXT05
 70
     0
 62
     1
  6
CONTINUOUS
370
    -3
390
50401
  0
LAYER
  5
5C56F
330
24B6
100
AcDbSymbolTableRecord
100
AcDbLayerTableRecord
  2
A-GRP
 70
     0
 62
     2
  6
CONTINUOUS
370
    -3
390
5C5A7
  0
LAYER
  5
5C579
330
24B6
100
AcDbSymbolTableRecord
100
AcDbLayerTableRecord
  2
None
 70
     0
 62
     4
  6
CONTINUOUS
370
     5
390
5
  0
LAYER
  5
5D571
330
24B6
100
AcDbSymbolTableRecord
100
AcDbLayerTableRecord
  2
MABAT8
 70
     0
 62
    30
  6
CONTINUOUS
370
    -3
390
5
  0
LAYER
  5
671E6
330
24B6
100
AcDbSymbolTableRecord
100
AcDbLayerTableRecord
  2
AK-TIH
 70
     0
 62
     3
  6
CONTINUOUS
370
    -3
390
5
  0
LAYER
  5
67F3A
330
24B6
100
AcDbSymbolTableRecord
100
AcDbLayerTableRecord
  2
ETZ
 70
     0
 62
     3
  6
CONTINUOUS
370
    -3
390
5
1001
RAK
1000
{ACET-LAYISO
1070
     0
1070
     3
1000
CONTINUOUS
1071
       -3
1071
        1
1005
0
1000
ACET-LAYISO}
  0
LAYER
  5
67F3B
330
24B6
100
AcDbSymbolTableRecord
100
AcDbLayerTableRecord
  2
TEXT
 70
     0
 62
     4
  6
CONTINUOUS
370
    -3
390
5
1001
RAK
1000
{ACET-LAYISO
1070
     0
1070
     4
1000
CONTINUOUS
1071
       -3
1071
        1
1005
0
1000
ACET-LAYISO}
  0
LAYER
  5
67F3C
330
24B6
100
AcDbSymbolTableRecord
100
AcDbLayerTableRecord
  2
HATCH
 70
     0
 62
     9
  6
CONTINUOUS
370
    -3
390
5
1001
RAK
1000
{ACET-LAYISO
1070
     0
1070
     8
1000
CONTINUOUS
1070
     1
1071
       -3
1071
        1
1005
0
1000
ACET-LAYISO}
  0
LAYER
  5
67F3D
330
24B6
100
AcDbSymbolTableRecord
100
AcDbLayerTableRecord
  2
CLAY
 70
     0
 62
     2
  6
CONTINUOUS
370
    -3
390
5
  0
LAYER
  5
67F3E
330
24B6
100
AcDbSymbolTableRecord
100
AcDbLayerTableRecord
  2
TIN
 70
     0
 62
     2
  6
CONTINUOUS
370
    -3
390
5
  0
LAYER
  5
67F40
330
24B6
100
AcDbSymbolTableRecord
100
AcDbLayerTableRecord
  2
WOD-HT
 70
     0
 62
     9
  6
CONTINUOUS
370
    -3
390
5
  0
LAYER
  5
67F42
330
24B6
100
AcDbSymbolTableRecord
100
AcDbLayerTableRecord
  2
FILLINING
 70
     0
 62
     9
  6
CONTINUOUS
370
    -3
390
5
  0
ENDTAB
  0
TABLE
  2
STYLE
  5
BC21
330
0
100
AcDbSymbolTable
 70
     9
  0
STYLE
  5
1C
330
BC21
100
AcDbSymbolTableRecord
100
AcDbTextStyleTableRecord
  2
STANDARD
 70
     0
 40
0.0
 41
1.0
 50
0.0
 71
     0
 42
1.0
  3
HEBTXT.SHX
  4

  0
STYLE
  5
22
330
BC21
100
AcDbSymbolTableRecord
100
AcDbTextStyleTableRecord
  2
MONOSI
 70
     0
 40
0.0
 41
1.0
 50
0.0
 71
     0
 42
15.0
  3
MONOSI.shx
  4

  0
STYLE
  5
140
330
BC21
100
AcDbSymbolTableRecord
100
AcDbTextStyleTableRecord
  2
ORON
 70
     0
 40
0.0
 41
0.8
 50
0.0
 71
     0
 42
20.0
  3
ORON.shx
  4

  0
STYLE
  5
7B5
330
BC21
100
AcDbSymbolTableRecord
100
AcDbTextStyleTableRecord
  2
TOV
 70
     0
 40
0.0
 41
1.0
 50
0.0
 71
     0
 42
15.0
  3
TOVANA02.SHX
  4

  0
STYLE
  5
1382A
330
BC21
100
AcDbSymbolTableRecord
100
AcDbTextStyleTableRecord
  2
SIVAN
 70
     0
 40
0.4
 41
1.0
 50
0.0
 71
     0
 42
0.4
  3
SIVAN.shx
  4

  0
STYLE
  5
4CBDE
330
BC21
100
AcDbSymbolTableRecord
100
AcDbTextStyleTableRecord
  2
ROMANS
 70
     0
 40
0.0
 41
1.0
 50
0.0
 71
     0
 42
0.3
  3
romans.shx
  4

  0
STYLE
  5
5260E
330
BC21
100
AcDbSymbolTableRecord
100
AcDbTextStyleTableRecord
  2
AUDIT_I_130617124200-2
 70
     0
 40
0.0
 41
1.0
 50
0.0
 71
     0
 42
1.6
  3

  4

  0
STYLE
  5
5C597
330
BC21
100
AcDbSymbolTableRecord
100
AcDbTextStyleTableRecord
  2
Arial (italic)
 70
     0
 40
0.0
 41
1.0
 50
0.0
 71
     0
 42
0.0
  3
ARIALI.TTF
  4

1001
ACAD
1000
Arial
1071
 16777216
  0
STYLE
  5
6A1CF
330
BC21
100
AcDbSymbolTableRecord
100
AcDbTextStyleTableRecord
  2
ORONB
 70
     0
 40
0.0
 41
1.0
 50
0.0
 71
     0
 42
2.5
  3
ORONBOLD.SHX
  4

  0
ENDTAB
  0
TABLE
  2
VIEW
  5
BC26
330
0
100
AcDbSymbolTable
 70
     3
  0
VIEW
  5
CBD5
330
BC26
100
AcDbSymbolTableRecord
100
AcDbViewTableRecord
  2
OLE1
 70
     0
 40
2829.124993734357
 10
-6275.159076791068
 20
-12746.67069334954
 41
4206.968315775564
 11
0.0
 21
0.0
 31
1.0
 12
0.0
 22
0.0
 32
0.0
 42
50.0
 43
0.0
 44
0.0
 50
0.0
 71
     0
281
     0
 72
     0
  0
VIEW
  5
19E7A
330
BC26
100
AcDbSymbolTableRecord
100
AcDbViewTableRecord
  2
OLE2
 70
     0
 40
2929.23966654166
 10
-3329.920335965899
 20
4830.031660100008
 41
4438.89701006067
 11
0.0
 21
0.0
 31
1.0
 12
0.0
 22
0.0
 32
0.0
 42
50.0
 43
0.0
 44
0.0
 50
0.0
 71
     0
281
     0
 72
     0
  0
VIEW
  5
1A2D0
330
BC26
100
AcDbSymbolTableRecord
100
AcDbViewTableRecord
  2
OLE3
 70
     0
 40
799.5220703068343
 10
-26079.71063570627
 20
131.2783816556038
 41
1211.575880218966
 11
0.0
 21
0.0
 31
1.0
 12
0.0
 22
0.0
 32
0.0
 42
50.0
 43
0.0
 44
0.0
 50
0.0
 71
     0
281
     0
 72
     0
  0
ENDTAB
  0
TABLE
  2
UCS
  5
BC27
330
0
100
AcDbSymbolTable
 70
     0
  0
ENDTAB
  0
TABLE
  2
APPID
  5
BC2A
330
0
100
AcDbSymbolTable
 70
   339
  0
APPID
  5
2B0
330
BC2A
100
AcDbSymbolTableRecord
100
AcDbRegAppTableRecord
  2
ACAD
 70
     0
  0
APPID
  5
D
330
BC2A
100
AcDbSymbolTableRecord
100
AcDbRegAppTableRecord
  2
AVE_RENDER
 70
     0
  0
APPID
  5
19
330
BC2A
100
AcDbSymbolTableRecord
100
AcDbRegAppTableRecord
  2
AVE_MATERIAL
 70
     0
  0
APPID
  5
2433
330
BC2A
100
AcDbSymbolTableRecord
100
AcDbRegAppTableRecord
  2
AcAecLayerStandard
 70
     0
  0
APPID
  5
14B5
330
BC2A
100
AcDbSymbolTableRecord
100
AcDbRegAppTableRecord
  2
RAK
 70
     0
  0
APPID
  5
13F8E
330
BC2A
100
AcDbSymbolTableRecord
100
AcDbRegAppTableRecord
  2
SDI_SETUP
 70
     0
  0
APPID
  5
13F8F
330
BC2A
100
AcDbSymbolTableRecord
100
AcDbRegAppTableRecord
  2
TR_DXF
 70
     0
  0
APPID
  5
13F90
330
BC2A
100
AcDbSymbolTableRecord
100
AcDbRegAppTableRecord
  2
DCA_DTM_FAULTS
 70
     0
  0
APPID
  5
17610
330
BC2A
100
AcDbSymbolTableRecord
100
AcDbRegAppTableRecord
  2
ACAD_PSEXT
 70
     0
  0
APPID
  5
1A1C8
330
BC2A
100
AcDbSymbolTableRecord
100
AcDbRegAppTableRecord
  2
NOTR_DXF
 70
     0
  0
APPID
  5
1C631
330
BC2A
100
AcDbSymbolTableRecord
100
AcDbRegAppTableRecord
  2
ACAD_DSTYLE_DIMARC_LENGTH_SYMBOL
 70
     0
  0
APPID
  5
211E4
330
BC2A
100
AcDbSymbolTableRecord
100
AcDbRegAppTableRecord
  2
ACAD_EXEMPT_FROM_CAD_STANDARDS
 70
     0
  0
APPID
  5
211E5
330
BC2A
100
AcDbSymbolTableRecord
100
AcDbRegAppTableRecord
  2
ACAD_DSTYLE_DIMTEXT_FILL
 70
     0
  0
APPID
  5
211E6
330
BC2A
100
AcDbSymbolTableRecord
100
AcDbRegAppTableRecord
  2
ACAD_DSTYLE_DIMEXT_LENGTH
 70
     0
  0
APPID
  5
211E7
330
BC2A
100
AcDbSymbolTableRecord
100
AcDbRegAppTableRecord
  2
ACAD_DSTYLE_DIMEXT_ENABLED
 70
     0
  0
APPID
  5
211E8
330
BC2A
100
AcDbSymbolTableRecord
100
AcDbRegAppTableRecord
  2
ACAD_DSTYLE_DIM_LINETYPE
 70
     0
  0
APPID
  5
211E9
330
BC2A
100
AcDbSymbolTableRecord
100
AcDbRegAppTableRecord
  2
ACAD_DSTYLE_DIM_EXT1_LINETYPE
 70
     0
  0
APPID
  5
211EA
330
BC2A
100
AcDbSymbolTableRecord
100
AcDbRegAppTableRecord
  2
ACAD_DSTYLE_DIM_EXT2_LINETYPE
 70
     0
  0
APPID
  5
211EB
330
BC2A
100
AcDbSymbolTableRecord
100
AcDbRegAppTableRecord
  2
ACAD_DSTYLE_DIMJOGGED_JOGANGLE_SYMBOL
 70
     0
  0
APPID
  5
27DFB
330
BC2A
100
AcDbSymbolTableRecord
100
AcDbRegAppTableRecord
  2
DCO15
 70
     0
  0
APPID
  5
354C5
330
BC2A
100
AcDbSymbolTableRecord
100
AcDbRegAppTableRecord
  2
TVE_POINT
 70
     0
  0
APPID
  5
354C6
330
BC2A
100
AcDbSymbolTableRecord
100
AcDbRegAppTableRecord
  2
TVE_POLYGON
 70
     0
  0
APPID
  5
354C7
330
BC2A
100
AcDbSymbolTableRecord
100
AcDbRegAppTableRecord
  2
TVE_DIMENSION_TEXT
 70
     0
  0
APPID
  5
354C8
330
BC2A
100
AcDbSymbolTableRecord
100
AcDbRegAppTableRecord
  2
TVE_DIMENSION_LINE
 70
     0
  0
APPID
  5
354C9
330
BC2A
100
AcDbSymbolTableRecord
100
AcDbRegAppTableRecord
  2
TVE_642081215360606
 70
     0
  0
APPID
  5
354CA
330
BC2A
100
AcDbSymbolTableRecord
100
AcDbRegAppTableRecord
  2
TVE_63208121536065
 70
     0
  0
APPID
  5
354CB
330
BC2A
100
AcDbSymbolTableRecord
100
AcDbRegAppTableRecord
  2
TVE_3F2081215360662
 70
     0
  0
APPID
  5
354CC
330
BC2A
100
AcDbSymbolTableRecord
100
AcDbRegAppTableRecord
  2
TVE_3E2081215360678
 70
     0
  0
APPID
  5
354CD
330
BC2A
100
AcDbSymbolTableRecord
100
AcDbRegAppTableRecord
  2
TVE_3D2081215360696
 70
     0
  0
APPID
  5
354CE
330
BC2A
100
AcDbSymbolTableRecord
100
AcDbRegAppTableRecord
  2
TVE_2E2081215361657
 70
     0
  0
APPID
  5
354CF
330
BC2A
100
AcDbSymbolTableRecord
100
AcDbRegAppTableRecord
  2
TVE_2D2081215361673
 70
     0
  0
APPID
  5
354D0
330
BC2A
100
AcDbSymbolTableRecord
100
AcDbRegAppTableRecord
  2
TVE_2C2081215361698
 70
     0
  0
APPID
  5
354D1
330
BC2A
100
AcDbSymbolTableRecord
100
AcDbRegAppTableRecord
  2
TVE_2B2081215361713
 70
     0
  0
APPID
  5
354D2
330
BC2A
100
AcDbSymbolTableRecord
100
AcDbRegAppTableRecord
  2
TVE_2A2081215361730
 70
     0
  0
APPID
  5
354D3
330
BC2A
100
AcDbSymbolTableRecord
100
AcDbRegAppTableRecord
  2
TVE_292081215361746
 70
     0
  0
APPID
  5
354D4
330
BC2A
100
AcDbSymbolTableRecord
100
AcDbRegAppTableRecord
  2
TVE_282081215361761
 70
     0
  0
APPID
  5
354D5
330
BC2A
100
AcDbSymbolTableRecord
100
AcDbRegAppTableRecord
  2
TVE_332081215362876
 70
     0
  0
APPID
  5
354D6
330
BC2A
100
AcDbSymbolTableRecord
100
AcDbRegAppTableRecord
  2
TVE_322081215362898
 70
     0
  0
APPID
  5
354D7
330
BC2A
100
AcDbSymbolTableRecord
100
AcDbRegAppTableRecord
  2
TVE_312081215362917
 70
     0
  0
APPID
  5
354D8
330
BC2A
100
AcDbSymbolTableRecord
100
AcDbRegAppTableRecord
  2
TVE_302081215362934
 70
     0
  0
APPID
  5
354D9
330
BC2A
100
AcDbSymbolTableRecord
100
AcDbRegAppTableRecord
  2
TVE_2F2081215362954
 70
     0
  0
APPID
  5
354DA
330
BC2A
100
AcDbSymbolTableRecord
100
AcDbRegAppTableRecord
  2
TVE_362081215364626
 70
     0
  0
APPID
  5
354DB
330
BC2A
100
AcDbSymbolTableRecord
100
AcDbRegAppTableRecord
  2
TVE_352081215364643
 70
     0
  0
APPID
  5
354DC
330
BC2A
100
AcDbSymbolTableRecord
100
AcDbRegAppTableRecord
  2
TVE_342081215364662
 70
     0
  0
APPID
  5
354DD
330
BC2A
100
AcDbSymbolTableRecord
100
AcDbRegAppTableRecord
  2
TVE_372081215364685
 70
     0
  0
APPID
  5
354DE
330
BC2A
100
AcDbSymbolTableRecord
100
AcDbRegAppTableRecord
  2
TVE_219A2081215191532
 70
     0
  0
APPID
  5
354DF
330
BC2A
100
AcDbSymbolTableRecord
100
AcDbRegAppTableRecord
  2
TVE_3EF2081215193416
 70
     0
  0
APPID
  5
354E0
330
BC2A
100
AcDbSymbolTableRecord
100
AcDbRegAppTableRecord
  2
TVE_3EE2081215193438
 70
     0
  0
APPID
  5
354E1
330
BC2A
100
AcDbSymbolTableRecord
100
AcDbRegAppTableRecord
  2
TVE_DD2081215194886
 70
     0
  0
APPID
  5
354E2
330
BC2A
100
AcDbSymbolTableRecord
100
AcDbRegAppTableRecord
  2
TVE_D72081215200381
 70
     0
  0
APPID
  5
354E3
330
BC2A
100
AcDbSymbolTableRecord
100
AcDbRegAppTableRecord
  2
TVE_406D2081311503887
 70
     0
  0
APPID
  5
354E4
330
BC2A
100
AcDbSymbolTableRecord
100
AcDbRegAppTableRecord
  2
TVE_40532081311505915
 70
     0
  0
APPID
  5
354E5
330
BC2A
100
AcDbSymbolTableRecord
100
AcDbRegAppTableRecord
  2
TVE_40602081311505940
 70
     0
  0
APPID
  5
354E6
330
BC2A
100
AcDbSymbolTableRecord
100
AcDbRegAppTableRecord
  2
TVE_40342081311505969
 70
     0
  0
APPID
  5
354E7
330
BC2A
100
AcDbSymbolTableRecord
100
AcDbRegAppTableRecord
  2
TVE_40412081311505996
 70
     0
  0
APPID
  5
354E8
330
BC2A
100
AcDbSymbolTableRecord
100
AcDbRegAppTableRecord
  2
TVE_404A2081311510020
 70
     0
  0
APPID
  5
354E9
330
BC2A
100
AcDbSymbolTableRecord
100
AcDbRegAppTableRecord
  2
TVE_40272081311510047
 70
     0
  0
APPID
  5
354EA
330
BC2A
100
AcDbSymbolTableRecord
100
AcDbRegAppTableRecord
  2
TVE_401E2081311510124
 70
     0
  0
APPID
  5
354EB
330
BC2A
100
AcDbSymbolTableRecord
100
AcDbRegAppTableRecord
  2
TVE_40152081311510147
 70
     0
  0
APPID
  5
354EC
330
BC2A
100
AcDbSymbolTableRecord
100
AcDbRegAppTableRecord
  2
TVE_3FFA2081311511570
 70
     0
  0
APPID
  5
354ED
330
BC2A
100
AcDbSymbolTableRecord
100
AcDbRegAppTableRecord
  2
TVE_400C2081311511598
 70
     0
  0
APPID
  5
354EE
330
BC2A
100
AcDbSymbolTableRecord
100
AcDbRegAppTableRecord
  2
TVE_40032081311511621
 70
     0
  0
APPID
  5
354EF
330
BC2A
100
AcDbSymbolTableRecord
100
AcDbRegAppTableRecord
  2
TVE_3FCE2081311513774
 70
     0
  0
APPID
  5
354F0
330
BC2A
100
AcDbSymbolTableRecord
100
AcDbRegAppTableRecord
  2
TVE_3FD02081311513797
 70
     0
  0
APPID
  5
354F1
330
BC2A
100
AcDbSymbolTableRecord
100
AcDbRegAppTableRecord
  2
TVE_43E02081311554687
 70
     0
  0
APPID
  5
354F2
330
BC2A
100
AcDbSymbolTableRecord
100
AcDbRegAppTableRecord
  2
TVE_43D72081311562065
 70
     0
  0
APPID
  5
354F3
330
BC2A
100
AcDbSymbolTableRecord
100
AcDbRegAppTableRecord
  2
TVE_43CE2081311562093
 70
     0
  0
APPID
  5
354F4
330
BC2A
100
AcDbSymbolTableRecord
100
AcDbRegAppTableRecord
  2
TVE_43C52081311562115
 70
     0
  0
APPID
  5
354F5
330
BC2A
100
AcDbSymbolTableRecord
100
AcDbRegAppTableRecord
  2
TVE_43BC2081311562137
 70
     0
  0
APPID
  5
354F6
330
BC2A
100
AcDbSymbolTableRecord
100
AcDbRegAppTableRecord
  2
TVE_43B32081311562165
 70
     0
  0
APPID
  5
354F7
330
BC2A
100
AcDbSymbolTableRecord
100
AcDbRegAppTableRecord
  2
TVE_43AA2081311562189
 70
     0
  0
APPID
  5
354F8
330
BC2A
100
AcDbSymbolTableRecord
100
AcDbRegAppTableRecord
  2
TVE_43A12081311562211
 70
     0
  0
APPID
  5
354F9
330
BC2A
100
AcDbSymbolTableRecord
100
AcDbRegAppTableRecord
  2
TVE_43962081311562305
 70
     0
  0
APPID
  5
354FA
330
BC2A
100
AcDbSymbolTableRecord
100
AcDbRegAppTableRecord
  2
TVE_438B2081311562331
 70
     0
  0
APPID
  5
354FB
330
BC2A
100
AcDbSymbolTableRecord
100
AcDbRegAppTableRecord
  2
TVE_43822081311562352
 70
     0
  0
APPID
  5
354FC
330
BC2A
100
AcDbSymbolTableRecord
100
AcDbRegAppTableRecord
  2
TVE_43792081311562374
 70
     0
  0
APPID
  5
354FD
330
BC2A
100
AcDbSymbolTableRecord
100
AcDbRegAppTableRecord
  2
TVE_436E2081311562402
 70
     0
  0
APPID
  5
354FE
330
BC2A
100
AcDbSymbolTableRecord
100
AcDbRegAppTableRecord
  2
TVE_43632081311562425
 70
     0
  0
APPID
  5
354FF
330
BC2A
100
AcDbSymbolTableRecord
100
AcDbRegAppTableRecord
  2
TVE_435A2081311562447
 70
     0
  0
APPID
  5
35500
330
BC2A
100
AcDbSymbolTableRecord
100
AcDbRegAppTableRecord
  2
TVE_434F2081311562474
 70
     0
  0
APPID
  5
35501
330
BC2A
100
AcDbSymbolTableRecord
100
AcDbRegAppTableRecord
  2
TVE_39602081311562500
 70
     0
  0
APPID
  5
35502
330
BC2A
100
AcDbSymbolTableRecord
100
AcDbRegAppTableRecord
  2
TVE_43442081311562523
 70
     0
  0
APPID
  5
35503
330
BC2A
100
AcDbSymbolTableRecord
100
AcDbRegAppTableRecord
  2
TVE_433B2081311562611
 70
     0
  0
APPID
  5
35504
330
BC2A
100
AcDbSymbolTableRecord
100
AcDbRegAppTableRecord
  2
TVE_43322081311562638
 70
     0
  0
APPID
  5
35505
330
BC2A
100
AcDbSymbolTableRecord
100
AcDbRegAppTableRecord
  2
TVE_43292081311564017
 70
     0
  0
APPID
  5
35506
330
BC2A
100
AcDbSymbolTableRecord
100
AcDbRegAppTableRecord
  2
TVE_43202081311564048
 70
     0
  0
APPID
  5
35507
330
BC2A
100
AcDbSymbolTableRecord
100
AcDbRegAppTableRecord
  2
TVE_43172081311564070
 70
     0
  0
APPID
  5
35508
330
BC2A
100
AcDbSymbolTableRecord
100
AcDbRegAppTableRecord
  2
TVE_430E2081311564097
 70
     0
  0
APPID
  5
35509
330
BC2A
100
AcDbSymbolTableRecord
100
AcDbRegAppTableRecord
  2
TVE_44012081311565124
 70
     0
  0
APPID
  5
3550A
330
BC2A
100
AcDbSymbolTableRecord
100
AcDbRegAppTableRecord
  2
TVE_44002081311565148
 70
     0
  0
APPID
  5
3550B
330
BC2A
100
AcDbSymbolTableRecord
100
AcDbRegAppTableRecord
  2
TVE_559C2081312033033
 70
     0
  0
APPID
  5
3550C
330
BC2A
100
AcDbSymbolTableRecord
100
AcDbRegAppTableRecord
  2
TVE_560C2081312040405
 70
     0
  0
APPID
  5
3550D
330
BC2A
100
AcDbSymbolTableRecord
100
AcDbRegAppTableRecord
  2
TVE_560B2081312040433
 70
     0
  0
APPID
  5
3550E
330
BC2A
100
AcDbSymbolTableRecord
100
AcDbRegAppTableRecord
  2
TVE_55952081312040530
 70
     0
  0
APPID
  5
3550F
330
BC2A
100
AcDbSymbolTableRecord
100
AcDbRegAppTableRecord
  2
TVE_558E2081312040554
 70
     0
  0
APPID
  5
35510
330
BC2A
100
AcDbSymbolTableRecord
100
AcDbRegAppTableRecord
  2
TVE_55872081312040579
 70
     0
  0
APPID
  5
35511
330
BC2A
100
AcDbSymbolTableRecord
100
AcDbRegAppTableRecord
  2
TVE_55802081312040606
 70
     0
  0
APPID
  5
35512
330
BC2A
100
AcDbSymbolTableRecord
100
AcDbRegAppTableRecord
  2
TVE_55792081312040631
 70
     0
  0
APPID
  5
35513
330
BC2A
100
AcDbSymbolTableRecord
100
AcDbRegAppTableRecord
  2
TVE_55722081312040654
 70
     0
  0
APPID
  5
35514
330
BC2A
100
AcDbSymbolTableRecord
100
AcDbRegAppTableRecord
  2
TVE_556B2081312040682
 70
     0
  0
APPID
  5
35515
330
BC2A
100
AcDbSymbolTableRecord
100
AcDbRegAppTableRecord
  2
TVE_55622081312040708
 70
     0
  0
APPID
  5
35516
330
BC2A
100
AcDbSymbolTableRecord
100
AcDbRegAppTableRecord
  2
TVE_555B2081312040799
 70
     0
  0
APPID
  5
35517
330
BC2A
100
AcDbSymbolTableRecord
100
AcDbRegAppTableRecord
  2
TVE_55542081312040823
 70
     0
  0
APPID
  5
35518
330
BC2A
100
AcDbSymbolTableRecord
100
AcDbRegAppTableRecord
  2
TVE_554D2081312040850
 70
     0
  0
APPID
  5
35519
330
BC2A
100
AcDbSymbolTableRecord
100
AcDbRegAppTableRecord
  2
TVE_55442081312040878
 70
     0
  0
APPID
  5
3551A
330
BC2A
100
AcDbSymbolTableRecord
100
AcDbRegAppTableRecord
  2
TVE_553D2081312040906
 70
     0
  0
APPID
  5
3551B
330
BC2A
100
AcDbSymbolTableRecord
100
AcDbRegAppTableRecord
  2
TVE_552D2081312040938
 70
     0
  0
APPID
  5
3551C
330
BC2A
100
AcDbSymbolTableRecord
100
AcDbRegAppTableRecord
  2
TVE_54E02081312040963
 70
     0
  0
APPID
  5
3551D
330
BC2A
100
AcDbSymbolTableRecord
100
AcDbRegAppTableRecord
  2
TVE_55262081312040988
 70
     0
  0
APPID
  5
3551E
330
BC2A
100
AcDbSymbolTableRecord
100
AcDbRegAppTableRecord
  2
TVE_551F2081312041079
 70
     0
  0
APPID
  5
3551F
330
BC2A
100
AcDbSymbolTableRecord
100
AcDbRegAppTableRecord
  2
TVE_55182081312041104
 70
     0
  0
APPID
  5
35520
330
BC2A
100
AcDbSymbolTableRecord
100
AcDbRegAppTableRecord
  2
TVE_55032081312042659
 70
     0
  0
APPID
  5
35521
330
BC2A
100
AcDbSymbolTableRecord
100
AcDbRegAppTableRecord
  2
TVE_55112081312042683
 70
     0
  0
APPID
  5
35522
330
BC2A
100
AcDbSymbolTableRecord
100
AcDbRegAppTableRecord
  2
TVE_550A2081312042707
 70
     0
  0
APPID
  5
35523
330
BC2A
100
AcDbSymbolTableRecord
100
AcDbRegAppTableRecord
  2
TVE_54FC2081312042737
 70
     0
  0
APPID
  5
35524
330
BC2A
100
AcDbSymbolTableRecord
100
AcDbRegAppTableRecord
  2
TVE_55A32081312043765
 70
     0
  0
APPID
  5
35525
330
BC2A
100
AcDbSymbolTableRecord
100
AcDbRegAppTableRecord
  2
TVE_55AA2081312043789
 70
     0
  0
APPID
  5
35526
330
BC2A
100
AcDbSymbolTableRecord
100
AcDbRegAppTableRecord
  2
TVE_67292081312404832
 70
     0
  0
APPID
  5
35527
330
BC2A
100
AcDbSymbolTableRecord
100
AcDbRegAppTableRecord
  2
TVE_681B2081312422073
 70
     0
  0
APPID
  5
35528
330
BC2A
100
AcDbSymbolTableRecord
100
AcDbRegAppTableRecord
  2
TVE_6EB2081313243642
 70
     0
  0
APPID
  5
35529
330
BC2A
100
AcDbSymbolTableRecord
100
AcDbRegAppTableRecord
  2
TVE_6EA2081313243697
 70
     0
  0
APPID
  5
3552A
330
BC2A
100
AcDbSymbolTableRecord
100
AcDbRegAppTableRecord
  2
TVE_6E72081313243728
 70
     0
  0
APPID
  5
3552B
330
BC2A
100
AcDbSymbolTableRecord
100
AcDbRegAppTableRecord
  2
TVE_6E52081313243752
 70
     0
  0
APPID
  5
3552C
330
BC2A
100
AcDbSymbolTableRecord
100
AcDbRegAppTableRecord
  2
TVE_6DE2081313243772
 70
     0
  0
APPID
  5
3552D
330
BC2A
100
AcDbSymbolTableRecord
100
AcDbRegAppTableRecord
  2
TVE_6DD2081313243813
 70
     0
  0
APPID
  5
3552E
330
BC2A
100
AcDbSymbolTableRecord
100
AcDbRegAppTableRecord
  2
TVE_6DC2081313243836
 70
     0
  0
APPID
  5
3552F
330
BC2A
100
AcDbSymbolTableRecord
100
AcDbRegAppTableRecord
  2
TVE_6DB2081313243858
 70
     0
  0
APPID
  5
35530
330
BC2A
100
AcDbSymbolTableRecord
100
AcDbRegAppTableRecord
  2
TVE_6DA2081313243878
 70
     0
  0
APPID
  5
35531
330
BC2A
100
AcDbSymbolTableRecord
100
AcDbRegAppTableRecord
  2
TVE_6D92081313243900
 70
     0
  0
APPID
  5
35532
330
BC2A
100
AcDbSymbolTableRecord
100
AcDbRegAppTableRecord
  2
TVE_14E2101607001975
 70
     0
  0
APPID
  5
35533
330
BC2A
100
AcDbSymbolTableRecord
100
AcDbRegAppTableRecord
  2
TVE_292101607003748
 70
     0
  0
APPID
  5
35534
330
BC2A
100
AcDbSymbolTableRecord
100
AcDbRegAppTableRecord
  2
TVE_282101607003764
 70
     0
  0
APPID
  5
35535
330
BC2A
100
AcDbSymbolTableRecord
100
AcDbRegAppTableRecord
  2
TVE_272101607003784
 70
     0
  0
APPID
  5
35536
330
BC2A
100
AcDbSymbolTableRecord
100
AcDbRegAppTableRecord
  2
TVE_262101607003802
 70
     0
  0
APPID
  5
35537
330
BC2A
100
AcDbSymbolTableRecord
100
AcDbRegAppTableRecord
  2
TVE_252101607003821
 70
     0
  0
APPID
  5
35538
330
BC2A
100
AcDbSymbolTableRecord
100
AcDbRegAppTableRecord
  2
TVE_242101607003840
 70
     0
  0
APPID
  5
35539
330
BC2A
100
AcDbSymbolTableRecord
100
AcDbRegAppTableRecord
  2
TVE_232101607003859
 70
     0
  0
APPID
  5
3553A
330
BC2A
100
AcDbSymbolTableRecord
100
AcDbRegAppTableRecord
  2
TVE_222101607003875
 70
     0
  0
APPID
  5
3553B
330
BC2A
100
AcDbSymbolTableRecord
100
AcDbRegAppTableRecord
  2
TVE_212101607003890
 70
     0
  0
APPID
  5
3553C
330
BC2A
100
AcDbSymbolTableRecord
100
AcDbRegAppTableRecord
  2
TVE_202101607003910
 70
     0
  0
APPID
  5
3553D
330
BC2A
100
AcDbSymbolTableRecord
100
AcDbRegAppTableRecord
  2
TVE_1F2101607003941
 70
     0
  0
APPID
  5
3553E
330
BC2A
100
AcDbSymbolTableRecord
100
AcDbRegAppTableRecord
  2
TVE_1D2101607003968
 70
     0
  0
APPID
  5
3553F
330
BC2A
100
AcDbSymbolTableRecord
100
AcDbRegAppTableRecord
  2
TVE_162101607010506
 70
     0
  0
APPID
  5
35540
330
BC2A
100
AcDbSymbolTableRecord
100
AcDbRegAppTableRecord
  2
TVE_152101607010522
 70
     0
  0
APPID
  5
35541
330
BC2A
100
AcDbSymbolTableRecord
100
AcDbRegAppTableRecord
  2
TVE_142101607010542
 70
     0
  0
APPID
  5
35542
330
BC2A
100
AcDbSymbolTableRecord
100
AcDbRegAppTableRecord
  2
TVE_132101607010559
 70
     0
  0
APPID
  5
35543
330
BC2A
100
AcDbSymbolTableRecord
100
AcDbRegAppTableRecord
  2
TVE_122101607010581
 70
     0
  0
APPID
  5
35544
330
BC2A
100
AcDbSymbolTableRecord
100
AcDbRegAppTableRecord
  2
TVE_112101607010598
 70
     0
  0
APPID
  5
35545
330
BC2A
100
AcDbSymbolTableRecord
100
AcDbRegAppTableRecord
  2
TVE_4B2101607013007
 70
     0
  0
APPID
  5
35546
330
BC2A
100
AcDbSymbolTableRecord
100
AcDbRegAppTableRecord
  2
TVE_4A2101607013027
 70
     0
  0
APPID
  5
35547
330
BC2A
100
AcDbSymbolTableRecord
100
AcDbRegAppTableRecord
  2
TVE_492101607013045
 70
     0
  0
APPID
  5
35548
330
BC2A
100
AcDbSymbolTableRecord
100
AcDbRegAppTableRecord
  2
TVE_482101607013064
 70
     0
  0
APPID
  5
35549
330
BC2A
100
AcDbSymbolTableRecord
100
AcDbRegAppTableRecord
  2
TVE_412101607014928
 70
     0
  0
APPID
  5
3554A
330
BC2A
100
AcDbSymbolTableRecord
100
AcDbRegAppTableRecord
  2
TVE_402101607014949
 70
     0
  0
APPID
  5
3554B
330
BC2A
100
AcDbSymbolTableRecord
100
AcDbRegAppTableRecord
  2
TVE_3F2101607014965
 70
     0
  0
APPID
  5
3554C
330
BC2A
100
AcDbSymbolTableRecord
100
AcDbRegAppTableRecord
  2
TVE_3E2101607014986
 70
     0
  0
APPID
  5
3554D
330
BC2A
100
AcDbSymbolTableRecord
100
AcDbRegAppTableRecord
  2
TVE_3C2101607015003
 70
     0
  0
APPID
  5
3554E
330
BC2A
100
AcDbSymbolTableRecord
100
AcDbRegAppTableRecord
  2
TVE_4E2101607022235
 70
     0
  0
APPID
  5
3554F
330
BC2A
100
AcDbSymbolTableRecord
100
AcDbRegAppTableRecord
  2
TVE_4C2101607022253
 70
     0
  0
APPID
  5
35550
330
BC2A
100
AcDbSymbolTableRecord
100
AcDbRegAppTableRecord
  2
TVE_5D2101607023503
 70
     0
  0
APPID
  5
35551
330
BC2A
100
AcDbSymbolTableRecord
100
AcDbRegAppTableRecord
  2
TVE_5B2101607023520
 70
     0
  0
APPID
  5
35552
330
BC2A
100
AcDbSymbolTableRecord
100
AcDbRegAppTableRecord
  2
TVE_6EE2101607085911
 70
     0
  0
APPID
  5
35553
330
BC2A
100
AcDbSymbolTableRecord
100
AcDbRegAppTableRecord
  2
TVE_6ED2101607092241
 70
     0
  0
APPID
  5
35554
330
BC2A
100
AcDbSymbolTableRecord
100
AcDbRegAppTableRecord
  2
TVE_6EC2101607092260
 70
     0
  0
APPID
  5
35555
330
BC2A
100
AcDbSymbolTableRecord
100
AcDbRegAppTableRecord
  2
TVE_6EB2101607092279
 70
     0
  0
APPID
  5
35556
330
BC2A
100
AcDbSymbolTableRecord
100
AcDbRegAppTableRecord
  2
TVE_3A2101607092318
 70
     0
  0
APPID
  5
35557
330
BC2A
100
AcDbSymbolTableRecord
100
AcDbRegAppTableRecord
  2
TVE_392101607092340
 70
     0
  0
APPID
  5
35558
330
BC2A
100
AcDbSymbolTableRecord
100
AcDbRegAppTableRecord
  2
TVE_382101607092359
 70
     0
  0
APPID
  5
35559
330
BC2A
100
AcDbSymbolTableRecord
100
AcDbRegAppTableRecord
  2
TVE_372101607092381
 70
     0
  0
APPID
  5
3555A
330
BC2A
100
AcDbSymbolTableRecord
100
AcDbRegAppTableRecord
  2
TVE_362101607092410
 70
     0
  0
APPID
  5
3555B
330
BC2A
100
AcDbSymbolTableRecord
100
AcDbRegAppTableRecord
  2
TVE_352101607092444
 70
     0
  0
APPID
  5
3555C
330
BC2A
100
AcDbSymbolTableRecord
100
AcDbRegAppTableRecord
  2
TVE_332101607092485
 70
     0
  0
APPID
  5
3555D
330
BC2A
100
AcDbSymbolTableRecord
100
AcDbRegAppTableRecord
  2
TVE_322101607092507
 70
     0
  0
APPID
  5
3555E
330
BC2A
100
AcDbSymbolTableRecord
100
AcDbRegAppTableRecord
  2
TVE_312101607092553
 70
     0
  0
APPID
  5
3555F
330
BC2A
100
AcDbSymbolTableRecord
100
AcDbRegAppTableRecord
  2
TVE_2D2101607092574
 70
     0
  0
APPID
  5
35560
330
BC2A
100
AcDbSymbolTableRecord
100
AcDbRegAppTableRecord
  2
TVE_2C2101607092593
 70
     0
  0
APPID
  5
35561
330
BC2A
100
AcDbSymbolTableRecord
100
AcDbRegAppTableRecord
  2
TVE_2B2101607092613
 70
     0
  0
APPID
  5
35562
330
BC2A
100
AcDbSymbolTableRecord
100
AcDbRegAppTableRecord
  2
TVE_2A2101607092635
 70
     0
  0
APPID
  5
35563
330
BC2A
100
AcDbSymbolTableRecord
100
AcDbRegAppTableRecord
  2
TVE_D2101607094142
 70
     0
  0
APPID
  5
35564
330
BC2A
100
AcDbSymbolTableRecord
100
AcDbRegAppTableRecord
  2
TVE_C2101607095490
 70
     0
  0
APPID
  5
35565
330
BC2A
100
AcDbSymbolTableRecord
100
AcDbRegAppTableRecord
  2
TVE_B2101607095513
 70
     0
  0
APPID
  5
35566
330
BC2A
100
AcDbSymbolTableRecord
100
AcDbRegAppTableRecord
  2
TVE_92101607095532
 70
     0
  0
APPID
  5
35567
330
BC2A
100
AcDbSymbolTableRecord
100
AcDbRegAppTableRecord
  2
TVE_EC2101607101501
 70
     0
  0
APPID
  5
35568
330
BC2A
100
AcDbSymbolTableRecord
100
AcDbRegAppTableRecord
  2
TVE_472101607101522
 70
     0
  0
APPID
  5
35569
330
BC2A
100
AcDbSymbolTableRecord
100
AcDbRegAppTableRecord
  2
TVE_462101607101540
 70
     0
  0
APPID
  5
3556A
330
BC2A
100
AcDbSymbolTableRecord
100
AcDbRegAppTableRecord
  2
TVE_452101607101564
 70
     0
  0
APPID
  5
3556B
330
BC2A
100
AcDbSymbolTableRecord
100
AcDbRegAppTableRecord
  2
TVE_442101607101583
 70
     0
  0
APPID
  5
3556C
330
BC2A
100
AcDbSymbolTableRecord
100
AcDbRegAppTableRecord
  2
TVE_432101607101605
 70
     0
  0
APPID
  5
3556D
330
BC2A
100
AcDbSymbolTableRecord
100
AcDbRegAppTableRecord
  2
TVE_422101607101624
 70
     0
  0
APPID
  5
3556E
330
BC2A
100
AcDbSymbolTableRecord
100
AcDbRegAppTableRecord
  2
TVE_5A2101607104046
 70
     0
  0
APPID
  5
3556F
330
BC2A
100
AcDbSymbolTableRecord
100
AcDbRegAppTableRecord
  2
TVE_592101607104067
 70
     0
  0
APPID
  5
35570
330
BC2A
100
AcDbSymbolTableRecord
100
AcDbRegAppTableRecord
  2
TVE_582101607104090
 70
     0
  0
APPID
  5
35571
330
BC2A
100
AcDbSymbolTableRecord
100
AcDbRegAppTableRecord
  2
TVE_572101607104123
 70
     0
  0
APPID
  5
35572
330
BC2A
100
AcDbSymbolTableRecord
100
AcDbRegAppTableRecord
  2
TVE_562101607104143
 70
     0
  0
APPID
  5
35573
330
BC2A
100
AcDbSymbolTableRecord
100
AcDbRegAppTableRecord
  2
TVE_552101607104170
 70
     0
  0
APPID
  5
35574
330
BC2A
100
AcDbSymbolTableRecord
100
AcDbRegAppTableRecord
  2
TVE_542101607104190
 70
     0
  0
APPID
  5
35575
330
BC2A
100
AcDbSymbolTableRecord
100
AcDbRegAppTableRecord
  2
TVE_532101607104213
 70
     0
  0
APPID
  5
35576
330
BC2A
100
AcDbSymbolTableRecord
100
AcDbRegAppTableRecord
  2
TVE_522101607104252
 70
     0
  0
APPID
  5
35577
330
BC2A
100
AcDbSymbolTableRecord
100
AcDbRegAppTableRecord
  2
TVE_512101607104280
 70
     0
  0
APPID
  5
35578
330
BC2A
100
AcDbSymbolTableRecord
100
AcDbRegAppTableRecord
  2
TVE_502101607104300
 70
     0
  0
APPID
  5
35579
330
BC2A
100
AcDbSymbolTableRecord
100
AcDbRegAppTableRecord
  2
TVE_4F2101607104319
 70
     0
  0
APPID
  5
3557A
330
BC2A
100
AcDbSymbolTableRecord
100
AcDbRegAppTableRecord
  2
TVE_5F2101607110211
 70
     0
  0
APPID
  5
3557B
330
BC2A
100
AcDbSymbolTableRecord
100
AcDbRegAppTableRecord
  2
TVE_5E2101607110233
 70
     0
  0
APPID
  5
3557C
330
BC2A
100
AcDbSymbolTableRecord
100
AcDbRegAppTableRecord
  2
TVE_302101607111686
 70
     0
  0
APPID
  5
3557D
330
BC2A
100
AcDbSymbolTableRecord
100
AcDbRegAppTableRecord
  2
TVE_2F2101607111712
 70
     0
  0
APPID
  5
3557E
330
BC2A
100
AcDbSymbolTableRecord
100
AcDbRegAppTableRecord
  2
TVE_2E2101607111732
 70
     0
  0
APPID
  5
3557F
330
BC2A
100
AcDbSymbolTableRecord
100
AcDbRegAppTableRecord
  2
TVE_EB52101607134938
 70
     0
  0
APPID
  5
35580
330
BC2A
100
AcDbSymbolTableRecord
100
AcDbRegAppTableRecord
  2
TVE_942D6101913560253
 70
     0
  0
APPID
  5
35581
330
BC2A
100
AcDbSymbolTableRecord
100
AcDbRegAppTableRecord
  2
TVE_93BE6101913561733
 70
     0
  0
APPID
  5
35582
330
BC2A
100
AcDbSymbolTableRecord
100
AcDbRegAppTableRecord
  2
TVE_93BD6101913561745
 70
     0
  0
APPID
  5
35583
330
BC2A
100
AcDbSymbolTableRecord
100
AcDbRegAppTableRecord
  2
TVE_93BF6101913561757
 70
     0
  0
APPID
  5
35584
330
BC2A
100
AcDbSymbolTableRecord
100
AcDbRegAppTableRecord
  2
TVE_93C06101913561770
 70
     0
  0
APPID
  5
35585
330
BC2A
100
AcDbSymbolTableRecord
100
AcDbRegAppTableRecord
  2
TVE_93C16101913561785
 70
     0
  0
APPID
  5
35586
330
BC2A
100
AcDbSymbolTableRecord
100
AcDbRegAppTableRecord
  2
TVE_93C26101913561798
 70
     0
  0
APPID
  5
35587
330
BC2A
100
AcDbSymbolTableRecord
100
AcDbRegAppTableRecord
  2
TVE_93C36101913563170
 70
     0
  0
APPID
  5
35588
330
BC2A
100
AcDbSymbolTableRecord
100
AcDbRegAppTableRecord
  2
TVE_93C86101913564253
 70
     0
  0
APPID
  5
35589
330
BC2A
100
AcDbSymbolTableRecord
100
AcDbRegAppTableRecord
  2
TVE_95686101913571054
 70
     0
  0
APPID
  5
3558A
330
BC2A
100
AcDbSymbolTableRecord
100
AcDbRegAppTableRecord
  2
TVE_93BA6101913572869
 70
     0
  0
APPID
  5
3558B
330
BC2A
100
AcDbSymbolTableRecord
100
AcDbRegAppTableRecord
  2
TVE_93BC6101913572884
 70
     0
  0
APPID
  5
3558C
330
BC2A
100
AcDbSymbolTableRecord
100
AcDbRegAppTableRecord
  2
TVE_93BB6101913572897
 70
     0
  0
APPID
  5
3558D
330
BC2A
100
AcDbSymbolTableRecord
100
AcDbRegAppTableRecord
  2
TVE_93C66101913572909
 70
     0
  0
APPID
  5
3558E
330
BC2A
100
AcDbSymbolTableRecord
100
AcDbRegAppTableRecord
  2
TVE_93C76101913572922
 70
     0
  0
APPID
  5
3558F
330
BC2A
100
AcDbSymbolTableRecord
100
AcDbRegAppTableRecord
  2
TVE_3ADB6061207535683
 70
     0
  0
APPID
  5
35590
330
BC2A
100
AcDbSymbolTableRecord
100
AcDbRegAppTableRecord
  2
TVE_3A646061207541248
 70
     0
  0
APPID
  5
35591
330
BC2A
100
AcDbSymbolTableRecord
100
AcDbRegAppTableRecord
  2
TVE_3A636061207541252
 70
     0
  0
APPID
  5
35592
330
BC2A
100
AcDbSymbolTableRecord
100
AcDbRegAppTableRecord
  2
TVE_3A656061207541258
 70
     0
  0
APPID
  5
35593
330
BC2A
100
AcDbSymbolTableRecord
100
AcDbRegAppTableRecord
  2
TVE_3A666061207541262
 70
     0
  0
APPID
  5
35594
330
BC2A
100
AcDbSymbolTableRecord
100
AcDbRegAppTableRecord
  2
TVE_3A616061207542515
 70
     0
  0
APPID
  5
35595
330
BC2A
100
AcDbSymbolTableRecord
100
AcDbRegAppTableRecord
  2
TVE_3A5F6061207543961
 70
     0
  0
APPID
  5
35596
330
BC2A
100
AcDbSymbolTableRecord
100
AcDbRegAppTableRecord
  2
TVE_3ADA6061207544976
 70
     0
  0
APPID
  5
35597
330
BC2A
100
AcDbSymbolTableRecord
100
AcDbRegAppTableRecord
  2
TVE_3A686061207551044
 70
     0
  0
APPID
  5
35598
330
BC2A
100
AcDbSymbolTableRecord
100
AcDbRegAppTableRecord
  2
TVE_3A696061207551048
 70
     0
  0
APPID
  5
35599
330
BC2A
100
AcDbSymbolTableRecord
100
AcDbRegAppTableRecord
  2
TVE_3A6C6061207551056
 70
     0
  0
APPID
  5
3559A
330
BC2A
100
AcDbSymbolTableRecord
100
AcDbRegAppTableRecord
  2
TVE_3A6A6061207551061
 70
     0
  0
APPID
  5
3559B
330
BC2A
100
AcDbSymbolTableRecord
100
AcDbRegAppTableRecord
  2
TVE_3A6B6061207551065
 70
     0
  0
APPID
  5
3559C
330
BC2A
100
AcDbSymbolTableRecord
100
AcDbRegAppTableRecord
  2
TVE_3A6E6061207551073
 70
     0
  0
APPID
  5
3559D
330
BC2A
100
AcDbSymbolTableRecord
100
AcDbRegAppTableRecord
  2
TVE_3A6F6061207551078
 70
     0
  0
APPID
  5
3559E
330
BC2A
100
AcDbSymbolTableRecord
100
AcDbRegAppTableRecord
  2
TVE_3A6D6061207551081
 70
     0
  0
APPID
  5
3559F
330
BC2A
100
AcDbSymbolTableRecord
100
AcDbRegAppTableRecord
  2
TVE_3A706061207552053
 70
     0
  0
APPID
  5
355A0
330
BC2A
100
AcDbSymbolTableRecord
100
AcDbRegAppTableRecord
  2
TVE_44396062813462686
 70
     0
  0
APPID
  5
355A1
330
BC2A
100
AcDbSymbolTableRecord
100
AcDbRegAppTableRecord
  2
TVE_43E76062813471634
 70
     0
  0
APPID
  5
355A2
330
BC2A
100
AcDbSymbolTableRecord
100
AcDbRegAppTableRecord
  2
TVE_97076101916540296
 70
     0
  0
APPID
  5
355A3
330
BC2A
100
AcDbSymbolTableRecord
100
AcDbRegAppTableRecord
  2
TVE_96FE6101916543192
 70
     0
  0
APPID
  5
355A4
330
BC2A
100
AcDbSymbolTableRecord
100
AcDbRegAppTableRecord
  2
TVE_96E36101916543201
 70
     0
  0
APPID
  5
355A5
330
BC2A
100
AcDbSymbolTableRecord
100
AcDbRegAppTableRecord
  2
TVE_96F56101916543211
 70
     0
  0
APPID
  5
355A6
330
BC2A
100
AcDbSymbolTableRecord
100
AcDbRegAppTableRecord
  2
TVE_96EC6101916543220
 70
     0
  0
APPID
  5
355A7
330
BC2A
100
AcDbSymbolTableRecord
100
AcDbRegAppTableRecord
  2
TVE_98646101920353328
 70
     0
  0
APPID
  5
355A8
330
BC2A
100
AcDbSymbolTableRecord
100
AcDbRegAppTableRecord
  2
TVE_985C6101920382406
 70
     0
  0
APPID
  5
355A9
330
BC2A
100
AcDbSymbolTableRecord
100
AcDbRegAppTableRecord
  2
TVE_985D6101920382415
 70
     0
  0
APPID
  5
355AA
330
BC2A
100
AcDbSymbolTableRecord
100
AcDbRegAppTableRecord
  2
TVE_985F6101920382425
 70
     0
  0
APPID
  5
355AB
330
BC2A
100
AcDbSymbolTableRecord
100
AcDbRegAppTableRecord
  2
TVE_98626101920382433
 70
     0
  0
APPID
  5
355AC
330
BC2A
100
AcDbSymbolTableRecord
100
AcDbRegAppTableRecord
  2
TVE_98216101920382442
 70
     0
  0
APPID
  5
355AD
330
BC2A
100
AcDbSymbolTableRecord
100
AcDbRegAppTableRecord
  2
TVE_985A6101920382451
 70
     0
  0
APPID
  5
355AE
330
BC2A
100
AcDbSymbolTableRecord
100
AcDbRegAppTableRecord
  2
TVE_98186101920382459
 70
     0
  0
APPID
  5
355AF
330
BC2A
100
AcDbSymbolTableRecord
100
AcDbRegAppTableRecord
  2
TVE_980F6101920382469
 70
     0
  0
APPID
  5
355B0
330
BC2A
100
AcDbSymbolTableRecord
100
AcDbRegAppTableRecord
  2
TVE_98616101920384507
 70
     0
  0
APPID
  5
355B1
330
BC2A
100
AcDbSymbolTableRecord
100
AcDbRegAppTableRecord
  2
TVE_98606101920384517
 70
     0
  0
APPID
  5
355B2
330
BC2A
100
AcDbSymbolTableRecord
100
AcDbRegAppTableRecord
  2
TVE_98576101920384526
 70
     0
  0
APPID
  5
355B3
330
BC2A
100
AcDbSymbolTableRecord
100
AcDbRegAppTableRecord
  2
TVE_98586101920384534
 70
     0
  0
APPID
  5
355B4
330
BC2A
100
AcDbSymbolTableRecord
100
AcDbRegAppTableRecord
  2
TVE_98596101920384543
 70
     0
  0
APPID
  5
355B5
330
BC2A
100
AcDbSymbolTableRecord
100
AcDbRegAppTableRecord
  2
TVE_98066101920391747
 70
     0
  0
APPID
  5
355B6
330
BC2A
100
AcDbSymbolTableRecord
100
AcDbRegAppTableRecord
  2
TVE_97FD6101920393451
 70
     0
  0
APPID
  5
355B7
330
BC2A
100
AcDbSymbolTableRecord
100
AcDbRegAppTableRecord
  2
TVE_22D7072223102109
 70
     0
  0
APPID
  5
355B8
330
BC2A
100
AcDbSymbolTableRecord
100
AcDbRegAppTableRecord
  2
TVE_1BC7072223104422
 70
     0
  0
APPID
  5
355B9
330
BC2A
100
AcDbSymbolTableRecord
100
AcDbRegAppTableRecord
  2
TVE_1BE7072223104431
 70
     0
  0
APPID
  5
355BA
330
BC2A
100
AcDbSymbolTableRecord
100
AcDbRegAppTableRecord
  2
TVE_1BD7072223104440
 70
     0
  0
APPID
  5
355BB
330
BC2A
100
AcDbSymbolTableRecord
100
AcDbRegAppTableRecord
  2
TVE_1BF7072223104448
 70
     0
  0
APPID
  5
355BC
330
BC2A
100
AcDbSymbolTableRecord
100
AcDbRegAppTableRecord
  2
TVE_1C07072223104459
 70
     0
  0
APPID
  5
355BD
330
BC2A
100
AcDbSymbolTableRecord
100
AcDbRegAppTableRecord
  2
TVE_1C37072223104467
 70
     0
  0
APPID
  5
355BE
330
BC2A
100
AcDbSymbolTableRecord
100
AcDbRegAppTableRecord
  2
TVE_1C27072223104477
 70
     0
  0
APPID
  5
355BF
330
BC2A
100
AcDbSymbolTableRecord
100
AcDbRegAppTableRecord
  2
TVE_1C17072223104484
 70
     0
  0
APPID
  5
355C0
330
BC2A
100
AcDbSymbolTableRecord
100
AcDbRegAppTableRecord
  2
TVE_1C87072223110085
 70
     0
  0
APPID
  5
355C1
330
BC2A
100
AcDbSymbolTableRecord
100
AcDbRegAppTableRecord
  2
TVE_1C77072223110095
 70
     0
  0
APPID
  5
355C2
330
BC2A
100
AcDbSymbolTableRecord
100
AcDbRegAppTableRecord
  2
TVE_1C67072223110105
 70
     0
  0
APPID
  5
355C3
330
BC2A
100
AcDbSymbolTableRecord
100
AcDbRegAppTableRecord
  2
TVE_1C57072223110114
 70
     0
  0
APPID
  5
355C4
330
BC2A
100
AcDbSymbolTableRecord
100
AcDbRegAppTableRecord
  2
TVE_1C47072223110122
 70
     0
  0
APPID
  5
355C5
330
BC2A
100
AcDbSymbolTableRecord
100
AcDbRegAppTableRecord
  2
TVE_1C97072223110899
 70
     0
  0
APPID
  5
355C6
330
BC2A
100
AcDbSymbolTableRecord
100
AcDbRegAppTableRecord
  2
TVE_1CA7072223111813
 70
     0
  0
APPID
  5
355C7
330
BC2A
100
AcDbSymbolTableRecord
100
AcDbRegAppTableRecord
  2
TVE_B87102509413296
 70
     0
  0
APPID
  5
355C8
330
BC2A
100
AcDbSymbolTableRecord
100
AcDbRegAppTableRecord
  2
TVE_437102509420608
 70
     0
  0
APPID
  5
355C9
330
BC2A
100
AcDbSymbolTableRecord
100
AcDbRegAppTableRecord
  2
TVE_427102509420616
 70
     0
  0
APPID
  5
355CA
330
BC2A
100
AcDbSymbolTableRecord
100
AcDbRegAppTableRecord
  2
TVE_417102509420628
 70
     0
  0
APPID
  5
355CB
330
BC2A
100
AcDbSymbolTableRecord
100
AcDbRegAppTableRecord
  2
TVE_447102509420637
 70
     0
  0
APPID
  5
355CC
330
BC2A
100
AcDbSymbolTableRecord
100
AcDbRegAppTableRecord
  2
TVE_377102509424850
 70
     0
  0
APPID
  5
355CD
330
BC2A
100
AcDbSymbolTableRecord
100
AcDbRegAppTableRecord
  2
TVE_B97102509431404
 70
     0
  0
APPID
  5
355CE
330
BC2A
100
AcDbSymbolTableRecord
100
AcDbRegAppTableRecord
  2
TVE_3E7102509433779
 70
     0
  0
APPID
  5
355CF
330
BC2A
100
AcDbSymbolTableRecord
100
AcDbRegAppTableRecord
  2
TVE_3A7102509433790
 70
     0
  0
APPID
  5
355D0
330
BC2A
100
AcDbSymbolTableRecord
100
AcDbRegAppTableRecord
  2
TVE_3B7102509433801
 70
     0
  0
APPID
  5
355D1
330
BC2A
100
AcDbSymbolTableRecord
100
AcDbRegAppTableRecord
  2
TVE_407102509433810
 70
     0
  0
APPID
  5
355D2
330
BC2A
100
AcDbSymbolTableRecord
100
AcDbRegAppTableRecord
  2
TVE_3F7102509433822
 70
     0
  0
APPID
  5
355D3
330
BC2A
100
AcDbSymbolTableRecord
100
AcDbRegAppTableRecord
  2
TVE_3C7102509433833
 70
     0
  0
APPID
  5
355D4
330
BC2A
100
AcDbSymbolTableRecord
100
AcDbRegAppTableRecord
  2
TVE_3D7102509433843
 70
     0
  0
APPID
  5
355D5
330
BC2A
100
AcDbSymbolTableRecord
100
AcDbRegAppTableRecord
  2
TVE_MAIN_TABLE
 70
     0
  0
APPID
  5
355D6
330
BC2A
100
AcDbSymbolTableRecord
100
AcDbRegAppTableRecord
  2
TVE_13D37102509463357
 70
     0
  0
APPID
  5
355D7
330
BC2A
100
AcDbSymbolTableRecord
100
AcDbRegAppTableRecord
  2
TVE_13D27102509463368
 70
     0
  0
APPID
  5
355D8
330
BC2A
100
AcDbSymbolTableRecord
100
AcDbRegAppTableRecord
  2
TVE_13D17102509463379
 70
     0
  0
APPID
  5
355D9
330
BC2A
100
AcDbSymbolTableRecord
100
AcDbRegAppTableRecord
  2
TVE_13D07102509463388
 70
     0
  0
APPID
  5
355DA
330
BC2A
100
AcDbSymbolTableRecord
100
AcDbRegAppTableRecord
  2
TVE_13CF7102509463400
 70
     0
  0
APPID
  5
355DB
330
BC2A
100
AcDbSymbolTableRecord
100
AcDbRegAppTableRecord
  2
TVE_13CE7102509463411
 70
     0
  0
APPID
  5
355DC
330
BC2A
100
AcDbSymbolTableRecord
100
AcDbRegAppTableRecord
  2
TVE_13CD7102509463421
 70
     0
  0
APPID
  5
355DD
330
BC2A
100
AcDbSymbolTableRecord
100
AcDbRegAppTableRecord
  2
TVE_987110714200971
 70
     0
  0
APPID
  5
355DE
330
BC2A
100
AcDbSymbolTableRecord
100
AcDbRegAppTableRecord
  2
TVE_E7110714202571
 70
     0
  0
APPID
  5
355DF
330
BC2A
100
AcDbSymbolTableRecord
100
AcDbRegAppTableRecord
  2
TVE_117110714202584
 70
     0
  0
APPID
  5
355E0
330
BC2A
100
AcDbSymbolTableRecord
100
AcDbRegAppTableRecord
  2
TVE_107110714202596
 70
     0
  0
APPID
  5
355E1
330
BC2A
100
AcDbSymbolTableRecord
100
AcDbRegAppTableRecord
  2
TVE_127110714204990
 70
     0
  0
APPID
  5
355E2
330
BC2A
100
AcDbSymbolTableRecord
100
AcDbRegAppTableRecord
  2
TVE_147110714205003
 70
     0
  0
APPID
  5
355E3
330
BC2A
100
AcDbSymbolTableRecord
100
AcDbRegAppTableRecord
  2
TVE_BA8022721041125
 70
     0
  0
APPID
  5
355E4
330
BC2A
100
AcDbSymbolTableRecord
100
AcDbRegAppTableRecord
  2
TVE_468022721042578
 70
     0
  0
APPID
  5
355E5
330
BC2A
100
AcDbSymbolTableRecord
100
AcDbRegAppTableRecord
  2
TVE_478022721042587
 70
     0
  0
APPID
  5
355E6
330
BC2A
100
AcDbSymbolTableRecord
100
AcDbRegAppTableRecord
  2
TVE_488022721042597
 70
     0
  0
APPID
  5
355E7
330
BC2A
100
AcDbSymbolTableRecord
100
AcDbRegAppTableRecord
  2
TVE_4C8022721043717
 70
     0
  0
APPID
  5
355E8
330
BC2A
100
AcDbSymbolTableRecord
100
AcDbRegAppTableRecord
  2
TVE_4B8022721043726
 70
     0
  0
APPID
  5
355E9
330
BC2A
100
AcDbSymbolTableRecord
100
AcDbRegAppTableRecord
  2
TVE_4A8022721043735
 70
     0
  0
APPID
  5
355EA
330
BC2A
100
AcDbSymbolTableRecord
100
AcDbRegAppTableRecord
  2
TVE_4E8022721044553
 70
     0
  0
APPID
  5
48D24
330
BC2A
100
AcDbSymbolTableRecord
100
AcDbRegAppTableRecord
  2
TVE_9A9081819044809
 70
     0
  0
APPID
  5
48D25
330
BC2A
100
AcDbSymbolTableRecord
100
AcDbRegAppTableRecord
  2
TVE_299081819050265
 70
     0
  0
APPID
  5
48D26
330
BC2A
100
AcDbSymbolTableRecord
100
AcDbRegAppTableRecord
  2
TVE_289081819050272
 70
     0
  0
APPID
  5
48D27
330
BC2A
100
AcDbSymbolTableRecord
100
AcDbRegAppTableRecord
  2
TVE_2A9081819050281
 70
     0
  0
APPID
  5
48D28
330
BC2A
100
AcDbSymbolTableRecord
100
AcDbRegAppTableRecord
  2
TVE_2C9081819050964
 70
     0
  0
APPID
  5
48D29
330
BC2A
100
AcDbSymbolTableRecord
100
AcDbRegAppTableRecord
  2
TVE_2B9081819050972
 70
     0
  0
APPID
  5
48D2A
330
BC2A
100
AcDbSymbolTableRecord
100
AcDbRegAppTableRecord
  2
TVE_2D9081819052358
 70
     0
  0
APPID
  5
48D2B
330
BC2A
100
AcDbSymbolTableRecord
100
AcDbRegAppTableRecord
  2
TVE_319081907585794
 70
     0
  0
APPID
  5
48D2C
330
BC2A
100
AcDbSymbolTableRecord
100
AcDbRegAppTableRecord
  2
TVE_1E79081907590207
 70
     0
  0
APPID
  5
48D2D
330
BC2A
100
AcDbSymbolTableRecord
100
AcDbRegAppTableRecord
  2
TVE_A70022110544887
 70
     0
  0
APPID
  5
48D2E
330
BC2A
100
AcDbSymbolTableRecord
100
AcDbRegAppTableRecord
  2
TVE_3D0022110550351
 70
     0
  0
APPID
  5
48D2F
330
BC2A
100
AcDbSymbolTableRecord
100
AcDbRegAppTableRecord
  2
TVE_3E0022110550370
 70
     0
  0
APPID
  5
48D30
330
BC2A
100
AcDbSymbolTableRecord
100
AcDbRegAppTableRecord
  2
TVE_390022110553865
 70
     0
  0
APPID
  5
48D31
330
BC2A
100
AcDbSymbolTableRecord
100
AcDbRegAppTableRecord
  2
TVE_370022110554328
 70
     0
  0
APPID
  5
48D32
330
BC2A
100
AcDbSymbolTableRecord
100
AcDbRegAppTableRecord
  2
TVE_3C0022110554348
 70
     0
  0
APPID
  5
48D33
330
BC2A
100
AcDbSymbolTableRecord
100
AcDbRegAppTableRecord
  2
TVE_3B0022110554367
 70
     0
  0
APPID
  5
48D34
330
BC2A
100
AcDbSymbolTableRecord
100
AcDbRegAppTableRecord
  2
TVE_350022110554648
 70
     0
  0
APPID
  5
49626
330
BC2A
100
AcDbSymbolTableRecord
100
AcDbRegAppTableRecord
  2
AcadAnnoPO
 70
     0
  0
APPID
  5
49627
330
BC2A
100
AcDbSymbolTableRecord
100
AcDbRegAppTableRecord
  2
AcadAnnotative
 70
     0
  0
APPID
  5
49628
330
BC2A
100
AcDbSymbolTableRecord
100
AcDbRegAppTableRecord
  2
ACAD_DSTYLE_DIMJAG
 70
     0
  0
APPID
  5
49629
330
BC2A
100
AcDbSymbolTableRecord
100
AcDbRegAppTableRecord
  2
ACAD_DSTYLE_DIMTALN
 70
     0
  0
APPID
  5
4962A
330
BC2A
100
AcDbSymbolTableRecord
100
AcDbRegAppTableRecord
  2
ACAD_MLEADERVER
 70
     0
  0
APPID
  5
4CBE0
330
BC2A
100
AcDbSymbolTableRecord
100
AcDbRegAppTableRecord
  2
PIT_PNT
 70
     0
  0
APPID
  5
67F49
330
BC2A
100
AcDbSymbolTableRecord
100
AcDbRegAppTableRecord
  2
ADE
 70
     0
  0
APPID
  5
67F4A
330
BC2A
100
AcDbSymbolTableRecord
100
AcDbRegAppTableRecord
  2
CONTENTBLOCKICON
 70
     0
  0
ENDTAB
  0
TABLE
  2
DIMSTYLE
  5
BC2B
330
0
100
AcDbSymbolTable
 70
     2
100
AcDbDimStyleTable
 71
     2
340
5C59E
340
5D465
  0
DIMSTYLE
105
5C59E
102
{ACAD_REACTORS
330
6A4F4
330
6A50B
330
6A529
330
6A68E
330
6A68F
330
6A747
102
}
330
BC2B
100
AcDbSymbolTableRecord
100
AcDbDimStyleTableRecord
  2
DIM10A
 70
     0
 40
0.1
 41
2.0
 42
20.0
 43
0.0
 44
0.0
 46
11.0
 73
     0
 74
     0
 77
     1
 78
     1
140
20.0
141
1.0
147
5.0
176
   256
177
    30
178
     4
271
     0
272
     0
279
     2
284
     1
285
     1
286
     1
340
22
341
2ED
342
2ED
  0
DIMSTYLE
105
5D465
330
BC2B
100
AcDbSymbolTableRecord
100
AcDbDimStyleTableRecord
  2
LEADER-10
 70
     0
 41
2.0
 42
0.0
 43
0.0
 44
0.0
 46
1.25
 73
     0
 74
     0
 75
     1
 76
     1
 77
     1
140
15.0
141
0.0
143
0.039
145
0.15
147
5.0
178
     4
271
     0
272
     0
279
     2
340
22
  0
ENDTAB
  0
TABLE
  2
BLOCK_RECORD
  5
1
330
0
100
AcDbSymbolTable
 70
    16
  0
BLOCK_RECORD
  5
2
102
{ACAD_XDICTIONARY
360
148D
102
}
330
1
100
AcDbSymbolTableRecord
100
AcDbBlockTableRecord
  2
*Model_Space
340
1491
  0
BLOCK_RECORD
  5
1493
330
1
100
AcDbSymbolTableRecord
100
AcDbBlockTableRecord
  2
*Paper_Space
340
24B5
  0
BLOCK_RECORD
  5
2ED
330
1
100
AcDbSymbolTableRecord
100
AcDbBlockTableRecord
  2
TIC
340
0
102
{BLKREFS
331
6A854
331
6A855
331
6A871
331
6A872
331
6AAE5
331
6AAE6
331
6AAEE
331
6AAEF
331
6AAF7
331
6AAF8
331
6AB00
331
6AB01
102
}
  0
BLOCK_RECORD
  5
9
330
1
100
AcDbSymbolTableRecord
100
AcDbBlockTableRecord
  2
AVE_RENDER
340
0
102
{BLKREFS
331
3
331
E
331
F
331
10
331
11
331
12
331
13
331
14
102
}
  0
BLOCK_RECORD
  5
16
330
1
100
AcDbSymbolTableRecord
100
AcDbBlockTableRecord
  2
AVE_GLOBAL
340
0
102
{BLKREFS
331
15
102
}
  0
BLOCK_RECORD
  5
13CD7
330
1
100
AcDbSymbolTableRecord
100
AcDbBlockTableRecord
  2
PROJ_NAM
340
0
102
{BLKREFS
331
1439D
331
1454E
331
1457B
331
1457E
331
14581
331
14584
331
14587
331
1458A
331
1458D
331
14590
331
14593
331
14596
331
1459B
331
1459E
331
145A2
331
145A5
331
145A8
331
145AB
331
145AE
331
145B1
331
145B4
331
145B7
331
145BA
331
145BD
331
14EBB
331
1506C
331
15099
331
1509C
331
1509F
331
150A2
331
150A5
331
150A8
331
150AB
331
150AE
331
150B1
331
150B4
331
150B9
331
150BC
331
150C0
331
150C3
331
150C6
331
150C9
331
150CC
331
150CF
331
150D2
331
150D5
331
150D8
331
150DB
102
}
  0
BLOCK_RECORD
  5
13CE3
330
1
100
AcDbSymbolTableRecord
100
AcDbBlockTableRecord
  2
TR_CONF
340
0
102
{BLKREFS
331
14599
331
150B7
102
}
  0
BLOCK_RECORD
  5
56983
330
1
100
AcDbSymbolTableRecord
100
AcDbBlockTableRecord
  2
arbilitaba1
340
0
102
{BLKREFS
331
57071
102
}
  0
BLOCK_RECORD
  5
6400D
330
1
100
AcDbSymbolTableRecord
100
AcDbBlockTableRecord
  2
status
340
0
102
{BLKREFS
331
64014
102
}
  0
BLOCK_RECORD
  5
67D30
330
1
100
AcDbSymbolTableRecord
100
AcDbBlockTableRecord
  2
LOGO
340
0
102
{BLKREFS
331
67D39
102
}
  0
BLOCK_RECORD
  5
6A4F5
330
1
100
AcDbSymbolTableRecord
100
AcDbBlockTableRecord
  2
*D8
340
0
  0
BLOCK_RECORD
  5
6A50C
330
1
100
AcDbSymbolTableRecord
100
AcDbBlockTableRecord
  2
*D9
340
0
  0
BLOCK_RECORD
  5
6A52A
330
1
100
AcDbSymbolTableRecord
100
AcDbBlockTableRecord
  2
*D10
340
0
  0
BLOCK_RECORD
  5
6A699
330
1
100
AcDbSymbolTableRecord
100
AcDbBlockTableRecord
  2
*D11
340
0
  0
BLOCK_RECORD
  5
6A6A5
330
1
100
AcDbSymbolTableRecord
100
AcDbBlockTableRecord
  2
*D12
340
0
  0
BLOCK_RECORD
  5
6A748
330
1
100
AcDbSymbolTableRecord
100
AcDbBlockTableRecord
  2
*D13
340
0
  0
BLOCK_RECORD
  5
6AB11
330
1
100
AcDbSymbolTableRecord
100
AcDbBlockTableRecord
  2
A$C489E358B
340
0
  0
BLOCK_RECORD
  5
6AB2E
330
1
100
AcDbSymbolTableRecord
100
AcDbBlockTableRecord
  2
A$C63143A9C
340
0
  0
ENDTAB
  0
ENDSEC
  0
SECTION
  2
BLOCKS
  0
BLOCK
  5
148F
330
2
100
AcDbEntity
  8
0
100
AcDbBlockBegin
  2
*Model_Space
 70
     0
 10
0.0
 20
0.0
 30
0.0
  3
*Model_Space
  1

  0
ENDBLK
  5
1490
330
2
100
AcDbEntity
  8
0
100
AcDbBlockEnd
  0
BLOCK
  5
24B3
330
1493
100
AcDbEntity
 67
     1
  8
0
100
AcDbBlockBegin
  2
*Paper_Space
 70
     0
 10
0.0
 20
0.0
 30
0.0
  3
*Paper_Space
  1

  0
ENDBLK
  5
24B4
330
1493
100
AcDbEntity
 67
     1
  8
0
100
AcDbBlockEnd
  0
BLOCK
  5
2F0
330
2ED
100
AcDbEntity
  8
0
100
AcDbBlockBegin
  2
TIC
 70
     0
 10
0.0
 20
0.0
 30
0.0
  3
TIC
  1

  0
LINE
  5
2EE
330
2ED
100
AcDbEntity
  8
0
100
AcDbLine
 10
0.0
 20
-5.0
 30
0.0
 11
0.0
 21
5.0
 31
0.0
  0
LINE
  5
2EF
330
2ED
100
AcDbEntity
  8
0
100
AcDbLine
 10
3.626046755102493
 20
-4.652917982891722
 30
0.0
 11
-3.626046755102493
 21
4.652917982891722
 31
0.0
  0
ENDBLK
  5
2F1
330
2ED
100
AcDbEntity
  8
0
100
AcDbBlockEnd
  0
BLOCK
  5
A
330
9
100
AcDbEntity
  8
ASHADE
100
AcDbBlockBegin
  2
AVE_RENDER
 70
     0
 10
0.0
 20
0.0
 30
0.0
  3
AVE_RENDER
  1
AVE_RENDER
  0
ENDBLK
  5
B
330
9
100
AcDbEntity
  8
0
100
AcDbBlockEnd
  0
BLOCK
  5
17
330
16
100
AcDbEntity
  8
ASHADE
100
AcDbBlockBegin
  2
AVE_GLOBAL
 70
     0
 10
0.0
 20
0.0
 30
0.0
  3
AVE_GLOBAL
  1
AVE_GLOBAL
  0
ENDBLK
  5
18
330
16
100
AcDbEntity
  8
0
100
AcDbBlockEnd
  0
BLOCK
  5
13CD9
330
13CD7
100
AcDbEntity
  8
0
100
AcDbBlockBegin
  2
PROJ_NAM
 70
     2
 10
0.0
 20
0.0
 30
0.0
  3
PROJ_NAM
  1

  0
ATTDEF
  5
13CD8
330
13CD7
100
AcDbEntity
  8
0
100
AcDbText
 10
-0.6999328437764615
 20
0.0000589388950121
 30
0.0
 40
0.2
  1
PROJECTNAME
 72
     1
 11
0.3667338228902052
 21
0.0000589388950121
 31
0.0
100
AcDbAttributeDefinition
  3
NAME
  2
NAME
 70
     1
  0
ENDBLK
  5
13CDA
330
13CD7
100
AcDbEntity
  8
0
100
AcDbBlockEnd
  0
BLOCK
  5
13CE4
330
13CE3
100
AcDbEntity
  8
0
100
AcDbBlockBegin
  2
TR_CONF
 70
     0
 10
0.0
 20
0.0
 30
0.0
  3
TR_CONF
  1

  0
ENDBLK
  5
13CE5
330
13CE3
100
AcDbEntity
  8
0
100
AcDbBlockEnd
  0
BLOCK
  5
569F1
330
56983
100
AcDbEntity
  8
0
100
AcDbBlockBegin
  2
arbilitaba1
 70
     2
 10
0.0
 20
0.0
 30
0.0
  3
arbilitaba1
  1

  0
LINE
  5
56FFC
330
56983
100
AcDbEntity
  8
F1
100
AcDbLine
 10
-100.0
 20
0.0
 30
0.0
 11
-100.0
 21
590.0
 31
0.0
  0
LINE
  5
56FFD
330
56983
100
AcDbEntity
  8
F1
100
AcDbLine
 10
0.0
 20
590.0
 30
0.0
 11
0.0
 21
0.0
 31
0.0
  0
LINE
  5
56FFE
330
56983
100
AcDbEntity
  8
f2
100
AcDbLine
 10
-98.0
 20
35.0
 30
0.0
 11
-98.0
 21
110.0
 31
0.0
  0
LINE
  5
56FFF
330
56983
100
AcDbEntity
  8
f2
100
AcDbLine
 10
-2.0
 20
110.0
 30
0.0
 11
-2.0
 21
35.0
 31
0.0
  0
LINE
  5
57000
330
56983
100
AcDbEntity
  8
f2
100
AcDbLine
 10
-98.0
 20
35.0
 30
0.0
 11
-2.0
 21
35.0
 31
0.0
  0
LINE
  5
57001
330
56983
100
AcDbEntity
  8
F1
100
AcDbLine
 10
-100.0
 20
33.0
 30
0.0
 11
0.0
 21
33.0
 31
0.0
  0
LINE
  5
57002
330
56983
100
AcDbEntity
  8
F1
100
AcDbLine
 10
-100.0
 20
33.0
 30
0.0
 11
0.0
 21
33.0
 31
0.0
  0
LINE
  5
57003
330
56983
100
AcDbEntity
  8
F1
100
AcDbLine
 10
-100.0
 20
22.0
 30
0.0
 11
0.0
 21
22.0
 31
0.0
  0
TEXT
  5
57004
330
56983
100
AcDbEntity
  8
TEXT03
100
AcDbText
 10
-89.90142857142849
 20
26.0
 30
0.0
 40
3.0
  1

  7
ORON
 72
     1
 11
-83.32999999999993
 21
27.5
 31
0.0
100
AcDbText
 73
     2
  0
TEXT
  5
57005
330
56983
100
AcDbEntity
  8
TEXT03
100
AcDbText
 10
-56.35214285714274
 20
26.0
 30
0.0
 40
3.0
  1

  7
ORON
 72
     1
 11
-49.99499999999989
 21
27.5
 31
0.0
100
AcDbText
 73
     2
  0
TEXT
  5
57006
330
56983
100
AcDbEntity
  8
TEXT03
100
AcDbText
 10
-20.73642857142853
 20
26.0
 30
0.0
 40
3.0
  1

  7
ORON
 72
     1
 11
-16.66499999999996
 21
27.5
 31
0.0
100
AcDbText
 73
     2
  0
LINE
  5
57007
330
56983
100
AcDbEntity
  8
F1
100
AcDbLine
 10
-66.66000000000008
 20
33.0
 30
0.0
 11
-66.66000000000008
 21
22.0
 31
0.0
  0
LINE
  5
57008
330
56983
100
AcDbEntity
  8
F1
100
AcDbLine
 10
-33.32999999999993
 20
33.0
 30
0.0
 11
-33.32999999999993
 21
22.0
 31
0.0
  0
LINE
  5
57009
330
56983
100
AcDbEntity
  8
F1
100
AcDbLine
 10
-38.0
 20
231.5639237800933
 30
0.0
 11
-38.0
 21
200.9999999999999
 31
0.0
  0
TEXT
  5
5700A
330
56983
100
AcDbEntity
  8
TEXT03
100
AcDbText
 10
-22.83333333333332
 20
143.0
 30
0.0
 40
2.5
  1
 
  7
ORON
 72
     2
 11
-2.0
 21
143.0
 31
0.0
100
AcDbText
  0
TEXT
  5
5700B
330
56983
100
AcDbEntity
  8
TEXT03
100
AcDbText
 10
-9.809523809523806
 20
114.0
 30
0.0
 40
2.0
  1

  7
ORON
 72
     2
 11
-2.0
 21
114.0
 31
0.0
100
AcDbText
  0
LINE
  5
5700C
330
56983
100
AcDbEntity
  8
f2
100
AcDbLine
 10
-100.0
 20
210.5639237800933
 30
0.0
 11
0.0
 21
210.5639237800933
 31
0.0
  0
LINE
  5
5700D
330
56983
100
AcDbEntity
  8
F1
100
AcDbLine
 10
-100.0
 20
201.0
 30
0.0
 11
0.0
 21
201.0
 31
0.0
  0
LINE
  5
5700E
330
56983
100
AcDbEntity
  8
F1
100
AcDbLine
 10
-100.0
 20
141.0
 30
0.0
 11
0.0
 21
141.0
 31
0.0
  0
LINE
  5
5700F
330
56983
100
AcDbEntity
  8
F1
100
AcDbLine
 10
-100.0
 20
126.0
 30
0.0
 11
0.0
 21
126.0
 31
0.0
  0
LINE
  5
57010
330
56983
100
AcDbEntity
  8
F1
100
AcDbLine
 10
-100.0
 20
112.0
 30
0.0
 11
0.0
 21
112.0
 31
0.0
  0
LINE
  5
57011
330
56983
100
AcDbEntity
  8
f2
100
AcDbLine
 10
-98.0
 20
110.0
 30
0.0
 11
-2.0
 21
110.0
 31
0.0
  0
TEXT
  5
57012
330
56983
100
AcDbEntity
  8
TEXT03
100
AcDbText
 10
-24.11904761904761
 20
204.7264333852519
 30
0.0
 40
2.5
  1

  7
ORON
 72
     4
 11
-19.0
 21
205.5597667185852
 31
0.0
100
AcDbText
  0
TEXT
  5
57013
330
56983
100
AcDbEntity
  8
TEXT03
100
AcDbText
 10
-76.28571428571428
 20
127.9999999999999
 30
0.0
 40
2.0
  1

  7
ORON
 72
     2
 11
-68.0
 21
127.9999999999999
 31
0.0
100
AcDbText
  0
ATTDEF
  5
57014
330
56983
100
AcDbEntity
  8
TEXT03
100
AcDbText
 10
-108.5074770401801
 20
133.4999999999999
 30
0.0
 40
3.0
  1
------
  7
ROMANS
 72
     2
 11
-86.79319132589444
 21
133.4999999999999
 31
0.0
100
AcDbAttributeDefinition
  3
1DATE
  2
1DATE
 70
     0
  0
ATTDEF
  5
57015
330
56983
100
AcDbEntity
  8
TEXT04
100
AcDbText
 10
-51.39320521739033
 20
133.0484381018468
 30
0.0
 40
4.5
  1
----
  7
ROMANS
 72
     2
 11
-29.9646337888189
 21
133.0484381018468
 31
0.0
100
AcDbAttributeDefinition
  3
SCALE ?
  2
SCALE
 70
     0
  0
TEXT
  5
57016
330
56983
100
AcDbEntity
  8
TEXT03
100
AcDbText
 10
-39.52380952380952
 20
114.0
 30
0.0
 40
2.0
  1

  7
ORON
 72
     2
 11
-34.0
 21
114.0
 31
0.0
100
AcDbText
  0
ATTDEF
  5
57017
330
56983
100
AcDbEntity
  8
TEXT03
100
AcDbText
 10
-75.14285714285714
 20
119.0
 30
0.0
 40
2.0
  1
----
  7
ORON
 72
     2
 11
-66.0
 21
119.0
 31
0.0
100
AcDbAttributeDefinition
  3
approved by ?
  2
NAME
 70
     0
  0
ATTDEF
  5
57018
330
56983
100
AcDbEntity
  8
TEXT03
100
AcDbText
 10
-25.14285714285714
 20
119.0
 30
0.0
 40
2.0
  1
----
  7
ORON
 72
     2
 11
-16.0
 21
119.0
 31
0.0
100
AcDbAttributeDefinition
  3
drawn by ?
  2
NAME
 70
     0
  0
TEXT
  5
57019
330
56983
100
AcDbEntity
  8
TEXT03
100
AcDbText
 10
-79.6547619047619
 20
204.7264333852519
 30
0.0
 40
2.5
  1
 
  7
ORON
 72
     4
 11
-69.0
 21
205.5597667185852
 31
0.0
100
AcDbText
  0
LINE
  5
5701A
330
56983
100
AcDbEntity
  8
F1
100
AcDbLine
 10
-66.0
 20
140.9999999999999
 30
0.0
 11
-66.0
 21
125.9999999999999
 31
0.0
  0
LINE
  5
5701B
330
56983
100
AcDbEntity
  8
F1
100
AcDbLine
 10
-32.0
 20
125.9999999999999
 30
0.0
 11
-32.0
 21
112.0
 31
0.0
  0
TEXT
  5
5701C
330
56983
100
AcDbEntity
  8
TEXT03
100
AcDbText
 10
-7.428571428571428
 20
128.0
 30
0.0
 40
2.0
  1
..
  7
ORON
 72
     2
 11
-2.0
 21
128.0
 31
0.0
100
AcDbText
  0
LINE
  5
5701D
330
56983
100
AcDbEntity
  8
F1
100
AcDbLine
 10
-100.0
 20
231.5639237800933
 30
0.0
 11
0.0
 21
231.5639237800933
 31
0.0
  0
LINE
  5
5701E
330
56983
100
AcDbEntity
  8
f2
100
AcDbLine
 10
-82.0
 20
590.0
 30
0.0
 11
-82.0
 21
352.0
 31
0.0
  0
LINE
  5
5701F
330
56983
100
AcDbEntity
  8
f2
100
AcDbLine
 10
-25.0
 20
590.0
 30
0.0
 11
-25.0
 21
352.0
 31
0.0
  0
LINE
  5
57020
330
56983
100
AcDbEntity
  8
f2
100
AcDbLine
 10
-18.0
 20
590.0
 30
0.0
 11
-18.0
 21
352.0
 31
0.0
  0
LINE
  5
57021
330
56983
100
AcDbEntity
  8
f2
100
AcDbLine
 10
-100.0
 20
420.0
 30
0.0
 11
0.0
 21
420.0
 31
0.0
  0
LINE
  5
57022
330
56983
100
AcDbEntity
  8
f2
100
AcDbLine
 10
-100.0
 20
426.0
 30
0.0
 11
0.0
 21
426.0
 31
0.0
  0
TEXT
  5
57023
330
56983
100
AcDbEntity
  8
TEXT03
100
AcDbText
 10
-14.17857142857142
 20
584.6051795684915
 30
0.0
 40
2.5
  1

  7
ORON
 72
     4
 11
-9.0
 21
585.4385129018249
 31
0.0
100
AcDbText
  0
LINE
  5
57024
330
56983
100
AcDbEntity
  8
F1
100
AcDbLine
 10
-100.0
 20
352.0
 30
0.0
 11
0.0
 21
352.0
 31
0.0
  0
LINE
  5
57025
330
56983
100
AcDbEntity
  8
F1
100
AcDbLine
 10
-100.0
 20
360.0
 30
0.0
 11
0.0
 21
360.0
 31
0.0
  0
LINE
  5
57026
330
56983
100
AcDbEntity
  8
F1
100
AcDbLine
 10
-100.0
 20
360.0
 30
0.0
 11
0.0
 21
360.0
 31
0.0
  0
LINE
  5
57027
330
56983
100
AcDbEntity
  8
f2
100
AcDbLine
 10
-100.0
 20
432.0
 30
0.0
 11
0.0
 21
432.0
 31
0.0
  0
LINE
  5
57028
330
56983
100
AcDbEntity
  8
f2
100
AcDbLine
 10
-100.0
 20
438.0
 30
0.0
 11
0.0
 21
438.0
 31
0.0
  0
LINE
  5
57029
330
56983
100
AcDbEntity
  8
f2
100
AcDbLine
 10
-100.0
 20
444.0
 30
0.0
 11
0.0
 21
444.0
 31
0.0
  0
LINE
  5
5702A
330
56983
100
AcDbEntity
  8
f2
100
AcDbLine
 10
-100.0
 20
450.0
 30
0.0
 11
0.0
 21
450.0
 31
0.0
  0
LINE
  5
5702B
330
56983
100
AcDbEntity
  8
f2
100
AcDbLine
 10
-100.0
 20
456.0
 30
0.0
 11
0.0
 21
456.0
 31
0.0
  0
LINE
  5
5702C
330
56983
100
AcDbEntity
  8
f2
100
AcDbLine
 10
-100.0
 20
462.0
 30
0.0
 11
0.0
 21
462.0
 31
0.0
  0
LINE
  5
5702D
330
56983
100
AcDbEntity
  8
f2
100
AcDbLine
 10
-100.0
 20
468.0
 30
0.0
 11
0.0
 21
468.0
 31
0.0
  0
LINE
  5
5702E
330
56983
100
AcDbEntity
  8
f2
100
AcDbLine
 10
-100.0
 20
474.0
 30
0.0
 11
0.0
 21
474.0
 31
0.0
  0
LINE
  5
5702F
330
56983
100
AcDbEntity
  8
f2
100
AcDbLine
 10
-100.0
 20
480.0
 30
0.0
 11
0.0
 21
480.0
 31
0.0
  0
LINE
  5
57030
330
56983
100
AcDbEntity
  8
f2
100
AcDbLine
 10
-100.0
 20
486.0
 30
0.0
 11
0.0
 21
486.0
 31
0.0
  0
LINE
  5
57031
330
56983
100
AcDbEntity
  8
f2
100
AcDbLine
 10
-100.0
 20
492.0
 30
0.0
 11
0.0
 21
492.0
 31
0.0
  0
LINE
  5
57032
330
56983
100
AcDbEntity
  8
f2
100
AcDbLine
 10
-100.0
 20
498.0
 30
0.0
 11
0.0
 21
498.0
 31
0.0
  0
LINE
  5
57033
330
56983
100
AcDbEntity
  8
f2
100
AcDbLine
 10
-100.0
 20
504.0
 30
0.0
 11
0.0
 21
504.0
 31
0.0
  0
LINE
  5
57034
330
56983
100
AcDbEntity
  8
f2
100
AcDbLine
 10
-100.0
 20
510.0
 30
0.0
 11
0.0
 21
510.0
 31
0.0
  0
TEXT
  5
57035
330
56983
100
AcDbEntity
  8
TEXT03
100
AcDbText
 10
-96.11904761904762
 20
584.1885129018248
 30
0.0
 40
2.5
  1

  7
ORON
 72
     4
 11
-91.0
 21
585.4385129018249
 31
0.0
100
AcDbText
  0
TEXT
  5
57036
330
56983
100
AcDbEntity
  8
TEXT03
100
AcDbText
 10
-58.67857142857142
 20
584.1885129018248
 30
0.0
 40
2.5
  1

  7
ORON
 72
     4
 11
-53.5
 21
585.4385129018249
 31
0.0
100
AcDbText
  0
LINE
  5
57037
330
56983
100
AcDbEntity
  8
F1
100
AcDbLine
 10
-100.0
 20
582.0
 30
0.0
 11
0.0
 21
582.0
 31
0.0
  0
TEXT
  5
57038
330
56983
100
AcDbEntity
  8
TEXT03
100
AcDbText
 10
-11.85714285714285
 20
354.2329590448466
 30
0.0
 40
2.5
  1
'
  7
ORON
 72
     4
 11
-9.0
 21
355.7210542829418
 31
0.0
100
AcDbText
  0
LINE
  5
57039
330
56983
100
AcDbEntity
  8
F1
100
AcDbLine
 10
-100.0
 20
590.0
 30
0.0
 11
0.0
 21
590.0
 31
0.0
  0
LINE
  5
5703A
330
56983
100
AcDbEntity
  8
F1
100
AcDbLine
 10
-100.0
 20
590.0
 30
0.0
 11
0.0
 21
590.0
 31
0.0
  0
LINE
  5
5703B
330
56983
100
AcDbEntity
  8
f2
100
AcDbLine
 10
-100.0
 20
540.0
 30
0.0
 11
0.0
 21
540.0
 31
0.0
  0
LINE
  5
5703C
330
56983
100
AcDbEntity
  8
f2
100
AcDbLine
 10
-100.0
 20
534.0
 30
0.0
 11
0.0
 21
534.0
 31
0.0
  0
LINE
  5
5703D
330
56983
100
AcDbEntity
  8
f2
100
AcDbLine
 10
-100.0
 20
528.0
 30
0.0
 11
0.0
 21
528.0
 31
0.0
  0
LINE
  5
5703E
330
56983
100
AcDbEntity
  8
f2
100
AcDbLine
 10
-100.0
 20
522.0
 30
0.0
 11
0.0
 21
522.0
 31
0.0
  0
LINE
  5
5703F
330
56983
100
AcDbEntity
  8
f2
100
AcDbLine
 10
-100.0
 20
516.0
 30
0.0
 11
0.0
 21
516.0
 31
0.0
  0
TEXT
  5
57040
330
56983
100
AcDbEntity
  8
TEXT03
100
AcDbText
 10
-58.38095238095238
 20
354.4710542829418
 30
0.0
 40
2.5
  1

  7
ORON
 72
     4
 11
-53.5
 21
355.7210542829418
 31
0.0
100
AcDbText
  0
TEXT
  5
57041
330
56983
100
AcDbEntity
  8
TEXT03
100
AcDbText
 10
-96.17857142857143
 20
354.8877209496085
 30
0.0
 40
2.5
  1

  7
ORON
 72
     4
 11
-91.0
 21
355.7210542829418
 31
0.0
100
AcDbText
  0
TEXT
  5
57042
330
56983
100
AcDbEntity
  8
TEXT03
100
AcDbText
 10
-82.60902497526865
 20
330.4559247192816
 30
0.0
 40
2.49999975
  1
  ,       .2
 41
0.85
  7
ORON
100
AcDbText
  0
TEXT
  5
57043
330
56983
100
AcDbEntity
  8
TEXT03
100
AcDbText
 10
-86.39225348002662
 20
326.1092286102132
 30
0.0
 40
2.49999975
  1
.  ,     
 41
0.85
  7
ORON
100
AcDbText
  0
TEXT
  5
57044
330
56983
100
AcDbEntity
  8
TEXT03
100
AcDbText
 10
-62.15307290247892
 20
336.8549246248591
 30
0.0
 40
2.49999975
  1
.      .1
 41
0.85
  7
ORON
100
AcDbText
  0
TEXT
  5
57045
330
56983
100
AcDbEntity
  8
TEXT03
100
AcDbText
 10
-13.53231477067402
 20
343.9537878990782
 30
0.0
 40
2.49999975
  1
%%U:
 41
0.85
  7
ORON
100
AcDbText
  0
TEXT
  5
57046
330
56983
100
AcDbEntity
  8
TEXT03
100
AcDbText
 10
-70.4752675748992
 20
319.7572225507778
 30
0.0
 40
2.50125
  1
        .3
 41
0.85
  7
ORON
 72
     4
 11
-36.40764703918486
 21
320.9482939793492
 31
0.0
100
AcDbText
  0
TEXT
  5
57047
330
56983
100
AcDbEntity
  8
TEXT03
100
AcDbText
 10
-98.112130723079
 20
314.9934673843942
 30
0.0
 40
2.50125
  1
    
 41
0.85
  7
ORON
 72
     4
 11
-73.25744768736467
 21
316.1845388129656
 31
0.0
100
AcDbText
  0
TEXT
  5
57048
330
56983
100
AcDbEntity
  8
TEXT03
100
AcDbText
 10
-45.52714028451688
 20
314.9934673843942
 30
0.0
 40
2.50125
  1
  
 41
0.85
  7
ORON
 72
     4
 11
-26.94940367737402
 21
316.1845388129656
 31
0.0
100
AcDbText
  0
LINE
  5
57049
330
56983
100
AcDbEntity
  8
f2
100
AcDbLine
 10
-100.0
 20
384.0
 30
0.0
 11
0.0
 21
384.0
 31
0.0
  0
LINE
  5
5704A
330
56983
100
AcDbEntity
  8
f2
100
AcDbLine
 10
-100.0
 20
390.0
 30
0.0
 11
0.0
 21
390.0
 31
0.0
  0
LINE
  5
5704B
330
56983
100
AcDbEntity
  8
f2
100
AcDbLine
 10
-100.0
 20
396.0
 30
0.0
 11
0.0
 21
396.0
 31
0.0
  0
LINE
  5
5704C
330
56983
100
AcDbEntity
  8
f2
100
AcDbLine
 10
-100.0
 20
402.0
 30
0.0
 11
0.0
 21
402.0
 31
0.0
  0
LINE
  5
5704D
330
56983
100
AcDbEntity
  8
f2
100
AcDbLine
 10
-100.0
 20
408.0
 30
0.0
 11
0.0
 21
408.0
 31
0.0
  0
LINE
  5
5704E
330
56983
100
AcDbEntity
  8
f2
100
AcDbLine
 10
-100.0
 20
414.0
 30
0.0
 11
0.0
 21
414.0
 31
0.0
  0
LINE
  5
5704F
330
56983
100
AcDbEntity
  8
f2
100
AcDbLine
 10
-100.0
 20
366.0
 30
0.0
 11
0.0
 21
366.0
 31
0.0
  0
LINE
  5
57050
330
56983
100
AcDbEntity
  8
f2
100
AcDbLine
 10
-100.0
 20
372.0
 30
0.0
 11
0.0
 21
372.0
 31
0.0
  0
LINE
  5
57051
330
56983
100
AcDbEntity
  8
f2
100
AcDbLine
 10
-100.0
 20
378.0
 30
0.0
 11
0.0
 21
378.0
 31
0.0
  0
LINE
  5
57052
330
56983
100
AcDbEntity
  8
f2
100
AcDbLine
 10
-100.0
 20
546.0
 30
0.0
 11
0.0
 21
546.0
 31
0.0
  0
LINE
  5
57053
330
56983
100
AcDbEntity
  8
f2
100
AcDbLine
 10
-100.0
 20
576.0
 30
0.0
 11
0.0
 21
576.0
 31
0.0
  0
LINE
  5
57054
330
56983
100
AcDbEntity
  8
f2
100
AcDbLine
 10
-100.0
 20
570.0
 30
0.0
 11
0.0
 21
570.0
 31
0.0
  0
LINE
  5
57055
330
56983
100
AcDbEntity
  8
f2
100
AcDbLine
 10
-100.0
 20
564.0
 30
0.0
 11
0.0
 21
564.0
 31
0.0
  0
LINE
  5
57056
330
56983
100
AcDbEntity
  8
f2
100
AcDbLine
 10
-100.0
 20
558.0
 30
0.0
 11
0.0
 21
558.0
 31
0.0
  0
LINE
  5
57057
330
56983
100
AcDbEntity
  8
f2
100
AcDbLine
 10
-100.0
 20
552.0
 30
0.0
 11
0.0
 21
552.0
 31
0.0
  0
LINE
  5
57058
330
56983
100
AcDbEntity
  8
f2
100
AcDbLine
 10
-50.0
 20
22.0
 30
0.0
 11
-50.0
 21
0.0
 31
0.0
  0
LINE
  5
57059
330
56983
100
AcDbEntity
  8
F1
100
AcDbLine
 10
-100.0
 20
0.0
 30
0.0
 11
0.0
 21
0.0
 31
0.0
  0
TEXT
  5
5705A
330
56983
100
AcDbEntity
  8
T3
100
AcDbText
 10
-37.59577170907523
 20
4.5
 30
0.0
 40
2.5
  1
:  
  7
ORON
 72
     2
 11
-2.833866947170463
 21
4.5
 31
0.0
100
AcDbText
  0
LINE
  5
5705B
330
56983
100
AcDbEntity
  8
f2
100
AcDbLine
 10
-100.0
 20
11.0
 30
0.0
 11
0.0
 21
11.0
 31
0.0
  0
LINE
  5
5705C
330
56983
100
AcDbEntity
  8
F1
100
AcDbLine
 10
-100.0
 20
22.0
 30
0.0
 11
0.0
 21
22.0
 31
0.0
  0
ATTDEF
  5
5705D
330
56983
100
AcDbEntity
  8
T3
100
AcDbText
 10
-98.0
 20
15.0
 30
0.0
 40
3.0
  1
----
  7
ORON
 11
-98.0
 21
16.5
 31
0.0
100
AcDbAttributeDefinition
  3
FILE NAME
  2
FILE
 70
     0
 74
     2
  0
TEXT
  5
5705E
330
56983
100
AcDbEntity
  8
T3
100
AcDbText
 10
-22.47672409002761
 20
15.5
 30
0.0
 40
2.5
  1
: 
  7
ORON
 72
     2
 11
-2.833866947170463
 21
15.5
 31
0.0
100
AcDbText
  0
ATTDEF
  5
5705F
330
56983
100
AcDbEntity
  8
TEXT04
100
AcDbText
 10
-28.14285714285714
 20
219.0639237800933
 30
0.0
 40
4.0
  1
----
  7
ORON
 72
     1
 11
-19.0
 21
221.0639237800933
 31
0.0
100
AcDbAttributeDefinition
  3
LOCATION
  2
LOCATION
 70
     0
 74
     2
  0
ATTDEF
  5
57060
330
56983
100
AcDbEntity
  8
TEXT04
100
AcDbText
 10
-80.61904761904761
 20
219.0639237800933
 30
0.0
 40
4.0
  1
-----
  7
ORON
 72
     1
 11
-69.0
 21
221.0639237800933
 31
0.0
100
AcDbAttributeDefinition
  3
PROJNAME
  2
PROJNAME
 70
     0
 74
     2
  0
ATTDEF
  5
57061
330
56983
100
AcDbEntity
  8
TEXT04
100
AcDbText
 10
-59.14285714285714
 20
177.525157634658
 30
0.0
 40
4.0
  1
----
  7
ORON
 72
     1
 11
-50.0
 21
179.5251576346579
 31
0.0
100
AcDbAttributeDefinition
  3
PLANNAME1
  2
PLANNAME1
 70
     0
 74
     2
  0
ATTDEF
  5
57062
330
56983
100
AcDbEntity
  8
TEXT04
100
AcDbText
 10
-59.14285714285714
 20
166.27194905027
 30
0.0
 40
4.0
  1
----
  7
ORON
 72
     1
 11
-50.0
 21
168.27194905027
 31
0.0
100
AcDbAttributeDefinition
  3
PLANNAME2
  2
PLANNAME2
 70
     0
 74
     2
  0
ATTDEF
  5
57063
330
56983
100
AcDbEntity
  8
T3
100
AcDbText
 10
-98.0
 20
4.0
 30
0.0
 40
3.0
  1
----
  7
ORON
 11
-98.0
 21
5.5
 31
0.0
100
AcDbAttributeDefinition
  3
LASTDATE
  2
LASTDATE
 70
     0
 74
     2
  0
TEXT
  5
57064
330
56983
100
AcDbEntity
  8
TEXT04
100
AcDbText
 10
-95.37423675567238
 20
64.14010771222335
 30
0.0
 40
3.5
  1
050-5253590 
 41
0.85
  7
ORON
 72
     4
 11
-71.64507008900573
 21
66.39010771222335
 31
0.0
100
AcDbText
  0
TEXT
  5
57065
330
56983
100
AcDbEntity
  8
TEXT04
100
AcDbText
 10
-41.47858560677103
 20
63.84884738259891
 30
0.0
 40
3.5
  1
04-6399637 
 41
0.85
  7
ORON
 72
     4
 11
-22.99108560677104
 21
66.0988473825989
 31
0.0
100
AcDbText
  0
TEXT
  5
57066
330
56983
100
AcDbEntity
  8
TEXT04
100
AcDbText
 10
-78.50492337431524
 20
71.48038016550008
 30
0.0
 40
3.5
  1
  32  
 41
0.85
  7
ORON
100
AcDbText
  0
TEXT
  5
57067
330
56983
100
AcDbEntity
  8
T1
100
AcDbText
 10
-94.1366389546305
 20
83.76709009913925
 30
0.0
 40
6.0
  1
  
 41
0.8
  7
TOV
100
AcDbText
  0
TEXT
  5
57068
330
56983
100
AcDbEntity
  8
TEXT03
100
AcDbText
 10
-32.43726169598663
 20
284.2855276445039
 30
0.0
 40
2.5
  1
."  "
 41
0.85
  7
ORON
 72
     2
 11
-8.758690267415204
 21
285.5355276445038
 31
0.0
100
AcDbText
 73
     2
  0
TEXT
  5
57069
330
56983
100
AcDbEntity
  8
TEXT03
100
AcDbText
 10
-32.46699119229969
 20
304.0851216527708
 30
0.0
 40
2.5
  1
.  "
 41
0.85
  7
ORON
 72
     2
 11
-8.687229287537775
 21
305.3351216527707
 31
0.0
100
AcDbText
 73
     2
  0
TEXT
  5
5706A
330
56983
100
AcDbEntity
  8
TEXT03
100
AcDbText
 10
-84.566055197453
 20
288.3494499307894
 30
0.0
 40
2.5
  1
" "      " . 6
 41
0.85
  7
ORON
 72
     2
 11
-1.589864721262529
 21
289.5994499307894
 31
0.0
100
AcDbText
 73
     2
  0
TEXT
  5
5706B
330
56983
100
AcDbEntity
  8
TEXT03
100
AcDbText
 10
-40.00093905879386
 20
294.0355276444984
 30
0.0
 40
2.5
  1
.  
 41
0.85
  7
ORON
 72
     2
 11
-8.530700963555773
 21
295.2855276444984
 31
0.0
100
AcDbText
 73
     2
  0
TEXT
  5
5706C
330
56983
100
AcDbEntity
  8
TEXT03
100
AcDbText
 10
-73.33391234031006
 20
298.0994499307805
 30
0.0
 40
2.5
  1
       . 5
 41
0.85
  7
ORON
 72
     2
 11
-1.589864721262529
 21
299.3494499307805
 31
0.0
100
AcDbText
 73
     2
  0
TEXT
  5
5706D
330
56983
100
AcDbEntity
  8
TEXT03
100
AcDbText
 10
-78.4401784703625
 20
308.1490439390563
 30
0.0
 40
2.5
  1
  "       .4
 41
0.85
  7
ORON
 72
     2
 11
-1.737797517981562
 21
309.3990439390563
 31
0.0
100
AcDbText
 73
     2
  0
LINE
  5
5706E
330
56983
100
AcDbEntity
  8
F1
100
AcDbLine
 10
-100.0
 20
188.3392821060439
 30
0.0
 11
0.0
 21
188.3392821060439
 31
0.0
  0
TEXT
  5
5706F
330
56983
100
AcDbEntity
  8
TEXT03
100
AcDbText
 10
-26.38095238095238
 20
194.8053667480157
 30
0.0
 40
2.5
  1
 '
  7
ORON
 72
     4
 11
-19.0
 21
195.9958429384919
 31
0.0
100
AcDbText
  0
ATTDEF
  5
57070
330
56983
100
AcDbEntity
  8
TEXT04
100
AcDbText
 10
-84.53749999999999
 20
191.9656424741358
 30
0.0
 40
5.5
  1
-----
  7
TOV
 72
     1
 11
-69.0
 21
194.7156424741358
 31
0.0
100
AcDbAttributeDefinition
  3
SHEETNO
  2
SHEETNO
 70
     0
 74
     2
  0
ENDBLK
  5
569F2
330
56983
100
AcDbEntity
  8
0
100
AcDbBlockEnd
  0
BLOCK
  5
671AA
330
6400D
100
AcDbEntity
  8
0
100
AcDbBlockBegin
  2
status
 70
     0
 10
0.0
 20
0.0
 30
0.0
  3
status
  1

  0
LWPOLYLINE
  5
671AB
330
6400D
100
AcDbEntity
  8
f2
100
AcDbPolyline
 90
        4
 70
     1
 43
0.0
 10
-0.0000054589836509
 20
-11.0
 10
-0.0000054589836509
 20
0.0
 10
-100.0000054589836
 20
0.0
 10
-100.0000054589836
 20
-11.0
  0
LINE
  5
671AC
330
6400D
100
AcDbEntity
  8
f2
100
AcDbLine
 10
-66.6600054589835
 20
0.0
 30
0.0
 11
-66.6600054589835
 21
-11.0
 31
0.0
  0
LINE
  5
671AD
330
6400D
100
AcDbEntity
  8
f2
100
AcDbLine
 10
-33.33000545898176
 20
0.0
 30
0.0
 11
-33.33000545898176
 21
-11.0
 31
0.0
  0
HATCH
  5
671AE
330
6400D
100
AcDbEntity
  8
f2
100
AcDbHatch
 10
0.0
 20
0.0
 30
0.0
210
0.0
220
0.0
230
1.0
  2
DOTS
 70
     0
 71
     0
 91
        1
 92
        7
 72
     0
 73
     1
 93
        4
 10
-33.32000545898699
 20
0.0000035628975183
 10
-33.32000545898699
 20
-10.99999643710248
 10
0.0099945410147484
 20
-10.99999643710248
 10
0.0099945410147484
 20
0.0000035628975183
 97
        0
 75
     0
 76
     1
 52
0.0
 41
20.0
 77
     1
 78
     1
 53
0.0
 43
-6802.141081457847
 44
-621.6184309221505
 45
0.625
 46
1.25
 79
     2
 49
0.0
 49
-1.25
 47
0.1293070099600591
 98
        1
 10
-13.4780328650886
 20
-2.416983589211213
  0
ENDBLK
  5
671AF
330
6400D
100
AcDbEntity
  8
0
100
AcDbBlockEnd
  0
BLOCK
  5
67D37
330
67D30
100
AcDbEntity
  8
0
100
AcDbBlockBegin
  2
LOGO
 70
     0
 10
0.0
 20
0.0
 30
0.0
  3
LOGO
  1

  0
IMAGE
  5
67D31
330
67D30
100
AcDbEntity
  8
MABAT2
 92
      140
310
8C0000000100000084000000060000000500000010206D455B8441C080DC05EC75683340000000000000000010206D455B8441C0C090BF0CAFC94740000000000000000080CEE43CFA251EC0C090BF0CAFC94740000000000000000080CEE43CFA251EC080DC05EC75683340000000000000000010206D455B8441C080DC05
310
EC756833400000000000000000
100
AcDbRasterImage
 90
        0
 10
-35.03403537586575
 20
19.40804934638117
 30
0.0
 11
0.083832158480675
 21
0.0
 31
0.0
 12
0.0
 22
0.083832158480675
 32
0.0
 13
328.0
 23
336.0
340
67715
 70
     7
280
     0
281
    50
282
    50
283
     0
360
67D32
 71
     1
 91
        2
 14
-0.5
 24
-0.5
 14
327.4999999999999
 24
335.4999999999999
  0
TEXT
  5
67D33
330
67D30
100
AcDbEntity
  8
TEXT03
100
AcDbText
 10
-33.76175186122555
 20
3.167063884164235
 30
0.0
 40
2.0
  1
WWW.TVENT.CO.IL
  7
ORON
 72
     1
 11
-21.28556138503506
 21
4.167063884164235
 31
0.0
100
AcDbText
 73
     2
  0
TEXT
  5
67D34
330
67D30
100
AcDbEntity
  8
TEXT03
100
AcDbText
 10
-33.99984709932078
 20
6.671138069776134
 30
0.0
 40
2.0
  1
1-700-555-876
  7
ORON
 72
     1
 11
-21.28556138503506
 21
7.671138069776134
 31
0.0
100
AcDbText
 73
     2
  0
TEXT
  5
67D35
330
67D30
100
AcDbEntity
  8
TEXT03
100
AcDbText
 10
-39.47603757551124
 20
15.62664599827121
 30
0.0
 40
2.0
  1
  ,-
  7
ORON
 72
     1
 11
-21.28556138503506
 21
16.62664599827121
 31
0.0
100
AcDbText
 73
     2
  0
TEXT
  5
67D36
330
67D30
100
AcDbEntity
  8
TEXT03
100
AcDbText
 10
-31.28556138503507
 20
11.98800647912639
 30
0.0
 40
2.0
  1
 
  7
ORON
 72
     1
 11
-21.28556138503506
 21
12.98800647912639
 31
0.0
100
AcDbText
 73
     2
  0
ENDBLK
  5
67D38
330
67D30
100
AcDbEntity
  8
0
100
AcDbBlockEnd
  0
BLOCK
  5
6A4FF
330
6A4F5
100
AcDbEntity
  8
0
100
AcDbBlockBegin
  2
*D8
 70
     1
 10
0.0
 20
0.0
 30
0.0
  3
*D8
  1

  0
LINE
  5
6AAF4
330
6A4F5
100
AcDbEntity
  8
DIMH
 62
    30
370
    -2
100
AcDbLine
 10
-114.1186805905046
 20
-114.6001425974739
 30
0.0
 11
-119.9212406041007
 21
-104.3040787076147
 31
0.0
  0
LINE
  5
6AAF5
330
6A4F5
100
AcDbEntity
  8
DIMH
 62
    30
370
    -2
100
AcDbLine
 10
-71.43102354766519
 20
-90.54262950503417
 30
0.0
 11
-77.23358356126135
 21
-80.24656561517488
 31
0.0
  0
LINE
  5
6AAF6
330
6A4F5
100
AcDbEntity
  8
DIMH
370
    -2
100
AcDbLine
 10
-119.747005269232
 20
-104.2058847766251
 30
0.0
 11
-77.40781889613007
 21
-80.34475954616445
 31
0.0
  0
INSERT
  5
6AAF7
330
6A4F5
100
AcDbEntity
  8
DIMH
370
    -2
100
AcDbBlockReference
  2
TIC
 10
-119.9212406041007
 20
-104.3040787076147
 30
0.0
 41
0.2
 42
0.2
 43
0.2
 50
209.4043341240125
  0
INSERT
  5
6AAF8
330
6A4F5
100
AcDbEntity
  8
DIMH
370
    -2
100
AcDbBlockReference
  2
TIC
 10
-77.23358356126135
 20
-80.24656561517488
 30
0.0
 41
0.2
 42
0.2
 43
0.2
 50
29.40433412401254
  0
MTEXT
  5
6AAF9
330
6A4F5
100
AcDbEntity
  8
DIMH
 62
     4
100
AcDbMText
 10
-99.31386656510269
 20
-90.96855714987929
 30
0.0
 40
2.0
 41
0.0
 71
     5
 72
     1
  1
\A1;{\Fmonosi.shx;50}
  7
MONOSI
 11
0.8711766743436633
 21
0.4909696549477526
 31
0.0
 73
     1
 44
1.0
  0
POINT
  5
6AAFA
330
6A4F5
100
AcDbEntity
  8
DEFPOINTS
 62
     0
100
AcDbPoint
 10
-113.1367412806091
 20
-116.3424959461613
 30
0.0
  0
POINT
  5
6AAFB
330
6A4F5
100
AcDbEntity
  8
DEFPOINTS
 62
     0
100
AcDbPoint
 10
-70.44908423776968
 20
-92.28498285372149
 30
0.0
  0
POINT
  5
6AAFC
330
6A4F5
100
AcDbEntity
  8
DEFPOINTS
 62
     0
100
AcDbPoint
 10
-77.23358356126135
 20
-80.24656561517488
 30
0.0
  0
ENDBLK
  5
6A500
330
6A4F5
100
AcDbEntity
  8
0
100
AcDbBlockEnd
  0
BLOCK
  5
6A516
330
6A50C
100
AcDbEntity
  8
0
100
AcDbBlockBegin
  2
*D9
 70
     1
 10
0.0
 20
0.0
 30
0.0
  3
*D9
  1

  0
LINE
  5
6A86E
330
6A50C
100
AcDbEntity
  8
DIMV
 62
    30
370
    -2
100
AcDbLine
 10
-70.97337036949335
 20
-170.6334371158696
 30
0.0
 11
-69.68795136749651
 21
-170.6334371158696
 31
0.0
  0
LINE
  5
6A86F
330
6A50C
100
AcDbEntity
  8
DIMV
 62
    30
370
    -2
100
AcDbLine
 10
-70.97337036949335
 20
-167.6334371158697
 30
0.0
 11
-69.68795136749651
 21
-167.6334371158697
 31
0.0
  0
LINE
  5
6A870
330
6A50C
100
AcDbEntity
  8
DIMV
370
    -2
100
AcDbLine
 10
-69.68795136749651
 20
-170.4334371158697
 30
0.0
 11
-69.68795136749651
 21
-167.8334371158696
 31
0.0
  0
INSERT
  5
6A871
330
6A50C
100
AcDbEntity
  8
DIMV
370
    -2
100
AcDbBlockReference
  2
TIC
 10
-69.68795136749651
 20
-170.6334371158696
 30
0.0
 41
0.2
 42
0.2
 43
0.2
 50
270.0
  0
INSERT
  5
6A872
330
6A50C
100
AcDbEntity
  8
DIMV
370
    -2
100
AcDbBlockReference
  2
TIC
 10
-69.68795136749651
 20
-167.6334371158697
 30
0.0
 41
0.2
 42
0.2
 43
0.2
 50
90.0
  0
MTEXT
  5
6A873
330
6A50C
100
AcDbEntity
  8
DIMV
 62
     4
100
AcDbMText
 10
-71.18795136749648
 20
-169.1334371158697
 30
0.0
 40
2.0
 41
0.0
 71
     5
 72
     1
  1
\A1;3
  7
MONOSI
 11
0.0000000000000001
 21
1.0
 31
0.0
 73
     1
 44
1.0
  0
POINT
  5
6A874
330
6A50C
100
AcDbEntity
  8
DEFPOINTS
 62
     0
100
AcDbPoint
 10
-72.97337036949335
 20
-170.6334371158696
 30
0.0
  0
POINT
  5
6A875
330
6A50C
100
AcDbEntity
  8
DEFPOINTS
 62
     0
100
AcDbPoint
 10
-72.97337036949335
 20
-167.6334371158697
 30
0.0
  0
POINT
  5
6A876
330
6A50C
100
AcDbEntity
  8
DEFPOINTS
 62
     0
100
AcDbPoint
 10
-69.68795136749651
 20
-167.6334371158697
 30
0.0
  0
ENDBLK
  5
6A517
330
6A50C
100
AcDbEntity
  8
0
100
AcDbBlockEnd
  0
BLOCK
  5
6A534
330
6A52A
100
AcDbEntity
  8
0
100
AcDbBlockBegin
  2
*D10
 70
     1
 10
0.0
 20
0.0
 30
0.0
  3
*D10
  1

  0
LINE
  5
6AAE2
330
6A52A
100
AcDbEntity
  8
DIMH
 62
    30
370
    -2
100
AcDbLine
 10
-177.3061999374067
 20
-165.6334371158697
 30
0.0
 11
-177.3061999374067
 21
-139.5182322848487
 31
0.0
  0
LINE
  5
6AAE3
330
6A52A
100
AcDbEntity
  8
DIMH
 62
    30
370
    -2
100
AcDbLine
 10
-88.63674128060898
 20
-165.1334371158696
 30
0.0
 11
-88.63674128060898
 21
-139.5182322848487
 31
0.0
  0
LINE
  5
6AAE4
330
6A52A
100
AcDbEntity
  8
DIMH
370
    -2
100
AcDbLine
 10
-177.1061999374067
 20
-139.5182322848487
 30
0.0
 11
-88.83674128060899
 21
-139.5182322848487
 31
0.0
  0
INSERT
  5
6AAE5
330
6A52A
100
AcDbEntity
  8
DIMH
370
    -2
100
AcDbBlockReference
  2
TIC
 10
-177.3061999374067
 20
-139.5182322848487
 30
0.0
 41
0.2
 42
0.2
 43
0.2
 50
180.0
  0
INSERT
  5
6AAE6
330
6A52A
100
AcDbEntity
  8
DIMH
370
    -2
100
AcDbBlockReference
  2
TIC
 10
-88.63674128060898
 20
-139.5182322848487
 30
0.0
 41
0.2
 42
0.2
 43
0.2
  0
MTEXT
  5
6AAE7
330
6A52A
100
AcDbEntity
  8
DIMH
 62
     4
100
AcDbMText
 10
-132.9714706090078
 20
-138.0182322848487
 30
0.0
 40
2.0
 41
0.0
 71
     5
 72
     1
  1
\A1;{\Fmonosi.shx;.}
  7
MONOSI
 73
     1
 44
1.0
  0
POINT
  5
6AAE8
330
6A52A
100
AcDbEntity
  8
DEFPOINTS
 62
     0
100
AcDbPoint
 10
-177.3061999374067
 20
-167.6334371158697
 30
0.0
  0
POINT
  5
6AAE9
330
6A52A
100
AcDbEntity
  8
DEFPOINTS
 62
     0
100
AcDbPoint
 10
-88.63674128060898
 20
-167.1334371158696
 30
0.0
  0
POINT
  5
6AAEA
330
6A52A
100
AcDbEntity
  8
DEFPOINTS
 62
     0
100
AcDbPoint
 10
-88.63674128060898
 20
-139.5182322848487
 30
0.0
  0
ENDBLK
  5
6A535
330
6A52A
100
AcDbEntity
  8
0
100
AcDbBlockEnd
  0
BLOCK
  5
6A6A3
330
6A699
100
AcDbEntity
  8
0
100
AcDbBlockBegin
  2
*D11
 70
     1
 10
0.0
 20
0.0
 30
0.0
  3
*D11
  1

  0
LINE
  5
6A851
330
6A699
100
AcDbEntity
  8
DIMV
 62
    30
370
    -2
100
AcDbLine
 10
-88.63964715668217
 20
-55.5264589758009
 30
0.0
 11
-86.66591883118679
 21
-54.487173835203
 31
0.0
  0
LINE
  5
6A852
330
6A699
100
AcDbEntity
  8
DIMV
 62
    30
370
    -2
100
AcDbLine
 10
-102.6171031086734
 20
-28.981577640407
 30
0.0
 11
-100.643374783178
 21
-27.94229249980911
 31
0.0
  0
LINE
  5
6A853
330
6A699
100
AcDbEntity
  8
DIMV
370
    -2
100
AcDbLine
 10
-86.75910187086673
 20
-54.3102079596337
 30
0.0
 11
-100.5501917434981
 21
-28.1192583753784
 31
0.0
  0
INSERT
  5
6A854
330
6A699
100
AcDbEntity
  8
DIMV
370
    -2
100
AcDbBlockReference
  2
TIC
 10
-86.66591883118679
 20
-54.487173835203
 30
0.0
 41
0.2
 42
0.2
 43
0.2
 50
297.7694682098226
  0
INSERT
  5
6A855
330
6A699
100
AcDbEntity
  8
DIMV
370
    -2
100
AcDbBlockReference
  2
TIC
 10
-100.643374783178
 20
-27.94229249980911
 30
0.0
 41
0.2
 42
0.2
 43
0.2
 50
117.7694682098226
  0
MTEXT
  5
6A856
330
6A699
100
AcDbEntity
  8
DIMV
 62
     4
100
AcDbMText
 10
-92.32740274041274
 20
-40.51586036990648
 30
0.0
 40
2.0
 41
0.0
 71
     5
 72
     1
  1
\A1;25-30
  7
MONOSI
 11
0.4659151983997094
 21
-0.8848293778464634
 31
0.0
 73
     1
 44
1.0
  0
POINT
  5
6A857
330
6A699
100
AcDbEntity
  8
DEFPOINTS
 62
     0
100
AcDbPoint
 10
-90.40930591237509
 20
-56.45828937260032
 30
0.0
  0
POINT
  5
6A858
330
6A699
100
AcDbEntity
  8
DEFPOINTS
 62
     0
100
AcDbPoint
 10
-104.3867618643663
 20
-29.91340803720642
 30
0.0
  0
POINT
  5
6A859
330
6A699
100
AcDbEntity
  8
DEFPOINTS
 62
     0
100
AcDbPoint
 10
-100.643374783178
 20
-27.94229249980911
 30
0.0
  0
ENDBLK
  5
6A6A4
330
6A699
100
AcDbEntity
  8
0
100
AcDbBlockEnd
  0
BLOCK
  5
6A6AF
330
6A6A5
100
AcDbEntity
  8
0
100
AcDbBlockBegin
  2
*D12
 70
     1
 10
0.0
 20
0.0
 30
0.0
  3
*D12
  1

  0
LINE
  5
6AAFD
330
6A6A5
100
AcDbEntity
  8
DIMH
 62
    30
370
    -2
100
AcDbLine
 10
-147.6801419083217
 20
-70.7925251395439
 30
0.0
 11
-145.938818149994
 21
-74.09950980757447
 31
0.0
  0
LINE
  5
6AAFE
330
6A6A5
100
AcDbEntity
  8
DIMH
 62
    30
370
    -2
100
AcDbLine
 10
-89.2814029704551
 20
-40.04212204516244
 30
0.0
 11
-87.5400792121275
 21
-43.349106713193
 31
0.0
  0
LINE
  5
6AAFF
330
6A6A5
100
AcDbEntity
  8
DIMH
370
    -2
100
AcDbLine
 10
-145.7618522744248
 20
-74.00632676789452
 30
0.0
 11
-87.71704508769678
 21
-43.44228975287295
 31
0.0
  0
INSERT
  5
6AB00
330
6A6A5
100
AcDbEntity
  8
DIMH
370
    -2
100
AcDbBlockReference
  2
TIC
 10
-145.938818149994
 20
-74.09950980757447
 30
0.0
 41
0.2
 42
0.2
 43
0.2
 50
207.769468209823
  0
INSERT
  5
6AB01
330
6A6A5
100
AcDbEntity
  8
DIMH
370
    -2
100
AcDbBlockReference
  2
TIC
 10
-87.5400792121275
 20
-43.349106713193
 30
0.0
 41
0.2
 42
0.2
 43
0.2
 50
27.76946820982308
  0
MTEXT
  5
6AB02
330
6A6A5
100
AcDbEntity
  8
DIMH
 62
     4
100
AcDbMText
 10
-117.4383214786603
 20
-57.39706419361405
 30
0.0
 40
2.0
 41
0.0
 71
     5
 72
     1
  1
\A1;66
  7
MONOSI
 11
0.8848293778464595
 21
0.4659151983997168
 31
0.0
 73
     1
 44
1.0
  0
POINT
  5
6AB03
330
6A6A5
100
AcDbEntity
  8
DEFPOINTS
 62
     0
100
AcDbPoint
 10
-148.6119723051211
 20
-69.02286638385098
 30
0.0
  0
POINT
  5
6AB04
330
6A6A5
100
AcDbEntity
  8
DEFPOINTS
 62
     0
100
AcDbPoint
 10
-90.21323336725455
 20
-38.27246328946952
 30
0.0
  0
POINT
  5
6AB05
330
6A6A5
100
AcDbEntity
  8
DEFPOINTS
 62
     0
100
AcDbPoint
 10
-87.5400792121275
 20
-43.349106713193
 30
0.0
  0
ENDBLK
  5
6A6B0
330
6A6A5
100
AcDbEntity
  8
0
100
AcDbBlockEnd
  0
BLOCK
  5
6A752
330
6A748
100
AcDbEntity
  8
0
100
AcDbBlockBegin
  2
*D13
 70
     1
 10
0.0
 20
0.0
 30
0.0
  3
*D13
  1

  0
LINE
  5
6AAEB
330
6A748
100
AcDbEntity
  8
DIMH
 62
    30
370
    -2
100
AcDbLine
 10
-62.63674128060893
 20
-169.6334371158696
 30
0.0
 11
-62.63674128060893
 21
-175.6825983785397
 31
0.0
  0
LINE
  5
6AAEC
330
6A748
100
AcDbEntity
  8
DIMH
 62
    30
370
    -2
100
AcDbLine
 10
-114.6367412806089
 20
-169.6334371158697
 30
0.0
 11
-114.6367412806089
 21
-175.6825983785397
 31
0.0
  0
LINE
  5
6AAED
330
6A748
100
AcDbEntity
  8
DIMH
370
    -2
100
AcDbLine
 10
-62.83674128060893
 20
-175.6825983785397
 30
0.0
 11
-114.4367412806089
 21
-175.6825983785397
 31
0.0
  0
INSERT
  5
6AAEE
330
6A748
100
AcDbEntity
  8
DIMH
370
    -2
100
AcDbBlockReference
  2
TIC
 10
-62.63674128060893
 20
-175.6825983785397
 30
0.0
 41
0.2
 42
0.2
 43
0.2
  0
INSERT
  5
6AAEF
330
6A748
100
AcDbEntity
  8
DIMH
370
    -2
100
AcDbBlockReference
  2
TIC
 10
-114.6367412806089
 20
-175.6825983785397
 30
0.0
 41
0.2
 42
0.2
 43
0.2
 50
180.0
  0
MTEXT
  5
6AAF0
330
6A748
100
AcDbEntity
  8
DIMH
 62
     4
100
AcDbMText
 10
-88.63674128060896
 20
-174.1825983785397
 30
0.0
 40
2.0
 41
0.0
 71
     5
 72
     1
  1
\A1;52
  7
MONOSI
 73
     1
 44
1.0
  0
POINT
  5
6AAF1
330
6A748
100
AcDbEntity
  8
DEFPOINTS
 62
     0
100
AcDbPoint
 10
-62.63674128060893
 20
-167.6334371158697
 30
0.0
  0
POINT
  5
6AAF2
330
6A748
100
AcDbEntity
  8
DEFPOINTS
 62
     0
100
AcDbPoint
 10
-114.6367412806089
 20
-167.6334371158697
 30
0.0
  0
POINT
  5
6AAF3
330
6A748
100
AcDbEntity
  8
DEFPOINTS
 62
     0
100
AcDbPoint
 10
-114.6367412806089
 20
-175.6825983785397
 30
0.0
  0
ENDBLK
  5
6A753
330
6A748
100
AcDbEntity
  8
0
100
AcDbBlockEnd
  0
BLOCK
  5
6AB19
330
6AB11
100
AcDbEntity
  8
0
100
AcDbBlockBegin
  2
A$C489E358B
 70
     0
 10
0.0
 20
0.0
 30
0.0
  3
A$C489E358B
  1

  0
TEXT
  5
6AB12
330
6AB11
100
AcDbEntity
  8
TEXT03
100
AcDbText
 10
-27.63608780216543
 20
-12.69745979672285
 30
0.0
 40
1.6
  1
  
  7
ORON
100
AcDbText
  0
LEADER
  5
6AB13
330
6AB11
100
AcDbEntity
  8
TEXT03
100
AcDbLeader
  3
LEADER-10
 40
15.0
 76
     3
 10
6.116337670690086
 20
0.0
 30
0.0
 10
-0.9525697601760612
 20
-13.25572409837218
 30
0.0
 10
-28.21413276473606
 20
-13.25572409837218
 30
0.0
213
4.697365185055105
223
0.0
233
0.0
  0
TEXT
  5
6AB14
330
6AB11
100
AcDbEntity
  8
TEXT03
100
AcDbText
 10
-51.62429596421088
 20
-18.17352531844164
 30
0.0
 40
1.6
  1
      
  7
ORON
100
AcDbText
  0
TEXT
  5
6AB15
330
6AB11
100
AcDbEntity
  8
TEXT03
100
AcDbText
 10
-14.12366120967431
 20
-15.49912218597376
 30
0.0
 40
1.6
  1
" 46X46
  7
ORON
100
AcDbText
  0
TEXT
  5
6AB16
330
6AB11
100
AcDbEntity
  8
TEXT03
100
AcDbText
 10
-46.73527216034767
 20
-23.17352531844164
 30
0.0
 40
1.6
  1
     
  7
ORON
100
AcDbText
  0
TEXT
  5
6AB17
330
6AB11
100
AcDbEntity
  8
TEXT03
100
AcDbText
 10
-34.73550102463184
 20
-25.67352531844164
 30
0.0
 40
1.6
  1
"-"   
  7
ORON
100
AcDbText
  0
TEXT
  5
6AB18
330
6AB11
100
AcDbEntity
  8
TEXT03
100
AcDbText
 10
-35.87040688660897
 20
-20.67352531844164
 30
0.0
 40
1.6
  1
.    
  7
ORON
100
AcDbText
  0
ENDBLK
  5
6AB1A
330
6AB11
100
AcDbEntity
  8
0
100
AcDbBlockEnd
  0
BLOCK
  5
6AB30
330
6AB2E
100
AcDbEntity
  8
0
100
AcDbBlockBegin
  2
A$C63143A9C
 70
     0
 10
0.0
 20
0.0
 30
0.0
  3
A$C63143A9C
  1

  0
LWPOLYLINE
  5
6AB2F
330
6AB2E
100
AcDbEntity
  8
MABAT2
100
AcDbPolyline
 90
        4
 70
     1
 43
0.0
 10
-266.6242834908248
 20
201.7235664662519
 10
0.0
 20
201.7235664662519
 10
0.0
 20
0.0
 10
-266.6242834908248
 20
0.0
  0
ENDBLK
  5
6AB31
330
6AB2E
100
AcDbEntity
  8
0
100
AcDbBlockEnd
  0
ENDSEC
  0
SECTION
  2
ENTITIES
  0
INSERT
  5
3
330
2
100
AcDbEntity
  8
ASHADE
 62
     1
100
AcDbBlockReference
  2
AVE_RENDER
 10
0.0
 20
0.0
 30
0.0
1001
AVE_RENDER
1002
{
1070
     7
1000
Pref
1070
    30
1070
    20
1070
     1
1070
     0
1000

1070
    10
1070
     1
1070
    10
1040
1.0
1070
     1
1040
0.3
1040
0.7
1040
0.0
1040
10.0
1010
-1.0
1020
-1.0
1030
-1.0
1040
0.3
1070
    49
1070
     0
1070
     0
1010
1.0
1020
1.0
1030
1.0
1040
45.0
1070
     1
1070
     0
1000
WCS
1040
0.0
1070
     0
1040
10.0
1002
}
  0
INSERT
  5
E
330
2
100
AcDbEntity
  8
ASHADE
 62
     3
100
AcDbBlockReference
  2
AVE_RENDER
 10
0.0
 20
0.0
 30
0.0
1001
AVE_RENDER
1002
{
1070
     0
1000
Full Opt
1070
     0
1070
     1
1070
     1
1070
     1
1070
     0
1070
     0
1070
     0
1070
     1
1070
     1
1040
0.0001
1040
0.0001
1002
}
  0
INSERT
  5
F
330
2
100
AcDbEntity
  8
ASHADE
 62
     4
100
AcDbBlockReference
  2
AVE_RENDER
 10
0.0
 20
0.0
 30
0.0
1001
AVE_RENDER
1002
{
1070
     0
1000
Quick Opt
1070
     0
1070
     1
1070
     1
1070
     1
1070
     0
1070
     0
1070
     1
1002
}
  0
INSERT
  5
10
330
2
100
AcDbEntity
  8
ASHADE
 62
     5
100
AcDbBlockReference
  2
AVE_RENDER
 10
0.0
 20
0.0
 30
0.0
1001
AVE_RENDER
1002
{
1070
     1
1000
Scanl Opt
1070
     2
1070
     0
1070
     2
1040
2.0
1040
4.0
1070
     0
1070
     1
1070
     0
1040
0.03
1002
}
  0
INSERT
  5
11
330
2
100
AcDbEntity
  8
ASHADE
 62
     6
100
AcDbBlockReference
  2
AVE_RENDER
 10
0.0
 20
0.0
 30
0.0
1001
AVE_RENDER
1002
{
1070
     2
1000
Raytr Opt
1070
     2
1070
     0
1070
     2
1040
2.0
1040
4.0
1070
     0
1070
     1
1070
     1
1040
0.03
1070
     3
1040
0.03
1002
}
  0
INSERT
  5
12
330
2
100
AcDbEntity
  8
ASHADE
 62
     7
100
AcDbBlockReference
  2
AVE_RENDER
 10
0.0
 20
0.0
 30
0.0
1001
AVE_RENDER
1002
{
1070
     0
1000
RFile Opt
1070
     1
1070
   640
1070
   480
1070
 10000
1070
     1
1070
     8
1070
     8
1070
     0
1070
     0
1070
     0
1070
     0
1070
     0
1070
     0
1070
     0
1002
}
  0
INSERT
  5
13
330
2
100
AcDbEntity
  8
ASHADE
 62
     8
100
AcDbBlockReference
  2
AVE_RENDER
 10
0.0
 20
0.0
 30
0.0
1001
AVE_RENDER
1002
{
1070
     0
1000
Fog Opt
1070
     0
1070
     0
1040
0.0
1040
1.0
1040
0.0
1040
1.0
1010
0.5
1020
0.5
1030
0.5
1002
}
  0
INSERT
  5
14
330
2
100
AcDbEntity
  8
ASHADE
 62
     9
100
AcDbBlockReference
  2
AVE_RENDER
 10
0.0
 20
0.0
 30
0.0
1001
AVE_RENDER
1002
{
1070
     0
1000
BG Opt
1070
     0
1070
     1
1010
0.0
1020
0.0
1030
0.0
1010
1.0
1020
0.0
1030
0.0
1010
0.0
1020
1.0
1030
0.0
1010
0.0
1020
0.0
1030
1.0
1040
0.5
1040
0.33
1040
0.0
1000

1070
     1
1000

1070
     1
1070
     1
1040
1.0
1040
1.0
1040
0.0
1040
0.0
1070
     0
1002
}
  0
INSERT
  5
15
330
2
100
AcDbEntity
  8
ASHADE
 62
     1
100
AcDbBlockReference
  2
AVE_GLOBAL
 10
0.0
 20
0.0
 30
0.0
1001
AVE_MATERIAL
1002
{
1000
*GLOBAL*
1000
2
1000
Global finish.
1002
{
1002
}
1002
{
1070
    63
1002
{
1002
{
1010
-1.0
1020
-1.0
1030
-1.0
1002
}
1040
0.1000000014901161
1000

1040
0.0
1002
{
1002
}
1040
0.0
1002
{
1002
}
1040
0.0
1002
}
1002
{
1002
{
1010
-1.0
1020
-1.0
1030
-1.0
1002
}
1040
0.6999999880790711
1000

1040
0.0
1002
{
1002
}
1040
0.0
1002
{
1002
}
1040
0.0
1002
}
1002
{
1002
{
1010
-1.0
1020
-1.0
1030
-1.0
1002
}
1040
0.2000000029802322
1000

1040
0.0
1002
{
1002
}
1040
0.0
1002
{
1002
}
1040
0.0
1002
}
1002
{
1070
     0
1002
{
1070
     1
1002
{
1040
1.0
1040
1.0
1000

1040
0.0
1002
{
1002
}
1040
0.0
1002
{
1002
}
1040
0.0
1002
}
1002
}
1040
1.0
1040
0.0
1040
0.0
1002
}
1002
{
1040
1.0
1040
1.0
1000

1040
0.0
1002
{
1002
}
1040
0.0
1002
{
1002
}
1040
0.0
1002
}
1002
{
1040
0.5
1040
1.0
1000

1040
0.0
1002
{
1002
}
1040
0.0
1002
{
1002
}
1040
0.0
1002
}
1002
{
1070
     0
1040
0.0
1002
{
1002
}
1040
1.0
1002
{
1002
}
1040
0.0
1002
}
1002
{
1040
0.0
1002
{
1002
{
1010
0.0
1020
0.0
1030
0.0
1002
}
1040
1.0
1000

1040
0.0
1002
{
1002
}
1040
0.0
1002
{
1002
}
1040
0.0
1002
}
1002
}
1002
{
1002
{
1070
     1
1002
{
1040
0.0
1040
1.0
1000

1040
0.0
1002
{
1002
}
1040
0.0
1002
{
1002
}
1040
0.0
1002
}
1002
}
1040
0.0
1002
{
1002
}
1010
1.0
1020
0.0
1030
0.0
1010
0.0
1020
1.0
1030
0.0
1010
0.0
1020
0.0
1030
1.0
1070
     0
1002
}
1002
{
1002
{
1040
1.0
1040
1.0
1002
{
1070
     1
1002
{
1040
1.0
1040
1.0
1000

1040
0.0
1002
{
1002
}
1040
0.0
1002
{
1002
}
1040
0.0
1002
}
1002
}
1002
}
1070
     0
1040
0.0
1002
{
1002
}
1002
}
1002
{
1002
}
1002
}
1002
{
1071
        3
1070
     3
1070
     0
1002
{
1070
     2
1070
     0
1070
     0
1040
0.0
1002
}
1070
     0
1070
     2
1002
{
1002
}
1002
}
1002
{
1040
8030.0
1040
190.3000030517578
1040
0.3050000071525574
1040
228.0
1040
545.0
1040
14.0
1040
17.39999961853027
1040
0.4560000002384186
1002
}
1002
}
  0
MTEXT
  5
1A
330
2
100
AcDbEntity
  8
pit233
100
AcDbMText
 10
-61720198.69452241
 20
-39500530.05334247
 30
0.0
 40
0.18
 41
0.0
 71
     1
 72
     1
  1

 11
0.7423872808554428
 21
-0.669970988345064
 31
0.0
 73
     1
 44
1.0
  0
MTEXT
  5
1D
330
2
100
AcDbEntity
  8
pitdimh
100
AcDbMText
 10
5066.46180973722
 20
-8618.08297487448
 30
0.0
 40
0.4499999999999999
 41
0.0
 71
     1
 72
     1
  1

 11
0.7423872808554428
 21
-0.669970988345064
 31
0.0
 73
     1
 44
1.0
  0
MTEXT
  5
1F
330
2
100
AcDbEntity
  8
pitdimh
100
AcDbMText
 10
3756.750247565642
 20
-7694.416054845856
 30
0.0
 40
0.4499999999999999
 41
0.0
 71
     9
 72
     1
  1

 11
0.7423872808554428
 21
-0.669970988345064
 31
0.0
 73
     1
 44
1.0
  0
MTEXT
  5
20
330
2
100
AcDbEntity
  8
0
100
AcDbMText
 10
2899.579316941633
 20
-5252.806840666637
 30
0.0
 40
0.4499999999999999
 41
242.2384999999999
 71
     9
 72
     1
  1

 11
0.7423872808554428
 21
-0.669970988345064
 31
0.0
 73
     1
 44
1.0
  0
MTEXT
  5
21
330
2
100
AcDbEntity
  8
0
100
AcDbMText
 10
3555.607524832323
 20
-7814.189852298305
 30
0.0
 40
37.49999999999999
 41
0.0
 71
     9
 72
     1
  1

  7
MONOSI
 11
0.7423872808554428
 21
-0.669970988345064
 31
0.0
 73
     1
 44
1.0
  0
MTEXT
  5
2CD
330
2
100
AcDbEntity
  8
UP
 62
     4
100
AcDbMText
 10
-6452.242417971778
 20
-6744.128641248622
 30
0.0
 40
15.0
 41
0.0
 71
     9
 72
     1
  1

  7
MONOSI
 73
     1
 44
1.0
  0
MTEXT
  5
92A
330
2
100
AcDbEntity
  8
0
 62
     4
100
AcDbMText
 10
-9081.245691365854
 20
-8251.326955003403
 30
0.0
 40
20.0
 41
0.0
 71
     9
 72
     1
  1

  7
MONOSI
 73
     1
 44
1.0
  0
MTEXT
  5
124E1
330
2
100
AcDbEntity
  8
0
 62
     4
100
AcDbMText
 10
-5004.643845897749
 20
-5871.356187291232
 30
0.0
 40
20.0
 41
0.0
 71
     9
 72
     1
  1

  7
MONOSI
 73
     1
 44
1.0
  0
INSERT
  5
1439D
330
2
100
AcDbEntity
  8
DCA_INFO
100
AcDbBlockReference
 66
     1
  2
PROJ_NAM
 10
199963.0558105743
 20
-708765.3677992169
 30
0.0
 50
31.70789242611182
1001
SDI_SETUP
1070
   305
1040
250.0
1070
   304
1040
50.0
1070
   130
1000
None
1070
   230
1070
     0
1070
   233
1070
     0
1070
   234
1070
     1
1070
   134
1000
None
1070
   330
1040
3.0
1070
   331
1040
50.0
1070
   332
1040
25.0
1070
   333
1040
25.0
1070
   334
1040
25.0
1070
   335
1040
707.0
1070
   336
1040
1000.0
1070
   231
1070
     1
1070
   232
1070
     0
  0
ATTRIB
  5
1439E
330
1439D
100
AcDbEntity
  8
0
100
AcDbText
 10
199963.0720412761
 20
-708765.3577025626
 30
0.0
 40
0.2
  1
5909
 50
31.70789242611182
 72
     1
 11
199963.3677742591
 21
-708765.1749978693
 31
0.0
100
AcDbAttribute
  2
NAME
 70
     1
  0
SEQEND
  5
1439F
330
1439D
100
AcDbEntity
  8
DCA_INFO
  0
INSERT
  5
1454E
330
2
100
AcDbEntity
  8
DCA_INFO
100
AcDbBlockReference
 66
     1
  2
PROJ_NAM
 10
199963.0558105743
 20
-708765.3677992169
 30
0.0
 50
31.70789242611182
1001
SDI_SETUP
1070
   305
1040
250.0
1070
   304
1040
50.0
1070
   130
1000
None
1070
   230
1070
     0
1070
   233
1070
     0
1070
   234
1070
     1
1070
   134
1000
None
1070
   330
1040
3.0
1070
   331
1040
50.0
1070
   332
1040
25.0
1070
   333
1040
25.0
1070
   334
1040
25.0
1070
   335
1040
707.0
1070
   336
1040
1000.0
1070
   231
1070
     1
1070
   232
1070
     0
  0
ATTRIB
  5
1454F
330
1454E
100
AcDbEntity
  8
0
100
AcDbText
 10
199963.0639390026
 20
-708765.3627081706
 30
0.0
 40
0.2
  1
5304
 50
31.70789242611182
 72
     1
 11
199963.3677742591
 21
-708765.1749978693
 31
0.0
100
AcDbAttribute
  2
NAME
 70
     1
  0
SEQEND
  5
14550
330
1454E
100
AcDbEntity
  8
DCA_INFO
  0
INSERT
  5
1457B
330
2
100
AcDbEntity
  8
DCA_INFO
100
AcDbBlockReference
 66
     1
  2
PROJ_NAM
 10
15518.46501974822
 20
-73823.83328587293
 30
0.0
 41
0.0999999999730819
 42
0.0999999999539796
 43
0.1
 50
31.70789239687185
1001
SDI_SETUP
1070
   305
1040
250.0
1070
   304
1040
50.0
1070
   130
1000
None
1070
   230
1070
     0
1070
   233
1070
     0
1070
   234
1070
     1
1070
   134
1000
None
1070
   330
1040
3.0
1070
   331
1040
50.0
1070
   332
1040
25.0
1070
   333
1040
25.0
1070
   334
1040
25.0
1070
   335
1040
707.0
1070
   336
1040
1000.0
1070
   231
1070
     1
1070
   232
1070
     0
  0
ATTRIB
  5
1457C
330
1457B
100
AcDbEntity
  8
0
100
AcDbText
 10
15518.49054452527
 20
-73823.81750966374
 30
0.0
 40
0.02
  1
P
 50
31.70789242611182
 72
     1
 11
15518.49621611673
 21
-73823.81400573811
 31
0.0
100
AcDbAttribute
  2
NAME
 70
     1
  0
SEQEND
  5
1457D
330
1457B
100
AcDbEntity
  8
DCA_INFO
  0
INSERT
  5
1457E
330
2
100
AcDbEntity
  8
DCA_INFO
100
AcDbBlockReference
 66
     1
  2
PROJ_NAM
 10
-6507.364342549265
 20
-28659.01171070778
 30
0.0
 41
0.0999999999730819
 42
0.0999999999539796
 43
0.1
 50
31.70789239687185
1001
SDI_SETUP
1070
   305
1040
250.0
1070
   304
1040
50.0
1070
   130
1000
None
1070
   230
1070
     0
1070
   233
1070
     0
1070
   234
1070
     1
1070
   134
1000
None
1070
   330
1040
3.0
1070
   331
1040
50.0
1070
   332
1040
25.0
1070
   333
1040
25.0
1070
   334
1040
25.0
1070
   335
1040
707.0
1070
   336
1040
1000.0
1070
   231
1070
     1
1070
   232
1070
     0
  0
ATTRIB
  5
1457F
330
1457E
100
AcDbEntity
  8
0
100
AcDbText
 10
-6507.362719479058
 20
-28659.01070104231
 30
0.0
 40
0.02
  1
3966
 50
31.70789242611182
 72
     1
 11
-6507.333146180755
 21
-28658.99243057296
 31
0.0
100
AcDbAttribute
  2
NAME
 70
     1
  0
SEQEND
  5
14580
330
1457E
100
AcDbEntity
  8
DCA_INFO
  0
INSERT
  5
14581
330
2
100
AcDbEntity
  8
DCA_INFO
100
AcDbBlockReference
 66
     1
  2
PROJ_NAM
 10
-6507.364342549265
 20
-28659.01171070778
 30
0.0
 41
0.0999999999730819
 42
0.0999999999539796
 43
0.1
 50
31.70789239687185
  0
ATTRIB
  5
14582
330
14581
100
AcDbEntity
  8
0
100
AcDbText
 10
-6507.362719479058
 20
-28659.01070104231
 30
0.0
 40
0.02
  1
3256
 50
31.70789242611182
 72
     1
 11
-6507.333146180755
 21
-28658.99243057296
 31
0.0
100
AcDbAttribute
  2
NAME
 70
     1
  0
SEQEND
  5
14583
330
14581
100
AcDbEntity
  8
DCA_INFO
  0
INSERT
  5
14584
330
2
100
AcDbEntity
  8
DCA_INFO
100
AcDbBlockReference
 66
     1
  2
PROJ_NAM
 10
-6507.364342549265
 20
-28659.01171070778
 30
0.0
 41
0.0999999999730819
 42
0.0999999999539796
 43
0.1
 50
31.70789239687185
  0
ATTRIB
  5
14585
330
14584
100
AcDbEntity
  8
0
100
AcDbText
 10
-6507.363124592732
 20
-28659.01095132271
 30
0.0
 40
0.02
  1
2982
 50
31.70789242611182
 72
     1
 11
-6507.333146180755
 21
-28658.99243057296
 31
0.0
100
AcDbAttribute
  2
NAME
 70
     1
  0
SEQEND
  5
14586
330
14584
100
AcDbEntity
  8
DCA_INFO
  0
INSERT
  5
14587
330
2
100
AcDbEntity
  8
DCA_INFO
100
AcDbBlockReference
 66
     1
  2
PROJ_NAM
 10
-6507.364342549265
 20
-28659.01171070778
 30
0.0
 41
0.0999999999730819
 42
0.0999999999539796
 43
0.1
 50
31.70789239687185
1001
SDI_SETUP
1070
   305
1040
250.0
1070
   304
1040
50.0
1070
   130
1000
None
1070
   230
1070
     0
1070
   233
1070
     0
1070
   234
1070
     1
1070
   134
1000
None
1070
   330
1040
3.0
1070
   331
1040
50.0
1070
   332
1040
25.0
1070
   333
1040
25.0
1070
   334
1040
25.0
1070
   335
1040
707.0
1070
   336
1040
1000.0
1070
   231
1070
     1
1070
   232
1070
     0
  0
ATTRIB
  5
14588
330
14587
100
AcDbEntity
  8
0
100
AcDbText
 10
-6507.363124592732
 20
-28659.01095132271
 30
0.0
 40
0.02
  1
2982
 50
31.70789242611182
 72
     1
 11
-6507.333146180755
 21
-28658.99243057296
 31
0.0
100
AcDbAttribute
  2
NAME
 70
     1
  0
SEQEND
  5
14589
330
14587
100
AcDbEntity
  8
DCA_INFO
  0
INSERT
  5
1458A
330
2
100
AcDbEntity
  8
DCA_INFO
100
AcDbBlockReference
 66
     1
  2
PROJ_NAM
 10
-6507.364342549265
 20
-28659.01171070778
 30
0.0
 41
0.0999999999730819
 42
0.0999999999539796
 43
0.1
 50
31.70789239687185
1001
SDI_SETUP
1070
   305
1040
250.0
1070
   304
1040
50.0
1070
   130
1000
None
1070
   230
1070
     0
1070
   233
1070
     0
1070
   234
1070
     1
1070
   134
1000
None
1070
   330
1040
3.0
1070
   331
1040
50.0
1070
   332
1040
25.0
1070
   333
1040
25.0
1070
   334
1040
25.0
1070
   335
1040
707.0
1070
   336
1040
1000.0
1070
   231
1070
     1
1070
   232
1070
     0
  0
ATTRIB
  5
1458B
330
1458A
100
AcDbEntity
  8
0
100
AcDbText
 10
-6507.361504138031
 20
-28659.0099502011
 30
0.0
 40
0.02
  1
1365
 50
31.70789242611182
 72
     1
 11
-6507.333146180755
 21
-28658.99243057296
 31
0.0
100
AcDbAttribute
  2
NAME
 70
     1
  0
SEQEND
  5
1458C
330
1458A
100
AcDbEntity
  8
DCA_INFO
  0
INSERT
  5
1458D
330
2
100
AcDbEntity
  8
DCA_INFO
100
AcDbBlockReference
 66
     1
  2
PROJ_NAM
 10
-6507.364342549265
 20
-28659.01171070778
 30
0.0
 41
0.0999999999730819
 42
0.0999999999539796
 43
0.1
 50
31.70789239687185
1001
SDI_SETUP
1070
   305
1040
1250.0
1070
   304
1040
1.0
1070
   130
1000
FRACTION
1070
   230
1070
     0
1070
   233
1070
     0
1070
   234
1070
     1
1070
   134
1000
None
1070
   330
1040
3.0
1070
   331
1040
50.0
1070
   332
1040
25.0
1070
   333
1040
25.0
1070
   334
1040
25.0
1070
   335
1040
594.0
1070
   336
1040
841.0
1070
   231
1070
     0
1070
   232
1070
     0
  0
ATTRIB
  5
1458E
330
1458D
100
AcDbEntity
  8
0
100
AcDbText
 10
-6507.361504138031
 20
-28659.0099502011
 30
0.0
 40
0.02
  1
1480
 50
31.70789242611182
 72
     1
 11
-6507.333146180755
 21
-28658.99243057296
 31
0.0
100
AcDbAttribute
  2
NAME
 70
     1
  0
SEQEND
  5
1458F
330
1458D
100
AcDbEntity
  8
DCA_INFO
  0
INSERT
  5
14590
330
2
100
AcDbEntity
  8
DCA_INFO
100
AcDbBlockReference
 66
     1
  2
PROJ_NAM
 10
-6526.399040967402
 20
-28645.47923686388
 30
0.0
 41
0.0999999999730819
 42
0.0999999999539796
 43
0.1
 50
31.70789239687185
1001
SDI_SETUP
1070
   305
1040
250.0
1070
   304
1040
50.0
1070
   130
1000
None
1070
   230
1070
     0
1070
   233
1070
     0
1070
   234
1070
     1
1070
   134
1000
None
1070
   330
1040
3.0
1070
   331
1040
50.0
1070
   332
1040
25.0
1070
   333
1040
25.0
1070
   334
1040
25.0
1070
   335
1040
707.0
1070
   336
1040
1000.0
1070
   231
1070
     1
1070
   232
1070
     0
  0
ATTRIB
  5
14591
330
14590
100
AcDbEntity
  8
0
100
AcDbText
 10
-6526.396202556168
 20
-28645.47747635733
 30
0.0
 40
0.02
  1
4013
 50
31.70789242611182
 72
     1
 11
-6526.367844598893
 21
-28645.45995672918
 31
0.0
100
AcDbAttribute
  2
NAME
 70
     1
  0
SEQEND
  5
14592
330
14590
100
AcDbEntity
  8
DCA_INFO
  0
INSERT
  5
14593
330
2
100
AcDbEntity
  8
DCA_INFO
100
AcDbBlockReference
 66
     1
  2
PROJ_NAM
 10
-6526.399040967402
 20
-28645.47923686388
 30
0.0
 41
0.0999999999730819
 42
0.0999999999539796
 43
0.1
 50
31.70789239687185
1001
SDI_SETUP
1070
   305
1040
250.0
1070
   304
1040
50.0
1070
   130
1000
None
1070
   230
1070
     0
1070
   233
1070
     0
1070
   234
1070
     1
1070
   134
1000
None
1070
   330
1040
3.0
1070
   331
1040
50.0
1070
   332
1040
25.0
1070
   333
1040
25.0
1070
   334
1040
25.0
1070
   335
1040
707.0
1070
   336
1040
1000.0
1070
   231
1070
     1
1070
   232
1070
     0
  0
ATTRIB
  5
14594
330
14593
100
AcDbEntity
  8
0
100
AcDbText
 10
-6526.397823010869
 20
-28645.47847747893
 30
0.0
 40
0.02
  1
2307
 50
31.70789242611182
 72
     1
 11
-6526.367844598893
 21
-28645.45995672918
 31
0.0
100
AcDbAttribute
  2
NAME
 70
     1
  0
SEQEND
  5
14595
330
14593
100
AcDbEntity
  8
DCA_INFO
  0
INSERT
  5
14596
330
2
100
AcDbEntity
  8
DCA_INFO
100
AcDbBlockReference
 66
     1
  2
PROJ_NAM
 10
-6526.399040967402
 20
-28645.47923686388
 30
0.0
 41
0.0999999999730819
 42
0.0999999999539796
 43
0.1
 50
31.70789239687185
1001
SDI_SETUP
1070
   305
1040
250.0
1070
   304
1040
100.0
1070
   130
1000
None
1070
   230
1070
     1
1070
   233
1070
     0
1070
   234
1070
     1
1070
   134
1000
None
1070
   330
1040
0.000002
1070
   331
1040
0.00005
1070
   332
1040
0.000025
1070
   333
1040
0.000025
1070
   334
1040
0.000025
1070
   335
1040
420.0
1070
   336
1040
594.0
1070
   231
1070
     1
1070
   232
1070
     0
1070
   133
1000
72
  0
ATTRIB
  5
14597
330
14596
100
AcDbEntity
  8
0
100
AcDbText
 10
-6526.395797442493
 20
-28645.47722607692
 30
0.0
 40
0.02
  1
1586
 50
31.70789242611182
 72
     1
 11
-6526.367844598893
 21
-28645.45995672918
 31
0.0
100
AcDbAttribute
  2
NAME
 70
     1
  0
SEQEND
  5
14598
330
14596
100
AcDbEntity
  8
DCA_INFO
  0
INSERT
  5
14599
330
2
100
AcDbEntity
  8
0
100
AcDbBlockReference
 66
     1
  2
TR_CONF
 10
-6526.399040967402
 20
-28645.47923686388
 30
0.0
 41
0.0999999999730819
 42
0.0999999999539796
 43
0.1
 50
31.70789239687185
1001
TR_DXF
1040
1.25
1040
200.0
1040
2.1
1040
0.7
1040
1.8
1040
3.0
1040
3.0
1040
1.5
1040
1250.0
1040
1.0
1040
0.02
1040
0.0
1040
0.0
1040
0.0
1040
3.0
1040
0.001
1000

1000

  0
SEQEND
  5
1459A
330
14599
100
AcDbEntity
  8
0
  0
INSERT
  5
1459B
330
2
100
AcDbEntity
  8
DCA_INFO
100
AcDbBlockReference
 66
     1
  2
PROJ_NAM
 10
-19861.67288780326
 20
-257744.9953517214
 30
0.0
 50
31.70789242611182
1001
SDI_SETUP
1070
   305
1040
250.0
1070
   304
1040
50.0
1070
   130
1000
None
1070
   230
1070
     0
1070
   233
1070
     0
1070
   234
1070
     1
1070
   134
1000
None
1070
   330
1040
3.0
1070
   331
1040
50.0
1070
   332
1040
25.0
1070
   333
1040
25.0
1070
   334
1040
25.0
1070
   335
1040
707.0
1070
   336
1040
1000.0
1070
   231
1070
     1
1070
   232
1070
     0
  0
ATTRIB
  5
1459C
330
1459B
100
AcDbEntity
  8
0
100
AcDbText
 10
-19861.66070823825
 20
-257744.987757871
 30
0.0
 40
0.2
  1
4738
 50
31.70789242611182
 72
     1
 11
-19861.36092411848
 21
-257744.8025503735
 31
0.0
100
AcDbAttribute
  2
NAME
 70
     1
  0
SEQEND
  5
1459D
330
1459B
100
AcDbEntity
  8
DCA_INFO
  0
INSERT
  5
1459E
330
2
100
AcDbEntity
  8
DCA_INFO
100
AcDbBlockReference
 66
     1
  2
PROJ_NAM
 10
-5219.713537885052
 20
-3574.443554093461
 30
0.0
 50
27.26889038819678
1001
SDI_SETUP
1070
   305
1040
250.0
1070
   304
1040
50.0
1070
   130
1000
None
1070
   230
1070
     0
1070
   233
1070
     0
1070
   234
1070
     1
1070
   134
1000
None
1070
   330
1040
3.0
1070
   331
1040
50.0
1070
   332
1040
25.0
1070
   333
1040
25.0
1070
   334
1040
25.0
1070
   335
1040
707.0
1070
   336
1040
1000.0
1070
   231
1070
     1
1070
   232
1070
     0
  0
ATTRIB
  5
1459F
330
1459E
100
AcDbEntity
  8
0
100
AcDbText
 10
-5219.683876325066
 20
-3574.428198702658
 30
0.0
 40
0.2
  1
2153
 50
27.26889038819678
 72
     1
 11
-5219.387587614272
 21
-3574.275476369756
 31
0.0
100
AcDbAttribute
  2
NAME
 70
     1
  0
SEQEND
  5
145A0
330
1459E
100
AcDbEntity
  8
DCA_INFO
  0
TEXT
  5
145A1
330
2
100
AcDbEntity
  8
CTACK
100
AcDbText
 10
-5122.608618858245
 20
-3101.365527215409
 30
0.0
 40
0.4
  1
 
 50
27.26889038819678
  7
SIVAN
 72
     2
 11
-5122.28693397224
 21
-3101.199714396829
 31
0.0
100
AcDbText
  0
INSERT
  5
145A2
330
2
100
AcDbEntity
  8
DCA_INFO
100
AcDbBlockReference
 66
     1
  2
PROJ_NAM
 10
15518.46501974822
 20
-73823.83328587293
 30
0.0
 41
0.0999999999730819
 42
0.0999999999539796
 43
0.1
 50
31.70789239687185
1001
SDI_SETUP
1070
   305
1040
250.0
1070
   304
1040
50.0
1070
   130
1000
None
1070
   230
1070
     0
1070
   233
1070
     0
1070
   234
1070
     1
1070
   134
1000
None
1070
   330
1040
3.0
1070
   331
1040
50.0
1070
   332
1040
25.0
1070
   333
1040
25.0
1070
   334
1040
25.0
1070
   335
1040
707.0
1070
   336
1040
1000.0
1070
   231
1070
     1
1070
   232
1070
     0
  0
ATTRIB
  5
145A3
330
145A2
100
AcDbEntity
  8
0
100
AcDbText
 10
15518.49054452527
 20
-73823.81750966374
 30
0.0
 40
0.02
  1
P
 50
31.70789242611182
 72
     1
 11
15518.49621611673
 21
-73823.81400573811
 31
0.0
100
AcDbAttribute
  2
NAME
 70
     1
  0
SEQEND
  5
145A4
330
145A2
100
AcDbEntity
  8
DCA_INFO
  0
INSERT
  5
145A5
330
2
100
AcDbEntity
  8
DCA_INFO
100
AcDbBlockReference
 66
     1
  2
PROJ_NAM
 10
-6507.364342549265
 20
-28659.01171070778
 30
0.0
 41
0.0999999999730819
 42
0.0999999999539796
 43
0.1
 50
31.70789239687185
1001
SDI_SETUP
1070
   305
1040
250.0
1070
   304
1040
50.0
1070
   130
1000
None
1070
   230
1070
     0
1070
   233
1070
     0
1070
   234
1070
     1
1070
   134
1000
None
1070
   330
1040
3.0
1070
   331
1040
50.0
1070
   332
1040
25.0
1070
   333
1040
25.0
1070
   334
1040
25.0
1070
   335
1040
707.0
1070
   336
1040
1000.0
1070
   231
1070
     1
1070
   232
1070
     0
  0
ATTRIB
  5
145A6
330
145A5
100
AcDbEntity
  8
0
100
AcDbText
 10
-6507.362719479058
 20
-28659.01070104231
 30
0.0
 40
0.02
  1
3966
 50
31.70789242611182
 72
     1
 11
-6507.333146180755
 21
-28658.99243057296
 31
0.0
100
AcDbAttribute
  2
NAME
 70
     1
  0
SEQEND
  5
145A7
330
145A5
100
AcDbEntity
  8
DCA_INFO
  0
INSERT
  5
145A8
330
2
100
AcDbEntity
  8
DCA_INFO
100
AcDbBlockReference
 66
     1
  2
PROJ_NAM
 10
-6507.364342549265
 20
-28659.01171070778
 30
0.0
 41
0.0999999999730819
 42
0.0999999999539796
 43
0.1
 50
31.70789239687185
  0
ATTRIB
  5
145A9
330
145A8
100
AcDbEntity
  8
0
100
AcDbText
 10
-6507.362719479058
 20
-28659.01070104231
 30
0.0
 40
0.02
  1
3256
 50
31.70789242611182
 72
     1
 11
-6507.333146180755
 21
-28658.99243057296
 31
0.0
100
AcDbAttribute
  2
NAME
 70
     1
  0
SEQEND
  5
145AA
330
145A8
100
AcDbEntity
  8
DCA_INFO
  0
INSERT
  5
145AB
330
2
100
AcDbEntity
  8
DCA_INFO
100
AcDbBlockReference
 66
     1
  2
PROJ_NAM
 10
-6507.364342549265
 20
-28659.01171070778
 30
0.0
 41
0.0999999999730819
 42
0.0999999999539796
 43
0.1
 50
31.70789239687185
  0
ATTRIB
  5
145AC
330
145AB
100
AcDbEntity
  8
0
100
AcDbText
 10
-6507.363124592732
 20
-28659.01095132271
 30
0.0
 40
0.02
  1
2982
 50
31.70789242611182
 72
     1
 11
-6507.333146180755
 21
-28658.99243057296
 31
0.0
100
AcDbAttribute
  2
NAME
 70
     1
  0
SEQEND
  5
145AD
330
145AB
100
AcDbEntity
  8
DCA_INFO
  0
INSERT
  5
145AE
330
2
100
AcDbEntity
  8
DCA_INFO
100
AcDbBlockReference
 66
     1
  2
PROJ_NAM
 10
-6507.364342549265
 20
-28659.01171070778
 30
0.0
 41
0.0999999999730819
 42
0.0999999999539796
 43
0.1
 50
31.70789239687185
1001
SDI_SETUP
1070
   305
1040
250.0
1070
   304
1040
50.0
1070
   130
1000
None
1070
   230
1070
     0
1070
   233
1070
     0
1070
   234
1070
     1
1070
   134
1000
None
1070
   330
1040
3.0
1070
   331
1040
50.0
1070
   332
1040
25.0
1070
   333
1040
25.0
1070
   334
1040
25.0
1070
   335
1040
707.0
1070
   336
1040
1000.0
1070
   231
1070
     1
1070
   232
1070
     0
  0
ATTRIB
  5
145AF
330
145AE
100
AcDbEntity
  8
0
100
AcDbText
 10
-6507.363124592732
 20
-28659.01095132271
 30
0.0
 40
0.02
  1
2982
 50
31.70789242611182
 72
     1
 11
-6507.333146180755
 21
-28658.99243057296
 31
0.0
100
AcDbAttribute
  2
NAME
 70
     1
  0
SEQEND
  5
145B0
330
145AE
100
AcDbEntity
  8
DCA_INFO
  0
INSERT
  5
145B1
330
2
100
AcDbEntity
  8
DCA_INFO
100
AcDbBlockReference
 66
     1
  2
PROJ_NAM
 10
-6507.364342549265
 20
-28659.01171070778
 30
0.0
 41
0.0999999999730819
 42
0.0999999999539796
 43
0.1
 50
31.70789239687185
1001
SDI_SETUP
1070
   305
1040
250.0
1070
   304
1040
50.0
1070
   130
1000
None
1070
   230
1070
     0
1070
   233
1070
     0
1070
   234
1070
     1
1070
   134
1000
None
1070
   330
1040
3.0
1070
   331
1040
50.0
1070
   332
1040
25.0
1070
   333
1040
25.0
1070
   334
1040
25.0
1070
   335
1040
707.0
1070
   336
1040
1000.0
1070
   231
1070
     1
1070
   232
1070
     0
  0
ATTRIB
  5
145B2
330
145B1
100
AcDbEntity
  8
0
100
AcDbText
 10
-6507.361504138031
 20
-28659.0099502011
 30
0.0
 40
0.02
  1
1365
 50
31.70789242611182
 72
     1
 11
-6507.333146180755
 21
-28658.99243057296
 31
0.0
100
AcDbAttribute
  2
NAME
 70
     1
  0
SEQEND
  5
145B3
330
145B1
100
AcDbEntity
  8
DCA_INFO
  0
INSERT
  5
145B4
330
2
100
AcDbEntity
  8
DCA_INFO
100
AcDbBlockReference
 66
     1
  2
PROJ_NAM
 10
-6507.364342549265
 20
-28659.01171070778
 30
0.0
 41
0.0999999999730819
 42
0.0999999999539796
 43
0.1
 50
31.70789239687185
1001
SDI_SETUP
1070
   305
1040
1250.0
1070
   304
1040
1.0
1070
   130
1000
FRACTION
1070
   230
1070
     0
1070
   233
1070
     0
1070
   234
1070
     1
1070
   134
1000
None
1070
   330
1040
3.0
1070
   331
1040
50.0
1070
   332
1040
25.0
1070
   333
1040
25.0
1070
   334
1040
25.0
1070
   335
1040
594.0
1070
   336
1040
841.0
1070
   231
1070
     0
1070
   232
1070
     0
  0
ATTRIB
  5
145B5
330
145B4
100
AcDbEntity
  8
0
100
AcDbText
 10
-6507.361504138031
 20
-28659.0099502011
 30
0.0
 40
0.02
  1
1480
 50
31.70789242611182
 72
     1
 11
-6507.333146180755
 21
-28658.99243057296
 31
0.0
100
AcDbAttribute
  2
NAME
 70
     1
  0
SEQEND
  5
145B6
330
145B4
100
AcDbEntity
  8
DCA_INFO
  0
INSERT
  5
145B7
330
2
100
AcDbEntity
  8
DCA_INFO
100
AcDbBlockReference
 66
     1
  2
PROJ_NAM
 10
-6526.399040967402
 20
-28645.47923686388
 30
0.0
 41
0.0999999999730819
 42
0.0999999999539796
 43
0.1
 50
31.70789239687185
1001
SDI_SETUP
1070
   305
1040
250.0
1070
   304
1040
50.0
1070
   130
1000
None
1070
   230
1070
     0
1070
   233
1070
     0
1070
   234
1070
     1
1070
   134
1000
None
1070
   330
1040
3.0
1070
   331
1040
50.0
1070
   332
1040
25.0
1070
   333
1040
25.0
1070
   334
1040
25.0
1070
   335
1040
707.0
1070
   336
1040
1000.0
1070
   231
1070
     1
1070
   232
1070
     0
  0
ATTRIB
  5
145B8
330
145B7
100
AcDbEntity
  8
0
100
AcDbText
 10
-6526.396202556168
 20
-28645.47747635733
 30
0.0
 40
0.02
  1
4013
 50
31.70789242611182
 72
     1
 11
-6526.367844598893
 21
-28645.45995672918
 31
0.0
100
AcDbAttribute
  2
NAME
 70
     1
  0
SEQEND
  5
145B9
330
145B7
100
AcDbEntity
  8
DCA_INFO
  0
INSERT
  5
145BA
330
2
100
AcDbEntity
  8
DCA_INFO
100
AcDbBlockReference
 66
     1
  2
PROJ_NAM
 10
-6526.399040967402
 20
-28645.47923686388
 30
0.0
 41
0.0999999999730819
 42
0.0999999999539796
 43
0.1
 50
31.70789239687185
1001
SDI_SETUP
1070
   305
1040
250.0
1070
   304
1040
50.0
1070
   130
1000
None
1070
   230
1070
     0
1070
   233
1070
     0
1070
   234
1070
     1
1070
   134
1000
None
1070
   330
1040
3.0
1070
   331
1040
50.0
1070
   332
1040
25.0
1070
   333
1040
25.0
1070
   334
1040
25.0
1070
   335
1040
707.0
1070
   336
1040
1000.0
1070
   231
1070
     1
1070
   232
1070
     0
  0
ATTRIB
  5
145BB
330
145BA
100
AcDbEntity
  8
0
100
AcDbText
 10
-6526.397823010869
 20
-28645.47847747893
 30
0.0
 40
0.02
  1
2307
 50
31.70789242611182
 72
     1
 11
-6526.367844598893
 21
-28645.45995672918
 31
0.0
100
AcDbAttribute
  2
NAME
 70
     1
  0
SEQEND
  5
145BC
330
145BA
100
AcDbEntity
  8
DCA_INFO
  0
INSERT
  5
145BD
330
2
100
AcDbEntity
  8
DCA_INFO
100
AcDbBlockReference
 66
     1
  2
PROJ_NAM
 10
-6526.399040967402
 20
-28645.47923686388
 30
0.0
 41
0.0999999999730819
 42
0.0999999999539796
 43
0.1
 50
31.70789239687185
1001
SDI_SETUP
1070
   305
1040
250.0
1070
   304
1040
100.0
1070
   130
1000
None
1070
   230
1070
     1
1070
   233
1070
     0
1070
   234
1070
     1
1070
   134
1000
None
1070
   330
1040
0.000002
1070
   331
1040
0.00005
1070
   332
1040
0.000025
1070
   333
1040
0.000025
1070
   334
1040
0.000025
1070
   335
1040
420.0
1070
   336
1040
594.0
1070
   231
1070
     1
1070
   232
1070
     0
1070
   133
1000
72
  0
ATTRIB
  5
145BE
330
145BD
100
AcDbEntity
  8
0
100
AcDbText
 10
-6526.395797442493
 20
-28645.47722607692
 30
0.0
 40
0.02
  1
1586
 50
31.70789242611182
 72
     1
 11
-6526.367844598893
 21
-28645.45995672918
 31
0.0
100
AcDbAttribute
  2
NAME
 70
     1
  0
SEQEND
  5
145BF
330
145BD
100
AcDbEntity
  8
DCA_INFO
  0
INSERT
  5
14EBB
330
2
100
AcDbEntity
  8
pitDCA_INFO
100
AcDbBlockReference
 66
     1
  2
PROJ_NAM
 10
199963.0558105743
 20
-708765.3677992169
 30
0.0
 50
31.70789242611182
1001
SDI_SETUP
1070
   305
1040
250.0
1070
   304
1040
50.0
1070
   130
1000
None
1070
   230
1070
     0
1070
   233
1070
     0
1070
   234
1070
     1
1070
   134
1000
None
1070
   330
1040
3.0
1070
   331
1040
50.0
1070
   332
1040
25.0
1070
   333
1040
25.0
1070
   334
1040
25.0
1070
   335
1040
707.0
1070
   336
1040
1000.0
1070
   231
1070
     1
1070
   232
1070
     0
  0
ATTRIB
  5
14EBC
330
14EBB
100
AcDbEntity
  8
0
100
AcDbText
 10
199963.0720412761
 20
-708765.3577025626
 30
0.0
 40
0.2
  1
5909
 50
31.70789242611182
 72
     1
 11
199963.3677742591
 21
-708765.1749978693
 31
0.0
100
AcDbAttribute
  2
NAME
 70
     1
  0
SEQEND
  5
14EBD
330
14EBB
100
AcDbEntity
  8
pitDCA_INFO
  0
INSERT
  5
1506C
330
2
100
AcDbEntity
  8
pitDCA_INFO
100
AcDbBlockReference
 66
     1
  2
PROJ_NAM
 10
199963.0558105743
 20
-708765.3677992169
 30
0.0
 50
31.70789242611182
1001
SDI_SETUP
1070
   305
1040
250.0
1070
   304
1040
50.0
1070
   130
1000
None
1070
   230
1070
     0
1070
   233
1070
     0
1070
   234
1070
     1
1070
   134
1000
None
1070
   330
1040
3.0
1070
   331
1040
50.0
1070
   332
1040
25.0
1070
   333
1040
25.0
1070
   334
1040
25.0
1070
   335
1040
707.0
1070
   336
1040
1000.0
1070
   231
1070
     1
1070
   232
1070
     0
  0
ATTRIB
  5
1506D
330
1506C
100
AcDbEntity
  8
0
100
AcDbText
 10
199963.0639390026
 20
-708765.3627081706
 30
0.0
 40
0.2
  1
5304
 50
31.70789242611182
 72
     1
 11
199963.3677742591
 21
-708765.1749978693
 31
0.0
100
AcDbAttribute
  2
NAME
 70
     1
  0
SEQEND
  5
1506E
330
1506C
100
AcDbEntity
  8
pitDCA_INFO
  0
INSERT
  5
15099
330
2
100
AcDbEntity
  8
pitDCA_INFO
100
AcDbBlockReference
 66
     1
  2
PROJ_NAM
 10
15518.46501974822
 20
-73823.83328587293
 30
0.0
 41
0.0999999999730819
 42
0.0999999999539796
 43
0.1
 50
31.70789239687185
1001
SDI_SETUP
1070
   305
1040
250.0
1070
   304
1040
50.0
1070
   130
1000
None
1070
   230
1070
     0
1070
   233
1070
     0
1070
   234
1070
     1
1070
   134
1000
None
1070
   330
1040
3.0
1070
   331
1040
50.0
1070
   332
1040
25.0
1070
   333
1040
25.0
1070
   334
1040
25.0
1070
   335
1040
707.0
1070
   336
1040
1000.0
1070
   231
1070
     1
1070
   232
1070
     0
  0
ATTRIB
  5
1509A
330
15099
100
AcDbEntity
  8
0
100
AcDbText
 10
15518.49054452527
 20
-73823.81750966374
 30
0.0
 40
0.02
  1
P
 50
31.70789242611182
 72
     1
 11
15518.49621611673
 21
-73823.81400573811
 31
0.0
100
AcDbAttribute
  2
NAME
 70
     1
  0
SEQEND
  5
1509B
330
15099
100
AcDbEntity
  8
pitDCA_INFO
  0
INSERT
  5
1509C
330
2
100
AcDbEntity
  8
pitDCA_INFO
100
AcDbBlockReference
 66
     1
  2
PROJ_NAM
 10
-6507.364342549265
 20
-28659.01171070778
 30
0.0
 41
0.0999999999730819
 42
0.0999999999539796
 43
0.1
 50
31.70789239687185
1001
SDI_SETUP
1070
   305
1040
250.0
1070
   304
1040
50.0
1070
   130
1000
None
1070
   230
1070
     0
1070
   233
1070
     0
1070
   234
1070
     1
1070
   134
1000
None
1070
   330
1040
3.0
1070
   331
1040
50.0
1070
   332
1040
25.0
1070
   333
1040
25.0
1070
   334
1040
25.0
1070
   335
1040
707.0
1070
   336
1040
1000.0
1070
   231
1070
     1
1070
   232
1070
     0
  0
ATTRIB
  5
1509D
330
1509C
100
AcDbEntity
  8
0
100
AcDbText
 10
-6507.362719479058
 20
-28659.01070104231
 30
0.0
 40
0.02
  1
3966
 50
31.70789242611182
 72
     1
 11
-6507.333146180755
 21
-28658.99243057296
 31
0.0
100
AcDbAttribute
  2
NAME
 70
     1
  0
SEQEND
  5
1509E
330
1509C
100
AcDbEntity
  8
pitDCA_INFO
  0
INSERT
  5
1509F
330
2
100
AcDbEntity
  8
pitDCA_INFO
100
AcDbBlockReference
 66
     1
  2
PROJ_NAM
 10
-6507.364342549265
 20
-28659.01171070778
 30
0.0
 41
0.0999999999730819
 42
0.0999999999539796
 43
0.1
 50
31.70789239687185
  0
ATTRIB
  5
150A0
330
1509F
100
AcDbEntity
  8
0
100
AcDbText
 10
-6507.362719479058
 20
-28659.01070104231
 30
0.0
 40
0.02
  1
3256
 50
31.70789242611182
 72
     1
 11
-6507.333146180755
 21
-28658.99243057296
 31
0.0
100
AcDbAttribute
  2
NAME
 70
     1
  0
SEQEND
  5
150A1
330
1509F
100
AcDbEntity
  8
pitDCA_INFO
  0
INSERT
  5
150A2
330
2
100
AcDbEntity
  8
pitDCA_INFO
100
AcDbBlockReference
 66
     1
  2
PROJ_NAM
 10
-6507.364342549265
 20
-28659.01171070778
 30
0.0
 41
0.0999999999730819
 42
0.0999999999539796
 43
0.1
 50
31.70789239687185
  0
ATTRIB
  5
150A3
330
150A2
100
AcDbEntity
  8
0
100
AcDbText
 10
-6507.363124592732
 20
-28659.01095132271
 30
0.0
 40
0.02
  1
2982
 50
31.70789242611182
 72
     1
 11
-6507.333146180755
 21
-28658.99243057296
 31
0.0
100
AcDbAttribute
  2
NAME
 70
     1
  0
SEQEND
  5
150A4
330
150A2
100
AcDbEntity
  8
pitDCA_INFO
  0
INSERT
  5
150A5
330
2
100
AcDbEntity
  8
pitDCA_INFO
100
AcDbBlockReference
 66
     1
  2
PROJ_NAM
 10
-6507.364342549265
 20
-28659.01171070778
 30
0.0
 41
0.0999999999730819
 42
0.0999999999539796
 43
0.1
 50
31.70789239687185
1001
SDI_SETUP
1070
   305
1040
250.0
1070
   304
1040
50.0
1070
   130
1000
None
1070
   230
1070
     0
1070
   233
1070
     0
1070
   234
1070
     1
1070
   134
1000
None
1070
   330
1040
3.0
1070
   331
1040
50.0
1070
   332
1040
25.0
1070
   333
1040
25.0
1070
   334
1040
25.0
1070
   335
1040
707.0
1070
   336
1040
1000.0
1070
   231
1070
     1
1070
   232
1070
     0
  0
ATTRIB
  5
150A6
330
150A5
100
AcDbEntity
  8
0
100
AcDbText
 10
-6507.363124592732
 20
-28659.01095132271
 30
0.0
 40
0.02
  1
2982
 50
31.70789242611182
 72
     1
 11
-6507.333146180755
 21
-28658.99243057296
 31
0.0
100
AcDbAttribute
  2
NAME
 70
     1
  0
SEQEND
  5
150A7
330
150A5
100
AcDbEntity
  8
pitDCA_INFO
  0
INSERT
  5
150A8
330
2
100
AcDbEntity
  8
pitDCA_INFO
100
AcDbBlockReference
 66
     1
  2
PROJ_NAM
 10
-6507.364342549265
 20
-28659.01171070778
 30
0.0
 41
0.0999999999730819
 42
0.0999999999539796
 43
0.1
 50
31.70789239687185
1001
SDI_SETUP
1070
   305
1040
250.0
1070
   304
1040
50.0
1070
   130
1000
None
1070
   230
1070
     0
1070
   233
1070
     0
1070
   234
1070
     1
1070
   134
1000
None
1070
   330
1040
3.0
1070
   331
1040
50.0
1070
   332
1040
25.0
1070
   333
1040
25.0
1070
   334
1040
25.0
1070
   335
1040
707.0
1070
   336
1040
1000.0
1070
   231
1070
     1
1070
   232
1070
     0
  0
ATTRIB
  5
150A9
330
150A8
100
AcDbEntity
  8
0
100
AcDbText
 10
-6507.361504138031
 20
-28659.0099502011
 30
0.0
 40
0.02
  1
1365
 50
31.70789242611182
 72
     1
 11
-6507.333146180755
 21
-28658.99243057296
 31
0.0
100
AcDbAttribute
  2
NAME
 70
     1
  0
SEQEND
  5
150AA
330
150A8
100
AcDbEntity
  8
pitDCA_INFO
  0
INSERT
  5
150AB
330
2
100
AcDbEntity
  8
pitDCA_INFO
100
AcDbBlockReference
 66
     1
  2
PROJ_NAM
 10
-6507.364342549265
 20
-28659.01171070778
 30
0.0
 41
0.0999999999730819
 42
0.0999999999539796
 43
0.1
 50
31.70789239687185
1001
SDI_SETUP
1070
   305
1040
1250.0
1070
   304
1040
1.0
1070
   130
1000
FRACTION
1070
   230
1070
     0
1070
   233
1070
     0
1070
   234
1070
     1
1070
   134
1000
None
1070
   330
1040
3.0
1070
   331
1040
50.0
1070
   332
1040
25.0
1070
   333
1040
25.0
1070
   334
1040
25.0
1070
   335
1040
594.0
1070
   336
1040
841.0
1070
   231
1070
     0
1070
   232
1070
     0
  0
ATTRIB
  5
150AC
330
150AB
100
AcDbEntity
  8
0
100
AcDbText
 10
-6507.361504138031
 20
-28659.0099502011
 30
0.0
 40
0.02
  1
1480
 50
31.70789242611182
 72
     1
 11
-6507.333146180755
 21
-28658.99243057296
 31
0.0
100
AcDbAttribute
  2
NAME
 70
     1
  0
SEQEND
  5
150AD
330
150AB
100
AcDbEntity
  8
pitDCA_INFO
  0
INSERT
  5
150AE
330
2
100
AcDbEntity
  8
pitDCA_INFO
100
AcDbBlockReference
 66
     1
  2
PROJ_NAM
 10
-6526.399040967402
 20
-28645.47923686388
 30
0.0
 41
0.0999999999730819
 42
0.0999999999539796
 43
0.1
 50
31.70789239687185
1001
SDI_SETUP
1070
   305
1040
250.0
1070
   304
1040
50.0
1070
   130
1000
None
1070
   230
1070
     0
1070
   233
1070
     0
1070
   234
1070
     1
1070
   134
1000
None
1070
   330
1040
3.0
1070
   331
1040
50.0
1070
   332
1040
25.0
1070
   333
1040
25.0
1070
   334
1040
25.0
1070
   335
1040
707.0
1070
   336
1040
1000.0
1070
   231
1070
     1
1070
   232
1070
     0
  0
ATTRIB
  5
150AF
330
150AE
100
AcDbEntity
  8
0
100
AcDbText
 10
-6526.396202556168
 20
-28645.47747635733
 30
0.0
 40
0.02
  1
4013
 50
31.70789242611182
 72
     1
 11
-6526.367844598893
 21
-28645.45995672918
 31
0.0
100
AcDbAttribute
  2
NAME
 70
     1
  0
SEQEND
  5
150B0
330
150AE
100
AcDbEntity
  8
pitDCA_INFO
  0
INSERT
  5
150B1
330
2
100
AcDbEntity
  8
pitDCA_INFO
100
AcDbBlockReference
 66
     1
  2
PROJ_NAM
 10
-6526.399040967402
 20
-28645.47923686388
 30
0.0
 41
0.0999999999730819
 42
0.0999999999539796
 43
0.1
 50
31.70789239687185
1001
SDI_SETUP
1070
   305
1040
250.0
1070
   304
1040
50.0
1070
   130
1000
None
1070
   230
1070
     0
1070
   233
1070
     0
1070
   234
1070
     1
1070
   134
1000
None
1070
   330
1040
3.0
1070
   331
1040
50.0
1070
   332
1040
25.0
1070
   333
1040
25.0
1070
   334
1040
25.0
1070
   335
1040
707.0
1070
   336
1040
1000.0
1070
   231
1070
     1
1070
   232
1070
     0
  0
ATTRIB
  5
150B2
330
150B1
100
AcDbEntity
  8
0
100
AcDbText
 10
-6526.397823010869
 20
-28645.47847747893
 30
0.0
 40
0.02
  1
2307
 50
31.70789242611182
 72
     1
 11
-6526.367844598893
 21
-28645.45995672918
 31
0.0
100
AcDbAttribute
  2
NAME
 70
     1
  0
SEQEND
  5
150B3
330
150B1
100
AcDbEntity
  8
pitDCA_INFO
  0
INSERT
  5
150B4
330
2
100
AcDbEntity
  8
pitDCA_INFO
100
AcDbBlockReference
 66
     1
  2
PROJ_NAM
 10
-6526.399040967402
 20
-28645.47923686388
 30
0.0
 41
0.0999999999730819
 42
0.0999999999539796
 43
0.1
 50
31.70789239687185
1001
SDI_SETUP
1070
   305
1040
250.0
1070
   304
1040
100.0
1070
   130
1000
None
1070
   230
1070
     1
1070
   233
1070
     0
1070
   234
1070
     1
1070
   134
1000
None
1070
   330
1040
0.000002
1070
   331
1040
0.00005
1070
   332
1040
0.000025
1070
   333
1040
0.000025
1070
   334
1040
0.000025
1070
   335
1040
420.0
1070
   336
1040
594.0
1070
   231
1070
     1
1070
   232
1070
     0
1070
   133
1000
72
  0
ATTRIB
  5
150B5
330
150B4
100
AcDbEntity
  8
0
100
AcDbText
 10
-6526.395797442493
 20
-28645.47722607692
 30
0.0
 40
0.02
  1
1586
 50
31.70789242611182
 72
     1
 11
-6526.367844598893
 21
-28645.45995672918
 31
0.0
100
AcDbAttribute
  2
NAME
 70
     1
  0
SEQEND
  5
150B6
330
150B4
100
AcDbEntity
  8
pitDCA_INFO
  0
INSERT
  5
150B7
330
2
100
AcDbEntity
  8
0
100
AcDbBlockReference
 66
     1
  2
TR_CONF
 10
-6526.399040967402
 20
-28645.47923686388
 30
0.0
 41
0.0999999999730819
 42
0.0999999999539796
 43
0.1
 50
31.70789239687185
1001
TR_DXF
1040
1.25
1040
200.0
1040
2.1
1040
0.7
1040
1.8
1040
3.0
1040
3.0
1040
1.5
1040
1250.0
1040
1.0
1040
0.02
1040
0.0
1040
0.0
1040
0.0
1040
3.0
1040
0.001
1000

1000

  0
SEQEND
  5
150B8
330
150B7
100
AcDbEntity
  8
0
  0
INSERT
  5
150B9
330
2
100
AcDbEntity
  8
pitDCA_INFO
100
AcDbBlockReference
 66
     1
  2
PROJ_NAM
 10
-19861.67288780326
 20
-257744.9953517214
 30
0.0
 50
31.70789242611182
1001
SDI_SETUP
1070
   305
1040
250.0
1070
   304
1040
50.0
1070
   130
1000
None
1070
   230
1070
     0
1070
   233
1070
     0
1070
   234
1070
     1
1070
   134
1000
None
1070
   330
1040
3.0
1070
   331
1040
50.0
1070
   332
1040
25.0
1070
   333
1040
25.0
1070
   334
1040
25.0
1070
   335
1040
707.0
1070
   336
1040
1000.0
1070
   231
1070
     1
1070
   232
1070
     0
  0
ATTRIB
  5
150BA
330
150B9
100
AcDbEntity
  8
0
100
AcDbText
 10
-19861.66070823825
 20
-257744.987757871
 30
0.0
 40
0.2
  1
4738
 50
31.70789242611182
 72
     1
 11
-19861.36092411848
 21
-257744.8025503735
 31
0.0
100
AcDbAttribute
  2
NAME
 70
     1
  0
SEQEND
  5
150BB
330
150B9
100
AcDbEntity
  8
pitDCA_INFO
  0
INSERT
  5
150BC
330
2
100
AcDbEntity
  8
pitDCA_INFO
100
AcDbBlockReference
 66
     1
  2
PROJ_NAM
 10
-5219.713537885052
 20
-3574.443554093461
 30
0.0
 50
27.26889038819678
1001
SDI_SETUP
1070
   305
1040
250.0
1070
   304
1040
50.0
1070
   130
1000
None
1070
   230
1070
     0
1070
   233
1070
     0
1070
   234
1070
     1
1070
   134
1000
None
1070
   330
1040
3.0
1070
   331
1040
50.0
1070
   332
1040
25.0
1070
   333
1040
25.0
1070
   334
1040
25.0
1070
   335
1040
707.0
1070
   336
1040
1000.0
1070
   231
1070
     1
1070
   232
1070
     0
  0
ATTRIB
  5
150BD
330
150BC
100
AcDbEntity
  8
0
100
AcDbText
 10
-5219.683876325066
 20
-3574.428198702658
 30
0.0
 40
0.2
  1
2153
 50
27.26889038819678
 72
     1
 11
-5219.387587614272
 21
-3574.275476369756
 31
0.0
100
AcDbAttribute
  2
NAME
 70
     1
  0
SEQEND
  5
150BE
330
150BC
100
AcDbEntity
  8
pitDCA_INFO
  0
TEXT
  5
150BF
330
2
100
AcDbEntity
  8
pitCTACK
100
AcDbText
 10
-5122.608618858245
 20
-3101.365527215409
 30
0.0
 40
0.4
  1
 
 50
27.26889038819678
  7
SIVAN
 72
     2
 11
-5122.28693397224
 21
-3101.199714396829
 31
0.0
100
AcDbText
  0
INSERT
  5
150C0
330
2
100
AcDbEntity
  8
pitDCA_INFO
100
AcDbBlockReference
 66
     1
  2
PROJ_NAM
 10
15518.46501974822
 20
-73823.83328587293
 30
0.0
 41
0.0999999999730819
 42
0.0999999999539796
 43
0.1
 50
31.70789239687185
1001
SDI_SETUP
1070
   305
1040
250.0
1070
   304
1040
50.0
1070
   130
1000
None
1070
   230
1070
     0
1070
   233
1070
     0
1070
   234
1070
     1
1070
   134
1000
None
1070
   330
1040
3.0
1070
   331
1040
50.0
1070
   332
1040
25.0
1070
   333
1040
25.0
1070
   334
1040
25.0
1070
   335
1040
707.0
1070
   336
1040
1000.0
1070
   231
1070
     1
1070
   232
1070
     0
  0
ATTRIB
  5
150C1
330
150C0
100
AcDbEntity
  8
0
100
AcDbText
 10
15518.49054452527
 20
-73823.81750966374
 30
0.0
 40
0.02
  1
P
 50
31.70789242611182
 72
     1
 11
15518.49621611673
 21
-73823.81400573811
 31
0.0
100
AcDbAttribute
  2
NAME
 70
     1
  0
SEQEND
  5
150C2
330
150C0
100
AcDbEntity
  8
pitDCA_INFO
  0
INSERT
  5
150C3
330
2
100
AcDbEntity
  8
pitDCA_INFO
100
AcDbBlockReference
 66
     1
  2
PROJ_NAM
 10
-6507.364342549265
 20
-28659.01171070778
 30
0.0
 41
0.0999999999730819
 42
0.0999999999539796
 43
0.1
 50
31.70789239687185
1001
SDI_SETUP
1070
   305
1040
250.0
1070
   304
1040
50.0
1070
   130
1000
None
1070
   230
1070
     0
1070
   233
1070
     0
1070
   234
1070
     1
1070
   134
1000
None
1070
   330
1040
3.0
1070
   331
1040
50.0
1070
   332
1040
25.0
1070
   333
1040
25.0
1070
   334
1040
25.0
1070
   335
1040
707.0
1070
   336
1040
1000.0
1070
   231
1070
     1
1070
   232
1070
     0
  0
ATTRIB
  5
150C4
330
150C3
100
AcDbEntity
  8
0
100
AcDbText
 10
-6507.362719479058
 20
-28659.01070104231
 30
0.0
 40
0.02
  1
3966
 50
31.70789242611182
 72
     1
 11
-6507.333146180755
 21
-28658.99243057296
 31
0.0
100
AcDbAttribute
  2
NAME
 70
     1
  0
SEQEND
  5
150C5
330
150C3
100
AcDbEntity
  8
pitDCA_INFO
  0
INSERT
  5
150C6
330
2
100
AcDbEntity
  8
pitDCA_INFO
100
AcDbBlockReference
 66
     1
  2
PROJ_NAM
 10
-6507.364342549265
 20
-28659.01171070778
 30
0.0
 41
0.0999999999730819
 42
0.0999999999539796
 43
0.1
 50
31.70789239687185
  0
ATTRIB
  5
150C7
330
150C6
100
AcDbEntity
  8
0
100
AcDbText
 10
-6507.362719479058
 20
-28659.01070104231
 30
0.0
 40
0.02
  1
3256
 50
31.70789242611182
 72
     1
 11
-6507.333146180755
 21
-28658.99243057296
 31
0.0
100
AcDbAttribute
  2
NAME
 70
     1
  0
SEQEND
  5
150C8
330
150C6
100
AcDbEntity
  8
pitDCA_INFO
  0
INSERT
  5
150C9
330
2
100
AcDbEntity
  8
pitDCA_INFO
100
AcDbBlockReference
 66
     1
  2
PROJ_NAM
 10
-6507.364342549265
 20
-28659.01171070778
 30
0.0
 41
0.0999999999730819
 42
0.0999999999539796
 43
0.1
 50
31.70789239687185
  0
ATTRIB
  5
150CA
330
150C9
100
AcDbEntity
  8
0
100
AcDbText
 10
-6507.363124592732
 20
-28659.01095132271
 30
0.0
 40
0.02
  1
2982
 50
31.70789242611182
 72
     1
 11
-6507.333146180755
 21
-28658.99243057296
 31
0.0
100
AcDbAttribute
  2
NAME
 70
     1
  0
SEQEND
  5
150CB
330
150C9
100
AcDbEntity
  8
pitDCA_INFO
  0
INSERT
  5
150CC
330
2
100
AcDbEntity
  8
pitDCA_INFO
100
AcDbBlockReference
 66
     1
  2
PROJ_NAM
 10
-6507.364342549265
 20
-28659.01171070778
 30
0.0
 41
0.0999999999730819
 42
0.0999999999539796
 43
0.1
 50
31.70789239687185
1001
SDI_SETUP
1070
   305
1040
250.0
1070
   304
1040
50.0
1070
   130
1000
None
1070
   230
1070
     0
1070
   233
1070
     0
1070
   234
1070
     1
1070
   134
1000
None
1070
   330
1040
3.0
1070
   331
1040
50.0
1070
   332
1040
25.0
1070
   333
1040
25.0
1070
   334
1040
25.0
1070
   335
1040
707.0
1070
   336
1040
1000.0
1070
   231
1070
     1
1070
   232
1070
     0
  0
ATTRIB
  5
150CD
330
150CC
100
AcDbEntity
  8
0
100
AcDbText
 10
-6507.363124592732
 20
-28659.01095132271
 30
0.0
 40
0.02
  1
2982
 50
31.70789242611182
 72
     1
 11
-6507.333146180755
 21
-28658.99243057296
 31
0.0
100
AcDbAttribute
  2
NAME
 70
     1
  0
SEQEND
  5
150CE
330
150CC
100
AcDbEntity
  8
pitDCA_INFO
  0
INSERT
  5
150CF
330
2
100
AcDbEntity
  8
pitDCA_INFO
100
AcDbBlockReference
 66
     1
  2
PROJ_NAM
 10
-6507.364342549265
 20
-28659.01171070778
 30
0.0
 41
0.0999999999730819
 42
0.0999999999539796
 43
0.1
 50
31.70789239687185
1001
SDI_SETUP
1070
   305
1040
250.0
1070
   304
1040
50.0
1070
   130
1000
None
1070
   230
1070
     0
1070
   233
1070
     0
1070
   234
1070
     1
1070
   134
1000
None
1070
   330
1040
3.0
1070
   331
1040
50.0
1070
   332
1040
25.0
1070
   333
1040
25.0
1070
   334
1040
25.0
1070
   335
1040
707.0
1070
   336
1040
1000.0
1070
   231
1070
     1
1070
   232
1070
     0
  0
ATTRIB
  5
150D0
330
150CF
100
AcDbEntity
  8
0
100
AcDbText
 10
-6507.361504138031
 20
-28659.0099502011
 30
0.0
 40
0.02
  1
1365
 50
31.70789242611182
 72
     1
 11
-6507.333146180755
 21
-28658.99243057296
 31
0.0
100
AcDbAttribute
  2
NAME
 70
     1
  0
SEQEND
  5
150D1
330
150CF
100
AcDbEntity
  8
pitDCA_INFO
  0
INSERT
  5
150D2
330
2
100
AcDbEntity
  8
pitDCA_INFO
100
AcDbBlockReference
 66
     1
  2
PROJ_NAM
 10
-6507.364342549265
 20
-28659.01171070778
 30
0.0
 41
0.0999999999730819
 42
0.0999999999539796
 43
0.1
 50
31.70789239687185
1001
SDI_SETUP
1070
   305
1040
1250.0
1070
   304
1040
1.0
1070
   130
1000
FRACTION
1070
   230
1070
     0
1070
   233
1070
     0
1070
   234
1070
     1
1070
   134
1000
None
1070
   330
1040
3.0
1070
   331
1040
50.0
1070
   332
1040
25.0
1070
   333
1040
25.0
1070
   334
1040
25.0
1070
   335
1040
594.0
1070
   336
1040
841.0
1070
   231
1070
     0
1070
   232
1070
     0
  0
ATTRIB
  5
150D3
330
150D2
100
AcDbEntity
  8
0
100
AcDbText
 10
-6507.361504138031
 20
-28659.0099502011
 30
0.0
 40
0.02
  1
1480
 50
31.70789242611182
 72
     1
 11
-6507.333146180755
 21
-28658.99243057296
 31
0.0
100
AcDbAttribute
  2
NAME
 70
     1
  0
SEQEND
  5
150D4
330
150D2
100
AcDbEntity
  8
pitDCA_INFO
  0
INSERT
  5
150D5
330
2
100
AcDbEntity
  8
pitDCA_INFO
100
AcDbBlockReference
 66
     1
  2
PROJ_NAM
 10
-6526.399040967402
 20
-28645.47923686388
 30
0.0
 41
0.0999999999730819
 42
0.0999999999539796
 43
0.1
 50
31.70789239687185
1001
SDI_SETUP
1070
   305
1040
250.0
1070
   304
1040
50.0
1070
   130
1000
None
1070
   230
1070
     0
1070
   233
1070
     0
1070
   234
1070
     1
1070
   134
1000
None
1070
   330
1040
3.0
1070
   331
1040
50.0
1070
   332
1040
25.0
1070
   333
1040
25.0
1070
   334
1040
25.0
1070
   335
1040
707.0
1070
   336
1040
1000.0
1070
   231
1070
     1
1070
   232
1070
     0
  0
ATTRIB
  5
150D6
330
150D5
100
AcDbEntity
  8
0
100
AcDbText
 10
-6526.396202556168
 20
-28645.47747635733
 30
0.0
 40
0.02
  1
4013
 50
31.70789242611182
 72
     1
 11
-6526.367844598893
 21
-28645.45995672918
 31
0.0
100
AcDbAttribute
  2
NAME
 70
     1
  0
SEQEND
  5
150D7
330
150D5
100
AcDbEntity
  8
pitDCA_INFO
  0
INSERT
  5
150D8
330
2
100
AcDbEntity
  8
pitDCA_INFO
100
AcDbBlockReference
 66
     1
  2
PROJ_NAM
 10
-6526.399040967402
 20
-28645.47923686388
 30
0.0
 41
0.0999999999730819
 42
0.0999999999539796
 43
0.1
 50
31.70789239687185
1001
SDI_SETUP
1070
   305
1040
250.0
1070
   304
1040
50.0
1070
   130
1000
None
1070
   230
1070
     0
1070
   233
1070
     0
1070
   234
1070
     1
1070
   134
1000
None
1070
   330
1040
3.0
1070
   331
1040
50.0
1070
   332
1040
25.0
1070
   333
1040
25.0
1070
   334
1040
25.0
1070
   335
1040
707.0
1070
   336
1040
1000.0
1070
   231
1070
     1
1070
   232
1070
     0
  0
ATTRIB
  5
150D9
330
150D8
100
AcDbEntity
  8
0
100
AcDbText
 10
-6526.397823010869
 20
-28645.47847747893
 30
0.0
 40
0.02
  1
2307
 50
31.70789242611182
 72
     1
 11
-6526.367844598893
 21
-28645.45995672918
 31
0.0
100
AcDbAttribute
  2
NAME
 70
     1
  0
SEQEND
  5
150DA
330
150D8
100
AcDbEntity
  8
pitDCA_INFO
  0
INSERT
  5
150DB
330
2
100
AcDbEntity
  8
pitDCA_INFO
100
AcDbBlockReference
 66
     1
  2
PROJ_NAM
 10
-6526.399040967402
 20
-28645.47923686388
 30
0.0
 41
0.0999999999730819
 42
0.0999999999539796
 43
0.1
 50
31.70789239687185
1001
SDI_SETUP
1070
   305
1040
250.0
1070
   304
1040
100.0
1070
   130
1000
None
1070
   230
1070
     1
1070
   233
1070
     0
1070
   234
1070
     1
1070
   134
1000
None
1070
   330
1040
0.000002
1070
   331
1040
0.00005
1070
   332
1040
0.000025
1070
   333
1040
0.000025
1070
   334
1040
0.000025
1070
   335
1040
420.0
1070
   336
1040
594.0
1070
   231
1070
     1
1070
   232
1070
     0
1070
   133
1000
72
  0
ATTRIB
  5
150DC
330
150DB
100
AcDbEntity
  8
0
100
AcDbText
 10
-6526.395797442493
 20
-28645.47722607692
 30
0.0
 40
0.02
  1
1586
 50
31.70789242611182
 72
     1
 11
-6526.367844598893
 21
-28645.45995672918
 31
0.0
100
AcDbAttribute
  2
NAME
 70
     1
  0
SEQEND
  5
150DD
330
150DB
100
AcDbEntity
  8
pitDCA_INFO
  0
MTEXT
  5
16D04
330
2
100
AcDbEntity
  8
0
 62
     4
100
AcDbMText
 10
-3219.697727072416
 20
-2784.111636183464
 30
0.0
 40
20.0
 41
0.0
 71
     7
 72
     1
  1

  7
MONOSI
 73
     1
 44
1.0
  0
MTEXT
  5
185B1
330
2
100
AcDbEntity
  8
railm
 62
     4
100
AcDbMText
 10
-21246.0793180018
 20
75.68761986357277
 30
0.0
 40
20.0
 41
0.0
 71
     9
 72
     1
  1

  7
MONOSI
 73
     1
 44
1.0
  0
MTEXT
  5
195DE
330
2
100
AcDbEntity
  8
0
 62
     4
100
AcDbMText
 10
-49983.44263511911
 20
293.1965231125823
 30
0.0
 40
20.0
 41
0.0
 71
     7
 72
     1
  1

  7
MONOSI
 73
     1
 44
1.0
  0
MTEXT
  5
196AC
330
2
100
AcDbEntity
  8
BETON
 62
     4
100
AcDbMText
 10
-50691.65627848764
 20
234.563190772792
 30
0.0
 40
20.0
 41
0.0
 71
     9
 72
     1
  1

  7
MONOSI
 73
     1
 44
1.0
  0
MTEXT
  5
2B62A
330
2
100
AcDbEntity
  8
0
 62
     4
100
AcDbMText
 10
-21583.73385703965
 20
4705.719782104294
 30
0.0
 40
15.0
 41
0.0
 71
     9
 72
     1
  1

  7
MONOSI
 73
     1
 44
1.0
  0
MTEXT
  5
2BC60
330
2
100
AcDbEntity
  8
0
 62
     4
100
AcDbMText
 10
-18261.97070158625
 20
8609.064072192763
 30
0.0
 40
15.0
 41
0.0
 71
     7
 72
     1
  1

  7
MONOSI
 73
     1
 44
1.0
  0
MTEXT
  5
2DCD5
330
2
100
AcDbEntity
  8
0
 62
     4
100
AcDbMText
 10
-18177.49526087584
 20
6902.372654495251
 30
0.0
 40
15.0
 41
0.0
 71
     7
 72
     1
  1

  7
MONOSI
 73
     1
 44
1.0
  0
MTEXT
  5
332B4
330
2
100
AcDbEntity
  8
0
100
AcDbMText
 10
-24898.19720789647
 20
539.7917697814846
 30
0.0
 40
15.0
 41
0.0
 71
     9
 72
     1
  1

  7
MONOSI
 73
     1
 44
1.0
  0
MTEXT
  5
332C4
330
2
100
AcDbEntity
  8
0
100
AcDbMText
 10
-25370.14553679752
 20
6406.433922221811
 30
0.0
 40
15.0
 41
0.0
 71
     7
 72
     1
  1

  7
MONOSI
 73
     1
 44
1.0
  0
TEXT
  5
5CAED
330
2
100
AcDbEntity
  8
None
  6
Continuous
 62
     7
370
     0
100
AcDbText
 10
3998.768746297052
 20
1690.281680970883
 30
0.0
 40
1.264350839843749
  1

  7
Arial (italic)
100
AcDbText
  0
MTEXT
  5
672EC
330
2
100
AcDbEntity
  8
0
 62
     4
100
AcDbMText
 10
413.966623388004
 20
344.58767274219
 30
0.0
 40
15.0
 41
0.0
 71
     9
 72
     1
  1

  7
MONOSI
 73
     1
 44
1.0
  0
TEXT
  5
6791B
330
2
100
AcDbEntity
  8
TEXT04
100
AcDbText
 10
-27.65506764534114
 20
-24.6210128282074
 30
0.0
 40
2.699999999999999
  1
1:10 "
  7
TOV
 72
     2
 11
-3.644732999671816
 21
-23.2710128282074
 31
0.0
100
AcDbText
 73
     2
  0
TEXT
  5
6791C
330
2
100
AcDbEntity
  8
TEXT05
100
AcDbText
 10
-234.8931353718431
 20
-19.5360163769008
 30
0.0
 40
3.1
  1
%%U      TVL-20@ ""   
  7
TOV
 72
     2
 11
-3.160812537196818
 21
-17.9860163769008
 31
0.0
100
AcDbText
 73
     2
  0
INSERT
  5
67D39
330
2
100
AcDbEntity
  8
0
100
AcDbBlockReference
  2
LOGO
 10
-0.0000000000000568
 20
-217.3008586550331
 30
0.0
  0
MTEXT
  5
6800F
330
2
100
AcDbEntity
  8
TIN
100
AcDbMText
 10
-1572.682271784386
 20
666.2532262899174
 30
0.0
 40
0.18
 41
0.0
 71
     6
 72
     1
  1
\A1;
 73
     1
 44
1.0
1001
ACAD
1000
MTEXTBEGIN
1070
    73
1070
     1
1070
    44
1040
1.0
1070
    74
1070
     0
1000
MTEXTEND
  0
MTEXT
  5
68010
330
2
100
AcDbEntity
  8
TIN
100
AcDbMText
 10
-1573.51079837786
 20
643.0904670796356
 30
0.0
 40
0.18
 41
0.0
 71
     6
 72
     1
  1
\A1;
 73
     1
 44
1.0
1001
ACAD
1000
MTEXTBEGIN
1070
    73
1070
     1
1070
    44
1040
1.0
1070
    74
1070
     0
1000
MTEXTEND
  0
MTEXT
  5
68011
330
2
100
AcDbEntity
  8
TIN
100
AcDbMText
 10
827.8993160968541
 20
-122.0275398600883
 30
0.0
 40
0.0432
 41
0.0
 71
     6
 72
     1
  1
\A1;
 73
     1
 44
1.0
1001
ACAD
1000
MTEXTBEGIN
1070
    73
1070
     1
1070
    44
1040
1.0
1070
    74
1070
     0
1000
MTEXTEND
  0
MTEXT
  5
68012
330
2
100
AcDbEntity
  8
TIN
100
AcDbMText
 10
827.7004697144203
 20
-127.5866020705559
 30
0.0
 40
0.0432
 41
0.0
 71
     6
 72
     1
  1
\A1;
 73
     1
 44
1.0
1001
ACAD
1000
MTEXTBEGIN
1070
    73
1070
     1
1070
    44
1040
1.0
1070
    74
1070
     0
1000
MTEXTEND
  0
MTEXT
  5
68013
330
2
100
AcDbEntity
  8
TIN
100
AcDbMText
 10
464.1446936133245
 20
-100.9383455752636
 30
0.0
 40
0.0432
 41
0.0
 71
     6
 72
     1
  1
\A1;
 73
     1
 44
1.0
1001
ACAD
1000
MTEXTBEGIN
1070
    73
1070
     1
1070
    44
1040
1.0
1070
    74
1070
     0
1000
MTEXTEND
  0
MTEXT
  5
68014
330
2
100
AcDbEntity
  8
TIN
100
AcDbMText
 10
463.9458472308907
 20
-106.4974077857311
 30
0.0
 40
0.0432
 41
0.0
 71
     6
 72
     1
  1
\A1;
 73
     1
 44
1.0
1001
ACAD
1000
MTEXTBEGIN
1070
    73
1070
     1
1070
    44
1040
1.0
1070
    74
1070
     0
1000
MTEXTEND
  0
HATCH
  5
68016
330
2
100
AcDbEntity
  8
WOD-HT
  6
HIDDEN
370
    50
100
AcDbHatch
 10
0.0
 20
0.0
 30
0.0
210
0.0
220
0.0
230
1.0
  2
ANSI31
 70
     0
 71
     0
 91
        1
 92
        7
 72
     0
 73
     1
 93
        4
 10
-202.5430070299444
 20
-132.5600195213626
 10
-202.5430070299444
 20
-134.6019644749474
 10
-200.8061999374072
 20
-133.7368138234767
 10
-200.8061999374072
 20
-131.8879503399509
 97
        0
 75
     0
 76
     1
 52
0.0
 41
1.0
 77
     0
 78
     1
 53
45.0
 43
1929.24700504973
 44
-547.9604941435606
 45
-0.0883883476483184
 46
0.0883883476483185
 79
     0
 47
0.0175053931136098
 98
        1
 10
-201.6281389874807
 20
-132.6989286830455
  0
HATCH
  5
68018
330
2
100
AcDbEntity
  8
WOD-HT
370
    50
100
AcDbHatch
 10
0.0
 20
0.0
 30
0.0
210
0.0
220
0.0
230
1.0
  2
ANSI31
 70
     0
 71
     1
 91
        1
 92
        1
 93
        4
 72
     1
 10
-230.8023117113239
 20
-136.5108651056041
 11
-226.4480994869786
 21
-134.0530539034641
 72
     1
 10
-226.4480994869786
 20
-134.0530539034641
 11
-225.2191938859086
 21
-136.2301600156367
 72
     1
 10
-225.2191938859086
 20
-136.2301600156367
 11
-229.5734061102539
 21
-138.6879712177767
 72
     1
 10
-229.5734061102539
 20
-138.6879712177767
 11
-230.8023117113239
 21
-136.5108651056041
 97
        1
330
68041
 75
     0
 76
     1
 52
47.44331491972115
 41
4.0
 77
     0
 78
     1
 53
92.44331491972076
 43
870.0295874483581
 44
-707.5500361828887
 45
-0.4995454435517131
 46
-0.0213154832626978
 79
     0
 98
        1
 10
870.0295874483581
 20
-707.5500361828887
  0
HATCH
  5
68019
330
2
100
AcDbEntity
  8
WOD-HT
370
    50
100
AcDbHatch
 10
0.0
 20
0.0
 30
0.0
210
0.0
220
0.0
230
1.0
  2
ANSI31
 70
     0
 71
     1
 91
        1
 92
        1
 93
        4
 72
     1
 10
-200.5309169081724
 20
-119.7103308292505
 11
-196.1767046838276
 21
-117.2525196271105
 72
     1
 10
-196.1767046838276
 20
-117.2525196271105
 11
-194.9477990827576
 21
-119.4296257392832
 72
     1
 10
-194.9477990827576
 20
-119.4296257392832
 11
-199.3020113071029
 21
-121.8874369414231
 72
     1
 10
-199.3020113071029
 20
-121.8874369414231
 11
-200.5309169081724
 21
-119.7103308292505
 97
        1
330
68043
 75
     0
 76
     1
 52
47.44331491972115
 41
4.0
 77
     0
 78
     1
 53
92.44331491972076
 43
900.3009822515094
 44
-690.7495019065351
 45
-0.4995454435517131
 46
-0.0213154832626978
 79
     0
 98
        1
 10
900.3009822515094
 20
-690.7495019065351
  0
HATCH
  5
6801A
330
2
100
AcDbEntity
  8
WOD-HT
370
    50
100
AcDbHatch
 10
0.0
 20
0.0
 30
0.0
210
0.0
220
0.0
230
1.0
  2
ANSI31
 70
     0
 71
     1
 91
        1
 92
        1
 93
        4
 72
     1
 10
-170.4737660012208
 20
-102.7980237547353
 11
-166.119553776876
 21
-100.3402125525953
 72
     1
 10
-166.119553776876
 20
-100.3402125525953
 11
-164.8906481758056
 21
-102.5173186647679
 72
     1
 10
-164.8906481758056
 20
-102.5173186647679
 11
-169.2448604001508
 21
-104.9751298669079
 72
     1
 10
-169.2448604001508
 20
-104.9751298669079
 11
-170.4737660012208
 21
-102.7980237547353
 97
        1
330
68044
 75
     0
 76
     1
 52
47.44331491972115
 41
4.0
 77
     0
 78
     1
 53
92.44331491972074
 43
930.3581331584611
 44
-673.83719483202
 45
-0.4995454435517131
 46
-0.0213154832626978
 79
     0
 98
        1
 10
930.3581331584611
 20
-673.83719483202
  0
HATCH
  5
6801C
330
2
100
AcDbEntity
  8
HATCH
370
    50
100
AcDbHatch
 10
0.0
 20
0.0
 30
0.0
210
0.0
220
0.0
230
1.0
  2
ANSI31
 70
     0
 71
     1
 91
        1
 92
        1
 93
       36
 72
     2
 10
-172.1038842070736
 20
-100.6049835286053
 40
0.1000000000002685
 50
65.92551571382805
 51
155.925515713828
 73
     0
 72
     1
 10
-172.1951858000566
 20
-100.6457759190577
 11
-172.7662792663945
 21
-99.36755361730298
 72
     2
 10
-171.6706601506036
 20
-98.8780449318706
 40
1.200000000000068
 50
155.9255157136061
 51
245.9255157136061
 73
     0
 72
     1
 10
-172.160168836036
 20
-97.78242581607969
 11
-135.0004204921356
 21
-81.17992290182224
 72
     2
 10
-134.9596281016829
 20
-81.27122449480543
 40
0.1000000000005689
 50
245.9255157137622
 51
335.9255157137622
 73
     0
 72
     1
 10
-134.8683265086997
 20
-81.23043210435275
 11
-133.8485167473813
 21
-83.51297192891593
 72
     2
 10
-133.9398183403645
 20
-83.55376431936861
 40
0.1000000000005689
 50
335.9255157137622
 51
425.9255157137621
 73
     0
 72
     1
 10
-133.8990259499118
 20
-83.64506591235182
 11
-135.1953102991433
 21
-84.22422927176535
 72
     2
 10
-135.236102689596
 20
-84.13292767878292
 40
0.0999999999999031
 50
65.92551571353827
 51
143.3967080043873
 73
     0
 72
     1
 10
-135.3163810113032
 20
-84.19255477886213
 11
-136.0453207280556
 21
-83.21115442551649
 72
     2
 10
-136.1255990497628
 20
-83.2707815255957
 40
0.0999999999999031
 50
36.60329199561267
 51
114.0744842864617
 73
     1
 72
     1
 10
-136.1663914402156
 20
-83.17947993261327
 11
-136.6826611272522
 21
-83.4101426621935
 72
     2
 10
-136.7694258262126
 20
-83.45986073752255
 40
0.1000000000005416
 50
330.1863452359784
 51
425.925515713238
 73
     0
 72
     1
 10
-136.728633435759
 20
-83.55116233050535
 11
-139.2850780392714
 21
-84.69334926318129
 72
     2
 10
-139.3258704297237
 20
-84.60204767019948
 40
0.0999999999991583
 50
65.92551571361513
 51
161.664686190885
 73
     0
 72
     1
 10
-139.4207936067737
 20
-84.63350542693092
 11
-165.7984369108339
 21
-96.41870095015997
 72
     2
 10
-165.7576445203813
 20
-96.51000254314123
 40
0.0999999999987566
 50
114.0744842866482
 51
179.8467389686894
 73
     1
 72
     1
 10
-165.8576441626232
 20
-96.50973505249908
 11
-165.860231515317
 21
-97.47700008000879
 72
     2
 10
-165.9602311575605
 20
-97.4767325893657
 40
0.1000000000003781
 50
0.1532610318536211
 51
65.92551571389094
 73
     0
 72
     1
 10
-165.9194387671082
 20
-97.56803418234881
 11
-166.4400828728457
 21
-97.80065134656684
 72
     2
 10
-166.4808752632985
 20
-97.70934975358338
 40
0.1000000000008372
 50
65.9255157137774
 51
132.0497259630822
 73
     0
 72
     1
 10
-166.5478527949121
 20
-97.78360613552536
 11
-167.2632338563289
 21
-97.13834903568454
 72
     2
 10
-167.3302113879416
 20
-97.2126054176266
 40
0.1000000000002843
 50
47.95027403733736
 51
114.0744842866531
 73
     1
 72
     1
 10
-167.3710037783948
 20
-97.12130382464398
 11
-167.8983735494325
 21
-97.35692593057207
 72
     2
 10
-167.8575811589792
 20
-97.44822752355377
 40
0.0999999999994616
 50
114.0744842869136
 51
179.846738968951
 73
     1
 72
     1
 10
-167.9575808012218
 20
-97.44796003291208
 11
-167.9601681539156
 21
-98.41522506042089
 72
     2
 10
-168.0601677961591
 20
-98.41495756977778
 40
0.1000000000003781
 50
0.1532610318536211
 51
65.92551571389094
 73
     0
 72
     1
 10
-168.0193754057067
 20
-98.5062591627609
 11
-168.5400195114448
 21
-98.73887632697893
 72
     2
 10
-168.5808119018973
 20
-98.64757473399583
 40
0.1000000000004201
 50
65.92551571381328
 51
132.0497259631219
 73
     0
 72
     1
 10
-168.6477894335107
 20
-98.72183111593745
 11
-169.3631704949279
 21
-98.07657401609754
 72
     2
 10
-169.4301480265407
 20
-98.1508303980396
 40
0.1000000000002843
 50
47.95027403733736
 51
114.0744842866531
 73
     1
 72
     1
 10
-169.4709404169939
 20
-98.05952880505698
 11
-170.6305737194347
 21
-98.57763821486948
 72
     2
 10
-170.5897813289823
 20
-98.66893980785258
 40
0.1000000000003751
 50
114.074484286109
 51
179.8467389681463
 73
     1
 72
     1
 10
-170.6897809712259
 20
-98.66867231720949
 11
-170.6933949662825
 21
-100.0197409351201
 72
     2
 10
-170.7933946085258
 20
-100.0194734444773
 40
0.1000000000001498
 50
0.1532610316504219
 51
65.925515713689
 73
     0
 72
     1
 10
-170.7526022180732
 20
-100.1107750374601
 11
-172.0630918166211
 21
-100.6962851215882
 97
        1
330
6804F
 75
     0
 76
     1
 52
30.07448428640825
 41
0.14
 77
     0
 78
     1
 53
75.07448428640825
 43
-101.05303617268
 44
-495.0998702148997
 45
-0.429503225070971
 46
0.1144868099548363
 79
     0
 98
        1
 10
-101.05303617268
 20
-495.0998702148997
  0
HATCH
  5
6801D
330
2
100
AcDbEntity
  8
HATCH
370
    50
100
AcDbHatch
 10
0.0
 20
0.0
 30
0.0
210
0.0
220
0.0
230
1.0
  2
ANSI31
 70
     0
 71
     1
 91
        1
 92
        1
 93
       36
 72
     2
 10
-202.2115336763063
 20
-117.428137099879
 40
0.0999999999997385
 50
65.92551571354963
 51
155.9255157135496
 73
     0
 72
     1
 10
-202.3028352692886
 20
-117.4689294903316
 11
-202.873928735627
 21
-116.1907071885768
 72
     2
 10
-201.7783096198354
 20
-115.7011985031442
 40
1.200000000000784
 50
155.9255157136095
 51
245.9255157136094
 73
     0
 72
     1
 10
-202.267818305268
 20
-114.6055793873526
 11
-165.1080699613671
 21
-98.00307647309615
 72
     2
 10
-165.067277570914
 20
-98.09437806607888
 40
0.1000000000003392
 50
245.925515713418
 51
335.9255157134179
 73
     0
 72
     1
 10
-164.9759759779312
 20
-98.05358567562576
 11
-163.9561662166138
 21
-100.3361255001898
 72
     2
 10
-164.0474678095965
 20
-100.376917890642
 40
0.0999999999999682
 50
335.9255157138937
 51
425.9255157138937
 73
     0
 72
     1
 10
-164.0066754191443
 20
-100.4682194836248
 11
-165.3029597683757
 21
-101.0473828430383
 72
     2
 10
-165.3437521588285
 20
-100.9560812500559
 40
0.0999999999999031
 50
65.92551571353827
 51
143.3967080043873
 73
     0
 72
     1
 10
-165.4240304805357
 20
-101.0157083501351
 11
-166.1529701972881
 21
-100.0343079967894
 72
     2
 10
-166.2332485189953
 20
-100.0939350968687
 40
0.0999999999999031
 50
36.60329199561267
 51
114.0744842864617
 73
     1
 72
     1
 10
-166.2740409094481
 20
-100.0026335038862
 11
-166.7903105964837
 21
-100.2332962334673
 72
     2
 10
-166.8770752954445
 20
-100.283014308796
 40
0.1000000000007313
 50
330.1863452363129
 51
425.9255157135722
 73
     0
 72
     1
 10
-166.8362829049915
 20
-100.3743159017792
 11
-169.3927275085029
 21
-101.5165028344551
 72
     2
 10
-169.4335198989553
 20
-101.4252012414725
 40
0.0999999999999859
 50
65.9255157137913
 51
161.6646861910542
 73
     0
 72
     1
 10
-169.5284430760061
 20
-101.4566589982039
 11
-195.9060863800664
 21
-113.2418545214329
 72
     2
 10
-195.8652939896131
 20
-113.3331561144146
 40
0.0999999999994616
 50
114.0744842869136
 51
179.846738968951
 73
     1
 72
     1
 10
-195.9652936318557
 20
-113.3328886237729
 11
-195.9678809845495
 21
-114.3001536512817
 72
     2
 10
-196.067880626793
 20
-114.2998861606386
 40
0.1000000000003781
 50
0.1532610318536211
 51
65.92551571389094
 73
     0
 72
     1
 10
-196.0270882363406
 20
-114.3911877536218
 11
-196.5477323420777
 21
-114.6238049178398
 72
     2
 10
-196.5885247325307
 20
-114.532503324856
 40
0.1000000000012414
 50
65.92551571373816
 51
132.0497259630481
 73
     0
 72
     1
 10
-196.6555022641446
 20
-114.6067597067983
 11
-197.3708833255609
 21
-113.9615026069584
 72
     2
 10
-197.4378608571743
 20
-114.0357589889
 40
0.1000000000004035
 50
47.95027403687264
 51
114.07448428619
 73
     1
 72
     1
 10
-197.4786532476268
 20
-113.9444573959169
 11
-198.006023018665
 21
-114.1800795018459
 72
     2
 10
-197.9652306282117
 20
-114.2713810948276
 40
0.0999999999994616
 50
114.0744842869136
 51
179.846738968951
 73
     1
 72
     1
 10
-198.0652302704543
 20
-114.2711136041859
 11
-198.0678176231481
 21
-115.2383786316938
 72
     2
 10
-198.1678172653923
 20
-115.2381111410512
 40
0.1000000000010874
 50
0.1532610315920014
 51
65.92551571362555
 73
     0
 72
     1
 10
-198.1270248749392
 20
-115.3294127340348
 11
-198.6476689806772
 21
-115.5620298982519
 72
     2
 10
-198.6884613711304
 20
-115.4707283052692
 40
0.1000000000002832
 50
65.92551571335019
 51
132.0497259626571
 73
     0
 72
     1
 10
-198.7554389027432
 20
-115.5449846872113
 11
-199.47081996416
 21
-114.8997275873714
 72
     2
 10
-199.5377974957736
 20
-114.9739839693134
 40
0.1000000000008302
 50
47.95027403691769
 51
114.0744842862225
 73
     1
 72
     1
 10
-199.5785898862263
 20
-114.8826823763299
 11
-200.7382231886672
 21
-115.4007917861424
 72
     2
 10
-200.6974307982148
 20
-115.4920933791255
 40
0.1000000000003751
 50
114.074484286109
 51
179.8467389681463
 73
     1
 72
     1
 10
-200.7974304404583
 20
-115.4918258884824
 11
-200.8010444355145
 21
-116.842894506394
 72
     2
 10
-200.901044077758
 20
-116.8426270157509
 40
0.1000000000003781
 50
0.1532610318536211
 51
65.92551571389094
 73
     0
 72
     1
 10
-200.8602516873056
 20
-116.933928608734
 11
-202.1707412858536
 21
-117.5194386928612
 97
        1
330
68052
 75
     0
 76
     1
 52
30.07448428640825
 41
0.14
 77
     0
 78
     1
 53
75.07448428640825
 43
-131.1606856419125
 44
-511.9230237861736
 45
-0.429503225070971
 46
0.1144868099548363
 79
     0
 98
        1
 10
-131.1606856419125
 20
-511.9230237861736
  0
HATCH
  5
6801E
330
2
100
AcDbEntity
  8
WOD-HT
370
    50
100
AcDbHatch
 10
0.0
 20
0.0
 30
0.0
210
0.0
220
0.0
230
1.0
  2
ANSI31
 70
     0
 71
     1
 91
        1
 92
        1
 93
        4
 72
     1
 10
-140.429843433405
 20
-85.86224431206188
 11
-136.0756312090597
 21
-83.4044331099219
 72
     1
 10
-136.0756312090597
 20
-83.4044331099219
 11
-134.8467256079893
 21
-85.58153922209454
 72
     1
 10
-134.8467256079893
 20
-85.58153922209454
 11
-139.2009378323346
 21
-88.0393504242345
 72
     1
 10
-139.2009378323346
 20
-88.0393504242345
 11
-140.429843433405
 21
-85.86224431206188
 97
        1
330
68057
 75
     0
 76
     1
 52
47.44331491972115
 41
4.0
 77
     0
 78
     1
 53
92.44331491972074
 43
960.4020557262773
 44
-656.9014153893465
 45
-0.4995454435517131
 46
-0.0213154832626978
 79
     0
 98
        1
 10
960.4020557262773
 20
-656.9014153893465
  0
HATCH
  5
68021
330
2
100
AcDbEntity
  8
HATCH
370
    50
100
AcDbHatch
 10
0.0
 20
0.0
 30
0.0
210
0.0
220
0.0
230
1.0
  2
ANSI31
 70
     0
 71
     1
 91
        1
 92
        1
 93
       36
 72
     2
 10
-262.5910112020269
 20
-151.1547375093334
 40
0.0999999999997385
 50
65.92551571354963
 51
155.9255157135496
 73
     0
 72
     1
 10
-262.6823127950092
 20
-151.1955298997861
 11
-263.2534062613476
 21
-149.9173075980313
 72
     2
 10
-262.157787145556
 20
-149.4277989125987
 40
1.200000000000784
 50
155.9255157136095
 51
245.9255157136094
 73
     0
 72
     1
 10
-262.6472958309887
 20
-148.3321797968071
 11
-225.4875474870877
 21
-131.7296768825506
 72
     2
 10
-225.4467550966346
 20
-131.8209784755333
 40
0.1000000000003392
 50
245.925515713418
 51
335.9255157134179
 73
     0
 72
     1
 10
-225.3554535036519
 20
-131.7801860850802
 11
-224.3356437423344
 21
-134.0627259096443
 72
     2
 10
-224.4269453353172
 20
-134.1035183000965
 40
0.0999999999999682
 50
335.9255157138937
 51
425.9255157138937
 73
     0
 72
     1
 10
-224.386152944865
 20
-134.1948198930792
 11
-225.6824372940964
 21
-134.7739832524928
 72
     2
 10
-225.7232296845491
 20
-134.6826816595104
 40
0.0999999999999031
 50
65.92551571353827
 51
143.3967080043873
 73
     0
 72
     1
 10
-225.8035080062563
 20
-134.7423087595896
 11
-226.5324477230087
 21
-133.7609084062439
 72
     2
 10
-226.6127260447159
 20
-133.8205355063231
 40
0.0999999999999031
 50
36.60329199561267
 51
114.0744842864617
 73
     1
 72
     1
 10
-226.6535184351687
 20
-133.7292339133407
 11
-227.1697881222044
 21
-133.9598966429218
 72
     2
 10
-227.2565528211652
 20
-134.0096147182505
 40
0.1000000000007383
 50
330.1863452363058
 51
425.9255157135688
 73
     0
 72
     1
 10
-227.2157604307121
 20
-134.1009163112337
 11
-229.7722050342235
 21
-135.2431032439096
 72
     2
 10
-229.812997424676
 20
-135.1518016509269
 40
0.0999999999999859
 50
65.9255157137913
 51
161.6646861910542
 73
     0
 72
     1
 10
-229.9079206017268
 20
-135.1832594076584
 11
-256.285563905787
 21
-146.9684549308874
 72
     2
 10
-256.2447715153337
 20
-147.0597565238691
 40
0.0999999999994746
 50
114.0744842869103
 51
179.8467389689428
 73
     1
 72
     1
 10
-256.3447711575763
 20
-147.0594890332274
 11
-256.3473585102701
 21
-148.0267540607362
 72
     2
 10
-256.4473581525136
 20
-148.0264865700931
 40
0.1000000000003781
 50
0.1532610318536211
 51
65.92551571389094
 73
     0
 72
     1
 10
-256.4065657620612
 20
-148.1177881630762
 11
-256.9272098677984
 21
-148.3504053272943
 72
     2
 10
-256.9680022582513
 20
-148.2591037343105
 40
0.1000000000012298
 50
65.92551571375302
 51
132.0497259630602
 73
     0
 72
     1
 10
-257.0349797898652
 20
-148.3333601162528
 11
-257.7503608512815
 21
-147.6881030164129
 72
     2
 10
-257.817338382895
 20
-147.7623593983545
 40
0.1000000000004225
 50
47.95027403686055
 51
114.0744842861751
 73
     1
 72
     1
 10
-257.8581307733475
 20
-147.6710578053714
 11
-258.3855005443856
 21
-147.9066799113004
 72
     2
 10
-258.3447081539323
 20
-147.9979815042821
 40
0.0999999999994746
 50
114.0744842869103
 51
179.8467389689428
 73
     1
 72
     1
 10
-258.4447077961749
 20
-147.9977140136404
 11
-258.4472951488687
 21
-148.9649790411483
 72
     2
 10
-258.5472947911129
 20
-148.9647115505057
 40
0.100000000001059
 50
0.1532610315920523
 51
65.9255157136404
 73
     0
 72
     1
 10
-258.5065024006599
 20
-149.0560131434892
 11
-259.0271465063979
 21
-149.2886303077064
 72
     2
 10
-259.0679388968511
 20
-149.1973287147237
 40
0.1000000000002818
 50
65.92551571333197
 51
132.0497259626505
 73
     0
 72
     1
 10
-259.1349164284638
 20
-149.2715850966658
 11
-259.8502974898806
 21
-148.6263279968259
 72
     2
 10
-259.9172750214942
 20
-148.7005843787678
 40
0.1000000000008281
 50
47.95027403689469
 51
114.0744842862143
 73
     1
 72
     1
 10
-259.958067411947
 20
-148.6092827857844
 11
-261.1177007143878
 21
-149.1273921955969
 72
     2
 10
-261.0769083239354
 20
-149.21869378858
 40
0.1000000000003751
 50
114.074484286109
 51
179.8467389681463
 73
     1
 72
     1
 10
-261.1769079661789
 20
-149.2184262979369
 11
-261.1805219612351
 21
-150.5694949158485
 72
     2
 10
-261.2805216034786
 20
-150.5692274252054
 40
0.1000000000003781
 50
0.1532610318536211
 51
65.92551571389094
 73
     0
 72
     1
 10
-261.2397292130263
 20
-150.6605290181885
 11
-262.5502188115742
 21
-151.2460391023157
 97
        1
330
6805F
 75
     0
 76
     1
 52
30.07448428640825
 41
0.14
 77
     0
 78
     1
 53
75.07448428640825
 43
-191.5401631676331
 44
-545.6496241956281
 45
-0.429503225070971
 46
0.1144868099548363
 79
     0
 98
        1
 10
-191.5401631676331
 20
-545.6496241956281
  0
HATCH
  5
68022
330
2
100
AcDbEntity
  8
WOD-HT
370
    50
100
AcDbHatch
 10
0.0
 20
0.0
 30
0.0
210
0.0
220
0.0
230
1.0
  2
ANSI31
 70
     0
 71
     1
 91
        1
 92
        1
 93
        4
 72
     1
 10
-256.7279522661702
 20
-148.4674536598565
 11
-254.5508461539975
 21
-147.238548058787
 72
     1
 10
-254.5508461539975
 20
-147.238548058787
 11
-247.3201792125
 21
-160.0658690427969
 72
     1
 10
-247.3201792125
 20
-160.0658690427969
 11
-249.4979732368942
 21
-161.2932099624902
 72
     1
 10
-249.4979732368942
 20
-161.2932099624902
 11
-256.7279522661702
 21
-148.4674536598565
 97
        1
330
68065
 75
     0
 76
     1
 52
47.44331491972115
 41
4.0
 77
     0
 78
     1
 53
92.44331491972074
 43
842.4178104362873
 44
-721.6067070125553
 45
-0.4995454435517131
 46
-0.0213154832626978
 79
     0
 98
        1
 10
842.4178104362873
 20
-721.6067070125553
  0
HATCH
  5
68023
330
2
100
AcDbEntity
  8
FILLINING
100
AcDbHatch
 10
0.0
 20
0.0
 30
0.0
210
0.0
220
0.0
230
1.0
  2
ANSI31
 70
     0
 71
     1
 91
        1
 92
        1
 93
        4
 72
     1
 10
-200.8061999374072
 20
-147.8436741024277
 11
-191.1274041486208
 21
-147.8436741024277
 72
     1
 10
-191.1274041486208
 20
-147.8436741024277
 11
-191.1274041486208
 21
-130.9925223812995
 72
     1
 10
-191.1274041486208
 20
-130.9925223812995
 11
-200.8061999374072
 21
-130.9925223812995
 72
     1
 10
-200.8061999374072
 20
-130.9925223812995
 11
-200.8061999374072
 21
-147.8436741024277
 97
        1
330
68070
 75
     0
 76
     1
 52
90.0
 41
6.0
 77
     0
 78
     1
 53
135.0
 43
1930.004065747004
 44
-551.2957457370901
 45
-0.5303300858899107
 46
-0.5303300858899106
 79
     0
 98
        1
 10
1930.004065747004
 20
-551.2957457370901
  0
HATCH
  5
68024
330
2
100
AcDbEntity
  8
WOD-HT
 48
2.0
370
    50
100
AcDbHatch
 10
0.0
 20
0.0
 30
0.0
210
0.0
220
0.0
230
1.0
  2
ANSI31
 70
     0
 71
     1
 91
        1
 92
       33
 93
        4
 72
     1
 10
-240.7433774338014
 20
-151.7149664202177
 11
-240.0560281438661
 21
-152.9345991663237
 72
     1
 10
-240.0560281438661
 20
-152.9345991663237
 11
-248.0726565626196
 21
-157.4525361181665
 72
     1
 10
-248.0726565626196
 20
-157.4525361181665
 11
-248.7360462008855
 21
-156.2194004142108
 72
     1
 10
-248.7360462008855
 20
-156.2194004142108
 11
-240.7510532075389
 21
-151.7493552597177
 97
        1
330
68071
 75
     0
 76
     1
 52
309.4120116591351
 41
10.0
 77
     0
 78
     1
 53
354.4120116591351
 43
2320.194423155879
 44
-1401.804551417733
 45
0.1217178189474215
 46
1.244059794604215
 79
     0
 98
        1
 10
2320.194423155879
 20
-1401.804551417733
  0
HATCH
  5
68025
330
2
100
AcDbEntity
  8
WOD-HT
 48
2.0
370
    50
100
AcDbHatch
 10
0.0
 20
0.0
 30
0.0
210
0.0
220
0.0
230
1.0
  2
ANSI31
 70
     0
 71
     0
 91
        1
 92
       33
 93
        4
 72
     1
 10
-240.7433774338019
 20
-151.7149664202177
 11
-240.0560281438661
 21
-152.9345991663237
 72
     1
 10
-240.0560281438661
 20
-152.9345991663237
 11
-232.0393997251103
 21
-148.4166622144855
 72
     1
 10
-232.0393997251103
 20
-148.4166622144855
 11
-232.7507086667151
 21
-147.2105324262281
 72
     1
 10
-232.7507086667151
 20
-147.2105324262281
 11
-240.7099844899935
 21
-151.7262101335034
 97
        0
 75
     0
 76
     1
 52
309.4120116591351
 41
10.0
 77
     0
 78
     1
 53
244.3966565888685
 43
-496.4957789823001
 44
-2989.39139465042
 45
-1.127259138924894
 46
0.5401729664749109
 79
     0
 98
        1
 10
-496.4957789823001
 20
-2989.39139465042
  0
HATCH
  5
68026
330
2
100
AcDbEntity
  8
WOD-HT
 48
2.0
370
    50
100
AcDbHatch
 10
0.0
 20
0.0
 30
0.0
210
0.0
220
0.0
230
1.0
  2
ANSI31
 70
     0
 71
     1
 91
        1
 92
       33
 93
        4
 72
     1
 10
-224.758039899631
 20
-142.7060984322349
 11
-224.0706906096956
 21
-143.925731178341
 72
     1
 10
-224.0706906096956
 20
-143.925731178341
 11
-232.0873190284491
 21
-148.4436681301838
 72
     1
 10
-232.0873190284491
 20
-148.4436681301838
 11
-232.7507086667151
 21
-147.2105324262281
 72
     1
 10
-232.7507086667151
 20
-147.2105324262281
 11
-224.7657156733684
 21
-142.7404872717349
 97
        1
330
68073
 75
     0
 76
     1
 52
309.4120116591351
 41
10.0
 77
     0
 78
     1
 53
354.4120116591351
 43
2336.179760690049
 44
-1392.795683429751
 45
0.1217178189474215
 46
1.244059794604215
 79
     0
 98
        1
 10
2336.179760690049
 20
-1392.795683429751
  0
HATCH
  5
68027
330
2
100
AcDbEntity
  8
WOD-HT
 48
2.0
370
    50
100
AcDbHatch
 10
0.0
 20
0.0
 30
0.0
210
0.0
220
0.0
230
1.0
  2
ANSI31
 70
     0
 71
     1
 91
        1
 92
       33
 93
        4
 72
     1
 10
-224.7580398996315
 20
-142.7060984322349
 11
-224.0706906096956
 21
-143.925731178341
 72
     1
 10
-224.0706906096956
 20
-143.925731178341
 11
-216.0540621909399
 21
-139.4077942265028
 72
     1
 10
-216.0540621909399
 20
-139.4077942265028
 11
-216.7653711325447
 21
-138.2016644382454
 72
     1
 10
-216.7653711325447
 20
-138.2016644382454
 11
-224.7246469558231
 21
-142.7173421455206
 97
        1
330
68074
 75
     0
 76
     1
 52
309.4120116591351
 41
10.0
 77
     0
 78
     1
 53
244.3966565888685
 43
-480.5104414481298
 44
-2980.382526662437
 45
-1.127259138924894
 46
0.5401729664749109
 79
     0
 98
        1
 10
-480.5104414481298
 20
-2980.382526662437
  0
HATCH
  5
68028
330
2
100
AcDbEntity
  8
WOD-HT
 48
2.0
370
    50
100
AcDbHatch
 10
0.0
 20
0.0
 30
0.0
210
0.0
220
0.0
230
1.0
  2
ANSI31
 70
     0
 71
     1
 91
        1
 92
       33
 93
        4
 72
     1
 10
-208.7727023654606
 20
-133.6972304442522
 11
-208.0853530755252
 21
-134.9168631903582
 72
     1
 10
-208.0853530755252
 20
-134.9168631903582
 11
-216.1019814942787
 21
-139.434800142201
 72
     1
 10
-216.1019814942787
 20
-139.434800142201
 11
-216.7653711325447
 21
-138.2016644382454
 72
     1
 10
-216.7653711325447
 20
-138.2016644382454
 11
-208.780378139198
 21
-133.7316192837522
 97
        1
330
68075
 75
     0
 76
     1
 52
309.4120116591351
 41
10.0
 77
     0
 78
     1
 53
354.4120116591351
 43
2352.24150232338
 44
-1383.922386893775
 45
0.1217178189474215
 46
1.244059794604215
 79
     0
 98
        1
 10
2352.24150232338
 20
-1383.922386893775
  0
HATCH
  5
68029
330
2
100
AcDbEntity
  8
WOD-HT
 48
2.0
370
    50
100
AcDbHatch
 10
0.0
 20
0.0
 30
0.0
210
0.0
220
0.0
230
1.0
  2
ANSI31
 70
     0
 71
     1
 91
        1
 92
       33
 93
        4
 72
     1
 10
-208.772702365461
 20
-133.6972304442522
 11
-208.0853530755252
 21
-134.9168631903582
 72
     1
 10
-208.0853530755252
 20
-134.9168631903582
 11
-200.0687246567695
 21
-130.39892623852
 72
     1
 10
-200.0687246567695
 20
-130.39892623852
 11
-200.7800335983743
 21
-129.1927964502626
 72
     1
 10
-200.7800335983743
 20
-129.1927964502626
 11
-208.7393094216527
 21
-133.7084741575379
 97
        1
330
68076
 75
     0
 76
     1
 52
309.4120116591351
 41
10.0
 77
     0
 78
     1
 53
244.3966565888685
 43
-464.5251039139593
 44
-2971.373658674454
 45
-1.127259138924894
 46
0.5401729664749109
 79
     0
 98
        1
 10
-464.5251039139593
 20
-2971.373658674454
  0
LINE
  5
68033
330
2
100
AcDbEntity
  8
WOD-HT
  6
HIDDEN
370
    50
100
AcDbLine
 10
-259.0156993555083
 20
-149.2541929417673
 30
0.0
 11
-259.0197736806794
 21
-149.2469634581991
 31
0.0
  0
LINE
  5
68034
330
2
100
AcDbEntity
  8
WOD-HT
  6
HIDDEN
370
    50
100
AcDbLine
 10
-254.5508461539975
 20
-147.238548058787
 30
0.0
 11
-254.5532503398926
 21
-147.2342820707533
 31
0.0
  0
LINE
  5
68038
102
{ACAD_REACTORS
330
6A5F0
102
}
330
2
100
AcDbEntity
  8
BETON
370
    50
100
AcDbLine
 10
-200.8061999374071
 20
-147.8436741024277
 30
0.0
 11
-200.8061999374072
 21
-211.884363301076
 31
0.0
  0
LINE
  5
68039
102
{ACAD_REACTORS
330
6A5F0
102
}
330
2
100
AcDbEntity
  8
BETON
370
    50
100
AcDbLine
 10
-178.8061999374072
 20
-199.183878247313
 30
0.0
 11
-178.8061999374072
 21
-166.1334371158698
 31
0.0
  0
LINE
  5
6803B
330
2
100
AcDbEntity
  8
BETON
370
    50
100
AcDbLine
 10
-11.53933145759469
 20
-147.8436741024277
 30
0.0
 11
-62.63674128060897
 21
-147.8436741024276
 31
0.0
  0
LINE
  5
6803C
102
{ACAD_REACTORS
330
6A5F0
102
}
330
2
100
AcDbEntity
  8
BETON
370
    50
100
AcDbLine
 10
-200.8061999374072
 20
-166.1334371158698
 30
0.0
 11
-114.6367412806089
 21
-166.1334371158698
 31
0.0
  0
LWPOLYLINE
  5
6803E
330
2
100
AcDbEntity
  8
AK-TIH
370
    50
100
AcDbPolyline
 90
        3
 70
     0
 43
0.0
 10
-200.8061999374072
 20
-131.8879503399509
 10
-202.5430070299448
 20
-132.5600195213626
 10
-202.5430070299448
 20
-212.8873102356076
  0
LWPOLYLINE
  5
68041
102
{ACAD_REACTORS
330
68018
102
}
330
2
100
AcDbEntity
  8
MABAT3
370
    50
100
AcDbPolyline
 90
        4
 70
     1
 43
0.0
 10
-230.8023117113239
 20
-136.5108651056041
 10
-226.4480994869786
 20
-134.0530539034641
 10
-225.2191938859086
 20
-136.2301600156367
 10
-229.5734061102539
 20
-138.6879712177767
  0
LINE
  5
68042
330
2
100
AcDbEntity
  8
MABAT3
100
AcDbLine
 10
-202.1926947859874
 20
-123.5396594739311
 30
0.0
 11
-131.9609940415637
 21
-83.95913017789428
 31
0.0
  0
LWPOLYLINE
  5
68043
102
{ACAD_REACTORS
330
68019
102
}
330
2
100
AcDbEntity
  8
MABAT3
370
    50
100
AcDbPolyline
 90
        4
 70
     1
 43
0.0
 10
-200.5309169081724
 20
-119.7103308292505
 10
-196.1767046838276
 20
-117.2525196271105
 10
-194.9477990827576
 20
-119.4296257392832
 10
-199.3020113071029
 20
-121.8874369414231
  0
LWPOLYLINE
  5
68044
102
{ACAD_REACTORS
330
6801A
102
}
330
2
100
AcDbEntity
  8
MABAT3
370
    50
100
AcDbPolyline
 90
        4
 70
     1
 43
0.0
 10
-170.4737660012208
 20
-102.7980237547353
 10
-166.119553776876
 20
-100.3402125525953
 10
-164.8906481758056
 20
-102.5173186647679
 10
-169.2448604001508
 20
-104.9751298669079
  0
LWPOLYLINE
  5
68045
102
{ACAD_REACTORS
330
6A39E
102
}
330
2
100
AcDbEntity
  8
CLAY
370
    50
100
AcDbPolyline
 90
       26
 70
     0
 43
0.0
 10
-211.3439162810132
 20
-123.5023659169516
 10
-225.9377812938792
 20
-130.0227191810288
 42
0.2951328942983046
 10
-225.9969885456707
 20
-130.1137532833679
 10
-225.9995758983645
 20
-131.0810183108776
 42
-0.2951328942983102
 10
-226.0587831501543
 20
-131.1720524132167
 10
-226.5794272558932
 20
-131.4046695774347
 42
-0.2968031128494221
 10
-226.6871971779578
 20
-131.3876243663942
 10
-227.4025782393751
 20
-130.7423672665533
 42
0.296803112849422
 10
-227.510348161441
 20
-130.7253220555128
 10
-228.0377179324791
 20
-130.9609441614409
 42
0.2951328942983209
 10
-228.0969251842684
 20
-131.0519782637809
 10
-228.0995125369631
 20
-132.0192432912897
 42
-0.2951328942983102
 10
-228.1587197887533
 20
-132.1102773936297
 10
-228.6793638944923
 20
-132.3428945578477
 42
-0.2968031128494221
 10
-228.7871338165582
 20
-132.3258493468072
 10
-229.5025148779755
 20
-131.6805922469663
 42
0.296803112849422
 10
-229.6102848000405
 20
-131.6635470359249
 10
-230.7699181024818
 20
-132.1816564457383
 42
0.2951328942983101
 10
-230.8291253542715
 20
-132.2726905480783
 10
-230.8327393493304
 20
-133.6237591659889
 42
-0.2951328942983284
 10
-230.8919466011189
 20
-133.714793268329
 10
-232.2024361996686
 20
-134.3003033524571
 42
-0.4142135623730951
 10
-232.3345301831027
 20
-134.2497941499266
 10
-232.9056236494402
 20
-132.9715718481718
 42
-0.4142135623730924
 10
-232.2995132190821
 20
-131.3864440469485
 10
-211.894613552125
 20
-122.2697944116869
  0
LWPOLYLINE
  5
6804E
102
{ACAD_REACTORS
330
6A39E
102
}
330
2
100
AcDbEntity
  8
CLAY
370
    50
100
AcDbPolyline
 90
       14
 70
     0
 43
0.0
 10
-211.894613552125
 20
-122.2697944116878
 10
-195.1397648751813
 20
-114.7839411326911
 42
-0.4142135623730951
 10
-195.0076708917463
 20
-114.8344503352216
 10
-193.9878611304289
 20
-117.1169901597847
 42
-0.4142135623730951
 10
-194.0383703329585
 20
-117.2490841432206
 10
-195.3346546821899
 20
-117.8282475026342
 42
-0.3515239862758888
 10
-195.4557253943498
 20
-117.7965730097309
 10
-196.1846651111022
 20
-116.8151726563853
 42
0.3515239862758764
 10
-196.3057358232622
 20
-116.7834981634821
 10
-196.8220055102988
 20
-117.0141608930632
 42
-0.4438656911931739
 10
-196.8679778188056
 20
-117.1551805613742
 10
-199.4244224223171
 20
-118.2973674940501
 42
-0.4438656911931651
 10
-199.5601379898212
 20
-118.2375236577988
 10
-211.3439162810132
 20
-123.5023659169516
  0
LWPOLYLINE
  5
6804F
102
{ACAD_REACTORS
330
6801C
102
}
330
2
100
AcDbEntity
  8
CLAY
370
    50
100
AcDbPolyline
 90
       36
 70
     1
 43
0.0
 10
-172.0630918166211
 20
-100.6962851215882
 42
-0.4142135623730906
 10
-172.1951858000566
 20
-100.6457759190577
 10
-172.7662792663945
 20
-99.36755361730298
 42
-0.4142135623730921
 10
-172.160168836036
 20
-97.78242581607969
 10
-135.0004204921356
 20
-81.17992290182224
 42
-0.4142135623730966
 10
-134.8683265086997
 20
-81.23043210435275
 10
-133.8485167473813
 20
-83.51297192891593
 42
-0.4142135623730906
 10
-133.8990259499118
 20
-83.64506591235182
 10
-135.1953102991433
 20
-84.22422927176535
 42
-0.3515239862758961
 10
-135.3163810113032
 20
-84.19255477886213
 10
-136.0453207280556
 20
-83.21115442551649
 42
0.3515239862758932
 10
-136.1663914402156
 20
-83.17947993261327
 10
-136.6826611272522
 20
-83.4101426621935
 42
-0.443865691193171
 10
-136.728633435759
 20
-83.55116233050535
 10
-139.2850780392714
 20
-84.69334926318129
 42
-0.4438656911931694
 10
-139.4207936067737
 20
-84.63350542693092
 10
-165.7984369108339
 20
-96.41870095015997
 42
0.2951328942983379
 10
-165.8576441626232
 20
-96.50973505249908
 10
-165.860231515317
 20
-97.47700008000879
 42
-0.2951328942983392
 10
-165.9194387671082
 20
-97.56803418234881
 10
-166.4400828728457
 20
-97.80065134656684
 42
-0.2968031128494228
 10
-166.5478527949121
 20
-97.78360613552536
 10
-167.2632338563289
 20
-97.13834903568454
 42
0.2968031128494321
 10
-167.3710037783948
 20
-97.12130382464398
 10
-167.8983735494325
 20
-97.35692593057207
 42
0.2951328942983389
 10
-167.9575808012218
 20
-97.44796003291208
 10
-167.9601681539156
 20
-98.41522506042089
 42
-0.2951328942983325
 10
-168.0193754057067
 20
-98.5062591627609
 10
-168.5400195114448
 20
-98.73887632697893
 42
-0.2968031128494286
 10
-168.6477894335107
 20
-98.72183111593745
 10
-169.3631704949279
 20
-98.07657401609754
 42
0.2968031128494321
 10
-169.4709404169939
 20
-98.05952880505698
 10
-170.6305737194347
 20
-98.57763821486948
 42
0.2951328942983365
 10
-170.6897809712259
 20
-98.66867231720949
 10
-170.6933949662825
 20
-100.0197409351201
 42
-0.2951328942983412
 10
-170.7526022180732
 20
-100.1107750374601
  0
LWPOLYLINE
  5
68052
102
{ACAD_REACTORS
330
6801D
102
}
330
2
100
AcDbEntity
  8
CLAY
370
    50
100
AcDbPolyline
 90
       36
 70
     1
 43
0.0
 10
-202.1707412858536
 20
-117.5194386928612
 42
-0.4142135623730906
 10
-202.3028352692886
 20
-117.4689294903316
 10
-202.873928735627
 20
-116.1907071885768
 42
-0.4142135623730921
 10
-202.267818305268
 20
-114.6055793873526
 10
-165.1080699613671
 20
-98.00307647309615
 42
-0.4142135623730966
 10
-164.9759759779312
 20
-98.05358567562576
 10
-163.9561662166138
 20
-100.3361255001898
 42
-0.4142135623730906
 10
-164.0066754191443
 20
-100.4682194836248
 10
-165.3029597683757
 20
-101.0473828430383
 42
-0.3515239862758961
 10
-165.4240304805357
 20
-101.0157083501351
 10
-166.1529701972881
 20
-100.0343079967894
 42
0.3515239862758932
 10
-166.2740409094481
 20
-100.0026335038862
 10
-166.7903105964837
 20
-100.2332962334673
 42
-0.443865691193171
 10
-166.8362829049915
 20
-100.3743159017792
 10
-169.3927275085029
 20
-101.5165028344551
 42
-0.4438656911931694
 10
-169.5284430760061
 20
-101.4566589982039
 10
-195.9060863800664
 20
-113.2418545214329
 42
0.2951328942983379
 10
-195.9652936318557
 20
-113.3328886237729
 10
-195.9678809845495
 20
-114.3001536512817
 42
-0.2951328942983392
 10
-196.0270882363406
 20
-114.3911877536218
 10
-196.5477323420777
 20
-114.6238049178398
 42
-0.2968031128494228
 10
-196.6555022641446
 20
-114.6067597067983
 10
-197.3708833255609
 20
-113.9615026069584
 42
0.2968031128494321
 10
-197.4786532476268
 20
-113.9444573959169
 10
-198.006023018665
 20
-114.1800795018459
 42
0.2951328942983389
 10
-198.0652302704543
 20
-114.2711136041859
 10
-198.0678176231481
 20
-115.2383786316938
 42
-0.2951328942983325
 10
-198.1270248749392
 20
-115.3294127340348
 10
-198.6476689806772
 20
-115.5620298982519
 42
-0.2968031128494286
 10
-198.7554389027432
 20
-115.5449846872113
 10
-199.47081996416
 20
-114.8997275873714
 42
0.2968031128494321
 10
-199.5785898862263
 20
-114.8826823763299
 10
-200.7382231886672
 20
-115.4007917861424
 42
0.2951328942983365
 10
-200.7974304404583
 20
-115.4918258884824
 10
-200.8010444355145
 20
-116.842894506394
 42
-0.2951328942983412
 10
-200.8602516873056
 20
-116.933928608734
  0
LWPOLYLINE
  5
68057
102
{ACAD_REACTORS
330
6801E
102
}
330
2
100
AcDbEntity
  8
MABAT3
370
    50
100
AcDbPolyline
 90
        4
 70
     1
 43
0.0
 10
-140.429843433405
 20
-85.86224431206188
 10
-136.0756312090597
 20
-83.4044331099219
 10
-134.8467256079893
 20
-85.58153922209454
 10
-139.2009378323346
 20
-88.0393504242345
  0
LINE
  5
6805C
330
2
100
AcDbEntity
  8
MABAT3
 48
50.0
100
AcDbLine
 10
-184.8652701839007
 20
-130.9925223812995
 30
0.0
 11
-150.9741777389024
 21
-111.8924954251613
 31
0.0
  0
LINE
  5
6805D
330
2
100
AcDbEntity
  8
MABAT3
100
AcDbLine
 10
-197.9924795624108
 20
-130.9925223812995
 30
0.0
 11
-202.1926947859874
 21
-123.5396594739311
 31
0.0
  0
LINE
  5
6805E
330
2
100
AcDbEntity
  8
MABAT3
100
AcDbLine
 10
-241.0702479577344
 20
-170.7045063828288
 30
0.0
 11
-248.4347927819503
 21
-157.6368562676741
 31
0.0
  0
LWPOLYLINE
  5
6805F
102
{ACAD_REACTORS
330
68021
102
}
330
2
100
AcDbEntity
  8
CLAY
370
    50
100
AcDbPolyline
 90
       36
 70
     1
 43
0.0
 10
-262.5502188115742
 20
-151.2460391023157
 42
-0.4142135623730906
 10
-262.6823127950092
 20
-151.1955298997861
 10
-263.2534062613476
 20
-149.9173075980313
 42
-0.4142135623730921
 10
-262.6472958309887
 20
-148.3321797968071
 10
-225.4875474870877
 20
-131.7296768825506
 42
-0.4142135623730966
 10
-225.3554535036519
 20
-131.7801860850802
 10
-224.3356437423344
 20
-134.0627259096443
 42
-0.4142135623730906
 10
-224.386152944865
 20
-134.1948198930792
 10
-225.6824372940964
 20
-134.7739832524928
 42
-0.3515239862758961
 10
-225.8035080062563
 20
-134.7423087595896
 10
-226.5324477230087
 20
-133.7609084062439
 42
0.3515239862758932
 10
-226.6535184351687
 20
-133.7292339133407
 10
-227.1697881222044
 20
-133.9598966429218
 42
-0.443865691193171
 10
-227.2157604307121
 20
-134.1009163112337
 10
-229.7722050342235
 20
-135.2431032439096
 42
-0.4438656911931694
 10
-229.9079206017268
 20
-135.1832594076584
 10
-256.285563905787
 20
-146.9684549308874
 42
0.2951328942983379
 10
-256.3447711575763
 20
-147.0594890332274
 10
-256.3473585102701
 20
-148.0267540607362
 42
-0.2951328942983392
 10
-256.4065657620612
 20
-148.1177881630762
 10
-256.9272098677984
 20
-148.3504053272943
 42
-0.2968031128494228
 10
-257.0349797898652
 20
-148.3333601162528
 10
-257.7503608512815
 20
-147.6881030164129
 42
0.2968031128494321
 10
-257.8581307733475
 20
-147.6710578053714
 10
-258.3855005443856
 20
-147.9066799113004
 42
0.2951328942983389
 10
-258.4447077961749
 20
-147.9977140136404
 10
-258.4472951488687
 20
-148.9649790411483
 42
-0.2951328942983325
 10
-258.5065024006599
 20
-149.0560131434892
 10
-259.0271465063979
 20
-149.2886303077064
 42
-0.2968031128494286
 10
-259.1349164284638
 20
-149.2715850966658
 10
-259.8502974898806
 20
-148.6263279968259
 42
0.2968031128494321
 10
-259.958067411947
 20
-148.6092827857844
 10
-261.1177007143878
 20
-149.1273921955969
 42
0.2951328942983365
 10
-261.1769079661789
 20
-149.2184262979369
 10
-261.1805219612351
 20
-150.5694949158485
 42
-0.2951328942983412
 10
-261.2397292130263
 20
-150.6605290181885
  0
LINE
  5
68064
330
2
100
AcDbEntity
  8
MABAT3
100
AcDbLine
 10
-241.0702479577344
 20
-170.7045063828288
 30
0.0
 11
-202.5430070299448
 21
-148.9916819449433
 31
0.0
  0
LWPOLYLINE
  5
68065
102
{ACAD_REACTORS
330
68022
102
}
330
2
100
AcDbEntity
  8
MABAT3
370
    50
100
AcDbPolyline
 90
        4
 70
     1
 43
0.0
 10
-256.7279522661702
 20
-148.4674536598565
 10
-254.5508461539975
 20
-147.238548058787
 10
-247.3201792125
 20
-160.0658690427969
 10
-249.4979732368942
 20
-161.2932099624902
  0
LINE
  5
68066
330
2
100
AcDbEntity
  8
TIN
100
AcDbLine
 10
-249.2696399315186
 20
-156.1559679231665
 30
0.0
 11
-222.4174974349846
 21
-141.0228869714026
 31
0.0
  0
LINE
  5
68067
330
2
100
AcDbEntity
  8
TIN
100
AcDbLine
 10
-252.0513553687546
 20
-151.9250557941775
 30
0.0
 11
-224.897684568361
 21
-136.6220423227966
 31
0.0
  0
LWPOLYLINE
  5
68070
102
{ACAD_REACTORS
330
68023
102
}
330
2
100
AcDbEntity
  8
MABAT3
370
    50
100
AcDbPolyline
 90
        4
 70
     1
 43
0.0
 10
-200.8061999374072
 20
-147.8436741024277
 10
-191.1274041486208
 20
-147.8436741024277
 10
-191.1274041486208
 20
-130.9925223812995
 10
-200.8061999374072
 20
-130.9925223812995
  0
LWPOLYLINE
  5
68071
102
{ACAD_REACTORS
330
68024
102
}
330
2
100
AcDbEntity
  8
MABAT3
100
AcDbPolyline
 90
        5
 70
     0
 43
0.0
 10
-240.7433774338014
 20
-151.7149664202177
 10
-240.0560281438661
 20
-152.9345991663237
 10
-248.0726565626196
 20
-157.4525361181665
 10
-248.7360462008855
 20
-156.2194004142108
 10
-240.7510532075389
 20
-151.7493552597177
  0
LWPOLYLINE
  5
68073
102
{ACAD_REACTORS
330
68026
102
}
330
2
100
AcDbEntity
  8
MABAT3
100
AcDbPolyline
 90
        5
 70
     0
 43
0.0
 10
-224.758039899631
 20
-142.7060984322349
 10
-224.0706906096956
 20
-143.925731178341
 10
-232.0873190284491
 20
-148.4436681301838
 10
-232.7507086667151
 20
-147.2105324262281
 10
-224.7657156733684
 20
-142.7404872717349
  0
LWPOLYLINE
  5
68074
102
{ACAD_REACTORS
330
68027
102
}
330
2
100
AcDbEntity
  8
MABAT3
100
AcDbPolyline
 90
        5
 70
     0
 43
0.0
 10
-224.7580398996315
 20
-142.7060984322349
 10
-224.0706906096956
 20
-143.925731178341
 10
-216.0540621909399
 20
-139.4077942265028
 10
-216.7653711325447
 20
-138.2016644382454
 10
-224.7246469558231
 20
-142.7173421455206
  0
LWPOLYLINE
  5
68075
102
{ACAD_REACTORS
330
68028
102
}
330
2
100
AcDbEntity
  8
MABAT3
100
AcDbPolyline
 90
        5
 70
     0
 43
0.0
 10
-208.7727023654606
 20
-133.6972304442522
 10
-208.0853530755252
 20
-134.9168631903582
 10
-216.1019814942787
 20
-139.434800142201
 10
-216.7653711325447
 20
-138.2016644382454
 10
-208.780378139198
 20
-133.7316192837522
  0
LWPOLYLINE
  5
68076
102
{ACAD_REACTORS
330
68029
102
}
330
2
100
AcDbEntity
  8
MABAT3
100
AcDbPolyline
 90
        5
 70
     0
 43
0.0
 10
-208.772702365461
 20
-133.6972304442522
 10
-208.0853530755252
 20
-134.9168631903582
 10
-200.0687246567695
 20
-130.39892623852
 10
-200.7800335983743
 20
-129.1927964502626
 10
-208.7393094216527
 20
-133.7084741575379
  0
LINE
  5
68077
330
2
100
AcDbEntity
  8
TIN
100
AcDbLine
 10
-222.4174974349846
 20
-141.0228869714026
 30
0.0
 11
-224.9103539976792
 21
-136.5995616843536
 31
0.0
  0
LINE
  5
680A4
330
2
100
AcDbEntity
  8
TIN
100
AcDbLine
 10
-250.8239312313853
 20
-154.1029974800373
 30
0.0
 11
-223.6702604309916
 21
-138.7999840086556
 31
0.0
  0
LINE
  5
680AA
330
2
100
AcDbEntity
  8
MABAT3
 48
50.0
100
AcDbLine
 10
-197.9924795624108
 20
-130.9925223812995
 30
0.0
 11
-184.8652701839007
 21
-130.9925223812995
 31
0.0
  0
LINE
  5
680AB
330
2
100
AcDbEntity
  8
MABAT3
100
AcDbLine
 10
-150.9741777389024
 20
-111.8924954251613
 30
0.0
 11
-124.5964492173472
 21
-97.0267802930496
 31
0.0
  0
HATCH
  5
680B0
330
2
100
AcDbEntity
  8
WOD-HT
370
    50
100
AcDbHatch
 10
0.0
 20
0.0
 30
0.0
210
0.0
220
0.0
230
1.0
  2
ANSI31
 70
     0
 71
     1
 91
        1
 92
        1
 93
        4
 72
     1
 10
-251.9201009032799
 20
-151.6007496393319
 11
-254.3779121054199
 21
-147.2465374149867
 72
     1
 10
-254.3779121054199
 20
-147.2465374149867
 11
-252.2008059932472
 21
-146.0176318139172
 72
     1
 10
-252.2008059932472
 20
-146.0176318139172
 11
-249.7429947911073
 21
-150.3718440382624
 72
     1
 10
-249.7429947911073
 20
-150.3718440382624
 11
-251.9201009032799
 21
-151.6007496393319
 97
        1
330
680B1
 75
     0
 76
     1
 52
137.4433149197211
 41
4.0
 77
     0
 78
     1
 53
182.4433149197209
 43
319.1190701740047
 44
949.2311495203496
 45
0.0213154832626978
 46
-0.4995454435517131
 79
     0
 98
        1
 10
319.1190701740047
 20
949.2311495203496
  0
LWPOLYLINE
  5
680B1
102
{ACAD_REACTORS
330
680B0
102
}
330
2
100
AcDbEntity
  8
MABAT3
370
    50
100
AcDbPolyline
 90
        4
 70
     1
 43
0.0
 10
-251.9201009032799
 20
-151.6007496393319
 10
-254.3779121054199
 20
-147.2465374149867
 10
-252.2008059932472
 20
-146.0176318139172
 10
-249.7429947911073
 20
-150.3718440382624
  0
TEXT
  5
6A28E
330
2
100
AcDbEntity
  8
TEXT03
100
AcDbText
 10
-141.3248493287272
 20
-115.55826944064
 30
0.0
 40
2.0
  1
 
  7
ORON
 72
     1
 11
-135.3724683763462
 21
-114.55826944064
 31
0.0
100
AcDbText
 73
     2
  0
TEXT
  5
6A2C6
330
2
100
AcDbEntity
  8
TEXT03
100
AcDbText
 10
-195.0331326620377
 20
-97.69246515581071
 30
0.0
 40
1.6
  1

  7
ORON
100
AcDbText
  0
LEADER
  5
6A2C7
330
2
100
AcDbEntity
  8
TEXT03
100
AcDbLeader
  3
LEADER-10
 40
15.0
 76
     3
 10
-170.341540139725
 20
-103.0322726107901
 30
0.0
 10
-186.1249238085521
 20
-98.11348793238213
 30
0.0
 10
-195.5180832066142
 20
-98.11348793238213
 30
0.0
213
4.697365185055105
223
0.0
233
0.0
  0
LEADER
  5
6A2C9
330
2
100
AcDbEntity
  8
TEXT03
100
AcDbLeader
  3
LEADER-10
 40
15.0
 76
     3
 10
-158.6716732334984
 20
-103.7772915744194
 30
0.0
 10
-142.5145646865935
 20
-116.0250235873054
 30
0.0
 10
-128.9856927862178
 20
-116.0250235873054
 30
0.0
211
-1.0
221
0.0
231
0.0
210
0.0
220
0.0
230
-1.0
213
-4.697365185055105
223
0.0
233
0.0
  0
LWPOLYLINE
  5
6A2CA
330
2
100
AcDbEntity
  8
TEXT03
100
AcDbPolyline
 90
        2
 70
     1
 43
0.75
 10
-170.0171495509748
 20
-158.8723726011662
 42
-1.0
 10
-170.7671495509748
 20
-158.8723726011662
 42
-1.0
  0
TEXT
  5
6A2CB
330
2
100
AcDbEntity
  8
TEXT03
100
AcDbText
 10
-163.7920692856718
 20
-172.4590117606452
 30
0.0
 40
2.001
  1
 
 41
1.1
  7
ORON
 72
     4
 11
-155.3545192856718
 21
-171.7920117606452
 31
0.0
100
AcDbText
  0
LWPOLYLINE
  5
6A2CC
330
2
100
AcDbEntity
  8
TEXT03
100
AcDbPolyline
 90
        3
 70
     0
 43
0.0
 10
-170.3921495509748
 20
-158.8723726011662
 10
-164.6179162142889
 20
-173.1464997375278
 10
-146.1403982968349
 20
-173.1464997375278
  0
LWPOLYLINE
  5
6A2CE
330
2
100
AcDbEntity
  8
MABAT2
100
AcDbPolyline
 90
        6
 70
     0
 43
0.0
 10
-11.54020098317846
 20
-169.561767534117
 10
-11.54139881681908
 20
-155.7532941895383
 10
-6.058101520592344
 20
-153.2904453175028
 10
-17.34938508909431
 20
-155.2814032574601
 10
-11.53933145759469
 20
-152.6730313505663
 10
-11.53933145759469
 20
-138.4071390477185
  0
HATCH
  5
6A39E
330
2
100
AcDbEntity
  8
HATCH
100
AcDbHatch
 10
0.0
 20
0.0
 30
0.0
210
0.0
220
0.0
230
1.0
  2
_USER
 70
     0
 71
     1
 91
        1
 92
        7
 72
     1
 73
     1
 93
       32
 10
-211.894613552125
 20
-122.2697944116878
 42
0.0
 10
-232.2995132190822
 20
-131.3864440469485
 42
0.4142135623730613
 10
-232.9056236494402
 20
-132.9715718481717
 42
0.0
 10
-232.3345301831024
 20
-134.2497941499273
 42
0.414213562373163
 10
-232.2024361996679
 20
-134.3003033524568
 42
0.0
 10
-230.8919466011203
 20
-133.7147932683296
 42
0.2951328942978788
 10
-230.8327393493304
 20
-133.6237591659907
 42
0.0
 10
-230.8289523986712
 20
-132.2080322184011
 42
0.0
 10
-229.550852051092
 20
-131.6369932396374
 42
0.0
 10
-228.7871338165585
 20
-132.3258493468069
 42
0.2968031128492115
 10
-228.6793638944927
 20
-132.3428945578479
 42
0.0
 10
-228.1587197887535
 20
-132.1102773936298
 42
0.2951328942981214
 10
-228.0995125369631
 20
-132.01924329129
 42
0.0
 10
-228.096752228668
 20
-130.9873199341035
 42
0.0
 10
-227.4509154124912
 20
-130.6987682592247
 42
0.0
 10
-226.6871971779579
 20
-131.387624366394
 42
0.2968031128493839
 10
-226.5794272558935
 20
-131.4046695774349
 42
0.0
 10
-226.0587831501544
 20
-131.1720524132167
 42
0.2951328942983836
 10
-225.9995758983645
 20
-131.0810183108777
 42
0.0
 10
-225.9968155900704
 20
-130.0490949536924
 42
0.0
 10
-211.3439162810132
 20
-123.5023659169516
 42
0.0
 10
-199.3784501138093
 20
-118.1563478257384
 42
-0.4438656911934716
 10
-199.424422422317
 20
-118.2973674940501
 42
0.0
 10
-196.867977818806
 20
-117.1551805613743
 42
2.252933758651276
 10
-197.0036933863096
 20
-117.095336725123
 42
0.0
 10
-196.2324962777556
 20
-116.7507756661052
 42
0.0
 10
-195.4557253943499
 20
-117.7965730097309
 42
0.3515239862758936
 10
-195.3346546821899
 20
-117.8282475026342
 42
0.0
 10
-194.0383703329587
 20
-117.2490841432207
 42
0.4142135623730791
 10
-193.9878611304287
 20
-117.116990159785
 42
0.0
 10
-195.0076708917465
 20
-114.8344503352211
 42
0.4142135623731857
 10
-195.1397648751817
 20
-114.7839411326913
 42
0.0
 97
        2
330
6804E
330
68045
 75
     0
 76
     0
 52
60.0
 41
0.5
 77
     0
 78
     1
 53
60.0
 43
280.1323598226586
 44
-54.5409871377708
 45
-0.4330127018922193
 46
0.25
 79
     0
 47
0.1100364792689063
 98
        1
 10
-203.9735538142563
 20
-119.1712102726817
  0
TEXT
  5
6A3A0
330
2
100
AcDbEntity
  8
TEXT04
100
AcDbText
 10
-169.5692778351207
 20
-185.8206766468959
 30
0.0
 40
4.0
  1
%%u
  7
ORONB
 72
     4
 11
-162.2645159303588
 21
-184.2206766468959
 31
0.0
100
AcDbText
  0
TEXT
  5
6A3A1
330
2
100
AcDbEntity
  8
TEXT04
100
AcDbText
 10
-224.5979282776283
 20
-185.5540099802293
 30
0.0
 40
4.0
  1
%%U
  7
ORONB
 72
     4
 11
-218.912213991914
 21
-184.2206766468959
 31
0.0
100
AcDbText
  0
LWPOLYLINE
  5
6A3A3
102
{ACAD_REACTORS
330
6A8E4
102
}
330
2
100
AcDbEntity
  8
MABAT2
100
AcDbPolyline
 90
        6
 70
     0
 43
0.0
 10
-26.25400752435234
 20
-45.54566229904444
 10
-36.26829577527427
 20
-36.03840357898256
 10
-34.27863036257064
 20
-30.36624302494457
 10
-40.60971239938782
 20
-39.92523870368047
 10
-38.50058039427642
 20
-33.91592182148918
 10
-49.36239471761576
 20
-23.60225619548931
  0
TEXT
  5
6A3A5
330
2
100
AcDbEntity
  8
TEXT03
100
AcDbText
 10
-167.7833045603511
 20
-190.2884135953824
 30
0.0
 40
1.6
  1
 
  7
ORON
100
AcDbText
  0
LEADER
  5
6A3A6
330
2
100
AcDbEntity
  8
TEXT03
100
AcDbLeader
  3
LEADER-10
 40
15.0
 76
     3
 10
-177.3061999374067
 20
-186.0007528799258
 30
0.0
 10
-167.8018363827607
 20
-190.797247311973
 30
0.0
 10
-157.7940055989947
 20
-190.797247311973
 30
0.0
211
-1.0
221
0.0
231
0.0
210
0.0
220
0.0
230
-1.0
213
-4.697365185055105
223
0.0
233
0.0
  0
LINE
  5
6A3AF
330
2
100
AcDbEntity
  8
AK-TIH
100
AcDbLine
 10
-177.3061999374067
 20
-167.6334371158697
 30
0.0
 11
-87.84585160330744
 21
-167.6334371158697
 31
0.0
  0
LINE
  5
6A3B0
330
2
100
AcDbEntity
  8
AK-TIH
100
AcDbLine
 10
-177.3061999374067
 20
-167.6334371158697
 30
0.0
 11
-177.3061999374067
 21
-198.3178528435283
 31
0.0
  0
LINE
  5
6A3B1
330
2
100
AcDbEntity
  8
MABAT2
100
AcDbLine
 10
-177.7328604518111
 20
-167.1626114728642
 30
0.0
 11
-178.8061999374072
 21
-166.1334371158698
 31
0.0
  0
LWPOLYLINE
  5
6A3B2
330
2
100
AcDbEntity
  8
MABAT2
100
AcDbPolyline
 90
        3
 70
     0
 43
0.0
 10
-177.7328604518111
 20
-168.4126114728644
 10
-177.7328604518111
 20
-167.1626114728642
 10
-176.4828604518111
 20
-167.1626114728644
  0
LWPOLYLINE
  5
6A3B3
102
{ACAD_REACTORS
330
6A5F0
102
}
330
2
100
AcDbEntity
  8
MABAT2
100
AcDbPolyline
 90
        6
 70
     0
 43
0.0
 10
-205.7731550873455
 20
-214.7526107092025
 10
-190.7228795812444
 20
-206.0615892667196
 10
-185.8483412442664
 20
-209.5788395857367
 10
-193.2182031823867
 20
-200.7957801440588
 10
-188.0542600327493
 20
-204.5232482328406
 10
-175.6996348908302
 20
-197.3903020814168
  0
LINE
  5
6A3C8
330
2
100
AcDbEntity
  8
BETON
100
AcDbLine
 10
-62.63674128060904
 20
-166.1334371158698
 30
0.0
 11
-62.63674128060897
 21
-147.8436741024276
 31
0.0
  0
LINE
  5
6A3C9
330
2
100
AcDbEntity
  8
BETON
100
AcDbLine
 10
-114.6367412806089
 20
-166.1334371158698
 30
0.0
 11
-114.636741280609
 21
-147.8436741024277
 31
0.0
  0
LINE
  5
6A3CA
330
2
100
AcDbEntity
  8
BETON
370
    50
100
AcDbLine
 10
-114.636741280609
 20
-147.8436741024277
 30
0.0
 11
-200.8061999374071
 21
-147.8436741024277
 31
0.0
  0
LINE
  5
6A3CB
330
2
100
AcDbEntity
  8
BETON
370
    50
100
AcDbLine
 10
-62.63674128060904
 20
-166.1334371158698
 30
0.0
 11
-11.54049837807531
 21
-166.1334371158698
 31
0.0
  0
LINE
  5
6A3CD
330
2
100
AcDbEntity
  8
AK-TIH
100
AcDbLine
 10
-114.6367412806089
 20
-166.1334371158698
 30
0.0
 11
-114.6367412806089
 21
-167.6334371158697
 31
0.0
  0
LWPOLYLINE
  5
6A3CE
330
2
100
AcDbEntity
  8
MABAT2
100
AcDbPolyline
 90
        3
 70
     0
 43
0.0
 10
-114.8535491768473
 20
-166.370948507227
 10
-116.1035491768473
 20
-166.3709485072267
 10
-116.1035491768473
 20
-167.4001228642214
  0
LINE
  5
6A3D0
330
2
100
AcDbEntity
  8
AK-TIH
100
AcDbLine
 10
-62.63674128060898
 20
-166.1334371158698
 30
0.0
 11
-62.63674128060898
 21
-167.6334371158697
 31
0.0
  0
LWPOLYLINE
  5
6A3D1
330
2
100
AcDbEntity
  8
MABAT2
100
AcDbPolyline
 90
        3
 70
     0
 43
0.0
 10
-62.41993338437061
 20
-166.370948507227
 10
-61.66993338437061
 20
-166.3709485072267
 10
-61.66993338437061
 20
-167.4001228642214
  0
LINE
  5
6A3D2
330
2
100
AcDbEntity
  8
AK-TIH
100
AcDbLine
 10
-62.63674128060897
 20
-167.6334371158697
 30
0.0
 11
-11.54036825866125
 21
-167.6334371158696
 31
0.0
  0
LINE
  5
6A3D4
330
2
100
AcDbEntity
  8
HIDDEN
100
AcDbLine
 10
-62.63674128060904
 20
-166.1334371158698
 30
0.0
 11
-114.6367412806089
 21
-166.1334371158697
 31
0.0
  0
LINE
  5
6A3D6
330
2
100
AcDbEntity
  8
MABAT
100
AcDbLine
 10
-62.63674128060904
 20
-167.6334371158697
 30
0.0
 11
-114.6367412806089
 21
-167.6334371158697
 31
0.0
  0
LINE
  5
6A3D8
330
2
100
AcDbEntity
  8
MABAT8
100
AcDbLine
 10
-113.136741280609
 20
-166.1334371158697
 30
0.0
 11
-113.1367412806089
 21
-147.8436741024276
 31
0.0
  0
LINE
  5
6A3D9
330
2
100
AcDbEntity
  8
MABAT8
100
AcDbLine
 10
-112.136741280609
 20
-167.1334371158696
 30
0.0
 11
-112.1367412806088
 21
-116.0801104313782
 31
0.0
  0
LINE
  5
6A3DA
330
2
100
AcDbEntity
  8
MABAT8
100
AcDbLine
 10
-109.636741280609
 20
-167.1334371158696
 30
0.0
 11
-109.6367412806088
 21
-115.4241466444205
 31
0.0
  0
LINE
  5
6A3DB
330
2
100
AcDbEntity
  8
MABAT8
100
AcDbLine
 10
-105.636741280609
 20
-167.1334371158696
 30
0.0
 11
-105.6367412806088
 21
-114.3746045852882
 31
0.0
  0
LINE
  5
6A3DC
330
2
100
AcDbEntity
  8
MABAT8
100
AcDbLine
 10
-98.63674128060907
 20
-167.1334371158696
 30
0.0
 11
-98.63674128060877
 21
-112.5379059818067
 31
0.0
  0
LINE
  5
6A3DD
330
2
100
AcDbEntity
  8
HIDDEN
100
AcDbLine
 10
-62.63674128060904
 20
-147.8436741024276
 30
0.0
 11
-114.6367412806089
 21
-147.8436741024276
 31
0.0
  0
LINE
  5
6A3DE
330
2
100
AcDbEntity
  8
MABAT8
100
AcDbLine
 10
-64.13674128060893
 20
-166.1334371158697
 30
0.0
 11
-64.13674128060904
 21
-147.8436741024276
 31
0.0
  0
LINE
  5
6A433
330
2
100
AcDbEntity
  8
MABAT
100
AcDbLine
 10
-113.136741280609
 20
-167.1334371158696
 30
0.0
 11
-113.1367412806091
 21
-116.3424959461613
 31
0.0
  0
LINE
  5
6A435
330
2
100
AcDbEntity
  8
MABAT
100
AcDbLine
 10
-64.13674128060899
 20
-167.1334371158697
 30
0.0
 11
-113.1367412806089
 21
-167.1334371158696
 31
0.0
  0
LWPOLYLINE
  5
6A436
330
2
100
AcDbEntity
  8
MABAT2
100
AcDbPolyline
 90
        4
 70
     1
 43
0.0
 10
-125.8867412806089
 20
-170.6334371158696
 10
-50.88674128060898
 20
-170.6334371158696
 10
-50.88674128060898
 20
-171.6334371158696
 10
-125.8867412806089
 20
-171.6334371158696
  0
LINE
  5
6A437
330
2
100
AcDbEntity
  8
MABAT2
100
AcDbLine
 10
-122.8867412806089
 20
-171.8334371158696
 30
0.0
 11
-122.8867412806089
 21
-171.6334371158696
 31
0.0
  0
LINE
  5
6A43A
330
2
100
AcDbEntity
  8
MABAT2
100
AcDbLine
 10
-122.3867412806089
 20
-171.8334371158696
 30
0.0
 11
-122.3867412806089
 21
-171.6334371158696
 31
0.0
  0
LINE
  5
6A43C
330
2
100
AcDbEntity
  8
HIDDEN
370
    50
100
AcDbLine
 10
-122.8867412806091
 20
-165.5744475906378
 30
0.0
 11
-122.3867412806091
 21
-165.5744475906379
 31
0.0
  0
LINE
  5
6A442
330
2
100
AcDbEntity
  8
HIDDEN
100
AcDbLine
 10
-122.8867412806091
 20
-167.6334371158697
 30
0.0
 11
-122.8867412806091
 21
-165.5744475906378
 31
0.0
  0
LINE
  5
6A443
330
2
100
AcDbEntity
  8
HIDDEN
100
AcDbLine
 10
-122.3867412806091
 20
-167.6334371158697
 30
0.0
 11
-122.3867412806091
 21
-165.5744475906379
 31
0.0
  0
LWPOLYLINE
  5
6A447
330
2
100
AcDbEntity
  8
MABAT2
100
AcDbPolyline
 90
        2
 70
     0
 43
0.0
 10
-121.8867412806089
 20
-171.8334371158696
 10
-123.3867412806089
 20
-171.8334371158696
  0
LWPOLYLINE
  5
6A448
330
2
100
AcDbEntity
  8
MABAT2
100
AcDbPolyline
 90
        2
 70
     0
 43
0.0
 10
-121.8867412806089
 20
-172.3334371158696
 10
-123.3867412806089
 20
-172.3334371158696
  0
LINE
  5
6A449
330
2
100
AcDbEntity
  8
MABAT2
100
AcDbLine
 10
-123.3867412806089
 20
-172.3334371158696
 30
0.0
 11
-123.3867412806089
 21
-171.8334371158696
 31
0.0
  0
LINE
  5
6A44A
330
2
100
AcDbEntity
  8
MABAT2
100
AcDbLine
 10
-121.8867412806089
 20
-172.3334371158696
 30
0.0
 11
-121.8867412806089
 21
-171.8334371158696
 31
0.0
  0
LINE
  5
6A44F
330
2
100
AcDbEntity
  8
MABAT2
100
AcDbLine
 10
-122.8867412806089
 20
-170.6334371158696
 30
0.0
 11
-122.8867412806091
 21
-167.6334371158697
 31
0.0
  0
LINE
  5
6A450
330
2
100
AcDbEntity
  8
MABAT2
100
AcDbLine
 10
-122.3867412806089
 20
-170.6334371158696
 30
0.0
 11
-122.3867412806091
 21
-167.6334371158697
 31
0.0
  0
LINE
  5
6A451
330
2
100
AcDbEntity
  8
HIDDEN
100
AcDbLine
 10
-122.8867412806091
 20
-165.5744475906378
 30
0.0
 11
-123.2739081092273
 21
-164.2546107624368
 31
0.0
  0
LINE
  5
6A452
330
2
100
AcDbEntity
  8
HIDDEN
100
AcDbLine
 10
-122.386741280609
 20
-165.5744475906378
 30
0.0
 11
-121.9995744519908
 21
-164.2546107624368
 31
0.0
  0
LINE
  5
6A453
330
2
100
AcDbEntity
  8
MABAT2
100
AcDbLine
 10
-53.88674128060904
 20
-171.8334371158696
 30
0.0
 11
-53.88674128060904
 21
-171.6334371158696
 31
0.0
  0
LINE
  5
6A454
330
2
100
AcDbEntity
  8
MABAT2
100
AcDbLine
 10
-54.38674128060904
 20
-171.8334371158696
 30
0.0
 11
-54.38674128060904
 21
-171.6334371158696
 31
0.0
  0
LINE
  5
6A455
330
2
100
AcDbEntity
  8
HIDDEN
370
    50
100
AcDbLine
 10
-53.88674128060881
 20
-165.5744475906378
 30
0.0
 11
-54.38674128060887
 21
-165.5744475906379
 31
0.0
  0
LINE
  5
6A456
330
2
100
AcDbEntity
  8
HIDDEN
100
AcDbLine
 10
-53.88674128060888
 20
-167.6334371158697
 30
0.0
 11
-53.88674128060881
 21
-165.5744475906378
 31
0.0
  0
LINE
  5
6A457
330
2
100
AcDbEntity
  8
HIDDEN
100
AcDbLine
 10
-54.38674128060887
 20
-167.6334371158697
 30
0.0
 11
-54.38674128060887
 21
-165.5744475906379
 31
0.0
  0
LWPOLYLINE
  5
6A458
330
2
100
AcDbEntity
  8
MABAT2
100
AcDbPolyline
 90
        2
 70
     0
 43
0.0
 10
-54.88674128060904
 20
-171.8334371158696
 10
-53.38674128060905
 20
-171.8334371158696
  0
LWPOLYLINE
  5
6A459
330
2
100
AcDbEntity
  8
MABAT2
100
AcDbPolyline
 90
        2
 70
     0
 43
0.0
 10
-54.88674128060904
 20
-172.3334371158696
 10
-53.38674128060905
 20
-172.3334371158696
  0
LINE
  5
6A45A
330
2
100
AcDbEntity
  8
MABAT2
100
AcDbLine
 10
-53.38674128060905
 20
-172.3334371158696
 30
0.0
 11
-53.38674128060905
 21
-171.8334371158696
 31
0.0
  0
LINE
  5
6A45B
330
2
100
AcDbEntity
  8
MABAT2
100
AcDbLine
 10
-54.88674128060904
 20
-172.3334371158696
 30
0.0
 11
-54.88674128060904
 21
-171.8334371158696
 31
0.0
  0
LINE
  5
6A45C
330
2
100
AcDbEntity
  8
MABAT2
100
AcDbLine
 10
-53.88674128060898
 20
-170.6334371158696
 30
0.0
 11
-53.88674128060888
 21
-167.6334371158697
 31
0.0
  0
LINE
  5
6A45D
330
2
100
AcDbEntity
  8
MABAT2
100
AcDbLine
 10
-54.38674128060899
 20
-170.6334371158696
 30
0.0
 11
-54.38674128060887
 21
-167.6334371158697
 31
0.0
  0
LINE
  5
6A45E
330
2
100
AcDbEntity
  8
HIDDEN
100
AcDbLine
 10
-53.88674128060881
 20
-165.5744475906378
 30
0.0
 11
-53.49957445199066
 21
-164.2546107624368
 31
0.0
  0
LINE
  5
6A45F
330
2
100
AcDbEntity
  8
HIDDEN
100
AcDbLine
 10
-54.38674128060893
 20
-165.5744475906378
 30
0.0
 11
-54.77390810922708
 21
-164.2546107624368
 31
0.0
  0
HATCH
  5
6A480
330
2
100
AcDbEntity
  8
WOD-HT
370
    50
100
AcDbHatch
 10
0.0
 20
0.0
 30
0.0
210
0.0
220
0.0
230
1.0
  2
ANSI31
 70
     0
 71
     1
 91
        1
 92
        1
 93
        4
 72
     1
 10
-83.94355611686391
 20
-53.89123123380262
 11
-79.63687899023859
 21
-51.35104775086282
 72
     1
 10
-79.63687899023859
 20
-51.35104775086282
 11
-78.36678724876779
 21
-53.50438631417454
 72
     1
 10
-78.36678724876779
 20
-53.50438631417454
 11
-82.67346437539309
 21
-56.04456979711526
 72
     1
 10
-82.67346437539309
 20
-56.04456979711526
 11
-83.94355611686391
 21
-53.89123123380262
 97
        1
330
6A481
 75
     0
 76
     1
 52
48.53314335428095
 41
4.0
 77
     0
 78
     1
 53
93.53314335428043
 43
1027.550342494901
 44
-603.8893389223345
 45
-0.4990496586246146
 46
-0.030812955500176
 79
     0
 98
        1
 10
1027.550342494901
 20
-603.8893389223345
  0
LWPOLYLINE
  5
6A481
102
{ACAD_REACTORS
330
6A480
102
}
330
2
100
AcDbEntity
  8
MABAT3
370
    50
100
AcDbPolyline
 90
        4
 70
     1
 43
0.0
 10
-83.94355611686391
 20
-53.89123123380262
 10
-79.63687899023859
 20
-51.35104775086282
 10
-78.36678724876779
 20
-53.50438631417454
 10
-82.67346437539309
 20
-56.04456979711526
  0
LINE
  5
6A49A
330
2
100
AcDbEntity
  8
MABAT3
100
AcDbLine
 10
-88.4021603243806
 20
-59.41064743050669
 30
0.0
 11
-40.2376330368728
 21
-32.26653069794522
 31
0.0
  0
LINE
  5
6A49B
330
2
100
AcDbEntity
  8
MABAT3
100
AcDbLine
 10
-81.03761550016413
 20
-72.47829754566201
 30
0.0
 11
-28.859399160219
 21
-43.07218323307195
 31
0.0
  0
LINE
  5
6A49C
330
2
100
AcDbEntity
  8
HIDDEN
100
AcDbLine
 10
-81.03761550016409
 20
-72.478297545662
 30
0.0
 11
-124.5964492173472
 21
-97.02678029304955
 31
0.0
  0
LINE
  5
6A49D
330
2
100
AcDbEntity
  8
HIDDEN
100
AcDbLine
 10
-88.41398052612172
 20
-59.41730894996797
 30
0.0
 11
-131.9609940415637
 21
-83.95913017789428
 31
0.0
  0
LINE
  5
6A49E
330
2
100
AcDbEntity
  8
MABAT
100
AcDbLine
 10
-113.1367412806091
 20
-116.3424959461613
 30
0.0
 11
-133.7128017545938
 21
-79.8323292705292
 31
0.0
  0
LINE
  5
6A4A0
330
2
100
AcDbEntity
  8
MABAT3
100
AcDbLine
 10
-131.9609940415637
 20
-83.95913017789428
 30
0.0
 11
-124.5964492173472
 21
-97.0267802930496
 31
0.0
  0
LINE
  5
6A4A1
330
2
100
AcDbEntity
  8
MABAT3
100
AcDbLine
 10
-88.4021603243806
 20
-59.41064743050669
 30
0.0
 11
-81.03761550016413
 21
-72.47829754566201
 31
0.0
  0
TEXT
  5
6A4C4
330
2
100
AcDbEntity
  8
TEXT03
100
AcDbText
 10
-179.9384413453241
 20
-54.81807311196114
 30
0.0
 40
1.6
  1
 
  7
ORON
100
AcDbText
  0
LEADER
  5
6A4C5
330
2
100
AcDbEntity
  8
TEXT03
100
AcDbLeader
  3
LEADER-10
 40
15.0
 76
     3
 10
-149.9486740717104
 20
-61.71692135741906
 30
0.0
 10
-166.4146288141606
 20
-55.23909588853257
 30
0.0
 10
-180.6917052492868
 20
-55.23909588853257
 30
0.0
213
4.697365185055105
223
0.0
233
0.0
  0
TEXT
  5
6A4C6
330
2
100
AcDbEntity
  8
TEXT03
100
AcDbText
 10
-181.3693477612176
 20
-45.58434638767319
 30
0.0
 40
1.6
  1
  
  7
ORON
100
AcDbText
  0
LEADER
  5
6A4C7
330
2
100
AcDbEntity
  8
TEXT03
100
AcDbLeader
  3
LEADER-10
 40
15.0
 76
     3
 10
-141.5991834543837
 20
-55.14667716413341
 30
0.0
 10
-160.0224800161939
 20
-46.16176383958658
 30
0.0
 10
-182.2790738411878
 20
-46.16176383958658
 30
0.0
213
4.697365185055105
223
0.0
233
0.0
  0
TEXT
  5
6A4C9
330
2
100
AcDbEntity
  8
TEXT03
100
AcDbText
 10
-56.98809746928712
 20
-117.5570423529396
 30
0.0
 40
1.6
  1
  
  7
ORON
100
AcDbText
  0
LEADER
  5
6A4CA
330
2
100
AcDbEntity
  8
TEXT03
100
AcDbLeader
  3
LEADER-10
 40
15.0
 76
     3
 10
-73.29479852476857
 20
-123.3503963277182
 30
0.0
 10
-57.51141485594144
 20
-118.4316116493102
 30
0.0
 10
-26.20354674094005
 20
-118.4316116493102
 30
0.0
211
-1.0
221
0.0
231
0.0
210
0.0
220
0.0
230
-1.0
213
-4.697365185055105
223
0.0
233
0.0
  0
LINE
  5
6A4CD
330
2
100
AcDbEntity
  8
MABAT8
100
AcDbLine
 10
-98.63674128060877
 20
-112.5379059818067
 30
0.0
 11
-120.9877011118998
 21
-72.8783574577932
 31
0.0
  0
LINE
  5
6A4CE
330
2
100
AcDbEntity
  8
MABAT8
100
AcDbLine
 10
-105.6367412806088
 20
-114.3746045852882
 30
0.0
 11
-127.2494971925498
 21
-76.02492527409914
 31
0.0
  0
LINE
  5
6A4CF
330
2
100
AcDbEntity
  8
MABAT8
100
AcDbLine
 10
-109.6367412806088
 20
-115.4241466444205
 30
0.0
 11
-130.8276663814926
 21
-77.82296402627394
 31
0.0
  0
LINE
  5
6A4D0
330
2
100
AcDbEntity
  8
MABAT8
100
AcDbLine
 10
-112.1367412806088
 20
-116.0801104313782
 30
0.0
 11
-133.0640221245818
 21
-78.94673824638316
 31
0.0
  0
DIMENSION
  5
6A4F4
330
2
100
AcDbEntity
  8
DIMH
100
AcDbDimension
  2
*D8
 10
-77.23358356126135
 20
-80.24656561517488
 30
0.0
 11
-99.31386656510269
 21
-90.96855714987929
 31
0.0
 70
    33
  1
{\Fmonosi.shx;50}
 71
     5
 42
48.99999999999991
  3
DIM10A
100
AcDbAlignedDimension
 13
-113.1367412806091
 23
-116.3424959461613
 33
0.0
 14
-70.44908423776968
 24
-92.2849828537215
 34
0.0
  0
DIMENSION
  5
6A50B
330
2
100
AcDbEntity
  8
DIMV
100
AcDbDimension
  2
*D9
 10
-69.68795136749651
 20
-167.6334371158697
 30
0.0
 11
-71.18795136749648
 21
-169.1334371158697
 31
0.0
 70
    32
 71
     5
 42
3.0
  3
DIM10A
100
AcDbAlignedDimension
 13
-72.97337036949335
 23
-170.6334371158696
 33
0.0
 14
-72.97337036949335
 24
-167.6334371158697
 34
0.0
 50
90.0
100
AcDbRotatedDimension
  0
TEXT
  5
6A525
330
2
100
AcDbEntity
  8
TEXT03
100
AcDbText
 10
-140.1650555325491
 20
-171.7953223060797
 30
0.0
 40
1.6
  1

  7
ORON
100
AcDbText
  0
LEADER
  5
6A526
330
2
100
AcDbEntity
  8
TEXT03
100
AcDbLeader
  3
LEADER-10
 40
15.0
 76
     3
 10
-122.8867412806091
 20
-168.7354309011017
 30
0.0
 10
-132.0178822279643
 20
-172.353586607729
 30
0.0
 10
-140.7431004951197
 20
-172.353586607729
 30
0.0
213
4.697365185055105
223
0.0
233
0.0
  0
DIMENSION
  5
6A529
330
2
100
AcDbEntity
  8
DIMH
100
AcDbDimension
  2
*D10
 10
-88.63674128060898
 20
-139.5182322848487
 30
0.0
 11
-132.9714706090078
 21
-138.0182322848487
 31
0.0
 70
    32
  1
{\Fmonosi.shx;.}
 71
     5
 42
88.66945865679776
  3
DIM10A
100
AcDbAlignedDimension
 13
-177.3061999374067
 23
-167.6334371158697
 33
0.0
 14
-88.63674128060898
 24
-167.1334371158696
 34
0.0
100
AcDbRotatedDimension
  0
TEXT
  5
6A548
330
2
100
AcDbEntity
  8
TEXT03
100
AcDbText
 10
-176.283168986112
 20
-138.3986848705833
 30
0.0
 40
1.6
  1
" 43 ( )     
  7
ORON
100
AcDbText
  0
HATCH
  5
6A5F0
330
2
100
AcDbEntity
  8
HATCH9
100
AcDbHatch
 10
0.0
 20
0.0
 30
0.0
210
0.0
220
0.0
230
1.0
  2
_USER
 70
     0
 71
     1
 91
        1
 92
        7
 72
     0
 73
     1
 93
        8
 10
-178.8061999374072
 20
-166.1334371158698
 10
-200.8061999374071
 20
-166.1334371158697
 10
-200.8061999374071
 20
-211.884363301076
 10
-190.7228795812444
 20
-206.0615892667195
 10
-185.8483412442664
 20
-209.5788395857367
 10
-193.2182031823869
 20
-200.7957801440587
 10
-188.0542600327493
 20
-204.5232482328406
 10
-178.8061999374072
 20
-199.183878247313
 97
        4
330
6803C
330
68038
330
6A3B3
330
68039
 75
     0
 76
     0
 52
45.0
 41
4.0
 77
     0
 78
     1
 53
45.0
 43
280.1323598226586
 44
-16.41610615397917
 45
-2.828427124746189
 46
2.82842712474619
 79
     0
 47
0.5187039646372785
 98
        1
 10
-185.1527060494429
 20
-175.1433575330828
  0
LINE
  5
6A66C
330
2
100
AcDbEntity
  8
MABAT
100
AcDbLine
 10
-148.7402939582751
 20
-69.09369632733626
 30
0.0
 11
-141.3489102544008
 21
-65.20169399212844
 31
0.0
  0
ARC
  5
6A66D
330
2
100
AcDbEntity
  8
MABAT
100
AcDbCircle
 10
-140.4856909931523
 20
-63.95416123921955
 30
0.0
 40
9.723851656303466
100
AcDbArc
 50
134.7822054125078
 51
211.9074898858928
  0
ARC
  5
6A66E
330
2
100
AcDbEntity
  8
MABAT
100
AcDbCircle
 10
-99.33033914752453
 20
-42.54433093031241
 30
0.0
 40
9.922044034296151
100
AcDbArc
 50
25.04971265629672
 51
101.5925460021264
  0
LINE
  5
6A66F
330
2
100
AcDbEntity
  8
MABAT
100
AcDbLine
 10
-101.3241786571518
 20
-32.82468269447788
 30
0.0
 11
-102.2560090539512
 21
-31.05502393878504
 31
0.0
  0
LINE
  5
6A670
330
2
100
AcDbEntity
  8
MABAT
100
AcDbLine
 10
-147.3353063051674
 20
-57.0522730112633
 30
0.0
 11
-148.2671367019668
 21
-55.28261425557042
 31
0.0
  0
LINE
  5
6A671
330
2
100
AcDbEntity
  8
MABAT
100
AcDbLine
 10
-148.2671367019668
 20
-55.28261425557042
 30
0.0
 11
-146.4974779462738
 21
-54.350783858771
 31
0.0
  0
LINE
  5
6A672
330
2
100
AcDbEntity
  8
MABAT
100
AcDbLine
 10
-147.4293083430733
 20
-52.58112510307807
 30
0.0
 11
-104.9574982064435
 21
-30.21719557989152
 31
0.0
  0
LINE
  5
6A673
330
2
100
AcDbEntity
  8
MABAT
100
AcDbLine
 10
-146.4974779462738
 20
-54.35078385877103
 30
0.0
 11
-147.4293083430733
 21
-52.58112510307807
 31
0.0
  0
LINE
  5
6A674
330
2
100
AcDbEntity
  8
MABAT
100
AcDbLine
 10
-104.0256678096441
 20
-31.98685433558442
 30
0.0
 11
-104.9574982064435
 21
-30.21719557989152
 31
0.0
  0
LINE
  5
6A675
330
2
100
AcDbEntity
  8
MABAT
100
AcDbLine
 10
-97.99227073992449
 20
-42.37184927054208
 30
0.0
 11
-90.34155502040857
 21
-38.34329323295481
 31
0.0
  0
LINE
  5
6A676
330
2
100
AcDbEntity
  8
HIDDEN
100
AcDbLine
 10
-97.86394908677046
 20
-42.30101932705683
 30
0.0
 11
-141.2205886012468
 21
-65.13086404864319
 31
0.0
  0
LINE
  5
6A677
330
2
100
AcDbEntity
  8
MABAT
100
AcDbLine
 10
-145.5421470399982
 20
-57.23822959151029
 30
0.0
 11
-102.1855075255218
 21
-34.40838486992393
 31
0.0
  0
LINE
  5
6A678
330
2
100
AcDbEntity
  8
MABAT
100
AcDbLine
 10
-104.0256678096441
 20
-31.98685433558438
 30
0.0
 11
-102.2560090539512
 21
-31.05502393878501
 31
0.0
  0
LINE
  5
6A679
330
2
100
AcDbEntity
  8
MABAT2
100
AcDbLine
 10
-104.025667809644
 20
-31.98685433558436
 30
0.0
 11
-146.4974779462739
 21
-54.35078385877101
 31
0.0
  0
LINE
  5
6A67A
330
2
100
AcDbEntity
  8
MABAT2
100
AcDbLine
 10
-147.3353063051674
 20
-57.05227301126336
 30
0.0
 11
-101.3241786571518
 21
-32.82468269447791
 31
0.0
  0
LWPOLYLINE
  5
6A67B
330
2
100
AcDbEntity
  8
MABAT2
100
AcDbPolyline
 90
        4
 70
     1
 43
0.0
 10
-144.6338171526753
 20
-57.89010137015697
 10
-143.7489877748288
 20
-57.42418617175739
 10
-140.0216661876312
 20
-64.50282119452906
 10
-140.9064955654776
 20
-64.96873639292869
  0
LWPOLYLINE
  5
6A67C
330
2
100
AcDbEntity
  8
MABAT2
100
AcDbPolyline
 90
        4
 70
     1
 43
0.0
 10
-143.3065730859055
 20
-57.19122857255744
 10
-142.421743708059
 20
-56.72531337415782
 10
-138.6944221208615
 20
-63.8039483969295
 10
-139.5792514987079
 20
-64.26986359532913
  0
LWPOLYLINE
  5
6A67D
330
2
100
AcDbEntity
  8
MABAT2
100
AcDbPolyline
 90
        4
 70
     1
 43
0.0
 10
-141.9793290191358
 20
-56.49235577495784
 10
-141.0944996412893
 20
-56.02644057655826
 10
-137.3671780540918
 20
-63.10507559932993
 10
-138.2520074319382
 20
-63.57099079772956
  0
LWPOLYLINE
  5
6A67E
330
2
100
AcDbEntity
  8
MABAT2
100
AcDbPolyline
 90
        4
 70
     1
 43
0.0
 10
-140.6520849523662
 20
-55.7934829773583
 10
-139.7672555745197
 20
-55.32756777895869
 10
-136.0399339873221
 20
-62.4062028017304
 10
-136.9247633651685
 20
-62.87211800013001
  0
LWPOLYLINE
  5
6A67F
330
2
100
AcDbEntity
  8
MABAT2
100
AcDbPolyline
 90
        4
 70
     1
 43
0.0
 10
-139.3248408855965
 20
-55.09461017975874
 10
-138.4400115077499
 20
-54.62869498135916
 10
-134.7126899205524
 20
-61.70733000413084
 10
-135.5975192983988
 20
-62.17324520253046
  0
LWPOLYLINE
  5
6A680
330
2
100
AcDbEntity
  8
MABAT2
100
AcDbPolyline
 90
        4
 70
     1
 43
0.0
 10
-137.9975968188267
 20
-54.39573738215917
 10
-137.1127674409802
 20
-53.9298221837596
 10
-133.3854458537827
 20
-61.00845720653129
 10
-134.2702752316291
 20
-61.4743724049309
  0
LWPOLYLINE
  5
6A681
330
2
100
AcDbEntity
  8
MABAT2
100
AcDbPolyline
 90
        4
 70
     1
 43
0.0
 10
-136.670352752057
 20
-53.69686458455963
 10
-135.7855233742105
 20
-53.23094938616005
 10
-132.058201787013
 20
-60.30958440893172
 10
-132.9430311648594
 20
-60.77549960733133
  0
LWPOLYLINE
  5
6A682
330
2
100
AcDbEntity
  8
MABAT2
100
AcDbPolyline
 90
        4
 70
     1
 43
0.0
 10
-135.3431086852874
 20
-52.99799178696008
 10
-134.4582793074409
 20
-52.5320765885605
 10
-130.7309577202433
 20
-59.61071161133215
 10
-131.6157870980897
 20
-60.07662680973179
  0
LWPOLYLINE
  5
6A683
330
2
100
AcDbEntity
  8
MABAT2
100
AcDbPolyline
 90
        4
 70
     1
 43
0.0
 10
-134.0158646185176
 20
-52.29911898936052
 10
-133.1310352406712
 20
-51.83320379096093
 10
-129.4037136534736
 20
-58.91183881373262
 10
-130.28854303132
 20
-59.37775401213222
  0
LWPOLYLINE
  5
6A684
330
2
100
AcDbEntity
  8
MABAT2
100
AcDbPolyline
 90
        4
 70
     1
 43
0.0
 10
-132.6886205517479
 20
-51.60024619176097
 10
-131.8037911739014
 20
-51.13433099336138
 10
-128.0764695867039
 20
-58.21296601613306
 10
-128.9612989645503
 20
-58.67888121453268
  0
LWPOLYLINE
  5
6A685
330
2
100
AcDbEntity
  8
MABAT2
100
AcDbPolyline
 90
        4
 70
     1
 43
0.0
 10
-131.3613764849783
 20
-50.90137339416139
 10
-130.4765471071318
 20
-50.43545819576183
 10
-126.7492255199342
 20
-57.51409321853349
 10
-127.6340548977806
 20
-57.98000841693312
  0
LWPOLYLINE
  5
6A686
330
2
100
AcDbEntity
  8
MABAT2
100
AcDbPolyline
 90
        4
 70
     1
 43
0.0
 10
-130.0341324182086
 20
-50.20250059656185
 10
-129.149303040362
 20
-49.73658539816227
 10
-125.4219814531645
 20
-56.81522042093394
 10
-126.3068108310109
 20
-57.28113561933357
  0
LWPOLYLINE
  5
6A687
330
2
100
AcDbEntity
  8
MABAT2
100
AcDbPolyline
 90
        4
 70
     1
 43
0.0
 10
-128.7068883514389
 20
-49.50362779896231
 10
-127.8220589735924
 20
-49.03771260056271
 10
-124.0947373863948
 20
-56.1163476233344
 10
-124.9795667642412
 20
-56.58226282173401
  0
LWPOLYLINE
  5
6A688
330
2
100
AcDbEntity
  8
MABAT2
100
AcDbPolyline
 90
        4
 70
     1
 43
0.0
 10
-127.3796442846692
 20
-48.80475500136267
 10
-126.4948149068227
 20
-48.33883980296308
 10
-122.7674933196251
 20
-55.41747482573477
 10
-123.6523226974715
 20
-55.88339002413437
  0
LWPOLYLINE
  5
6A689
330
2
100
AcDbEntity
  8
MABAT2
100
AcDbPolyline
 90
        4
 70
     1
 43
0.0
 10
-126.0524002178994
 20
-48.10588220376313
 10
-125.1675708400529
 20
-47.63996700536353
 10
-121.4402492528554
 20
-54.71860202813521
 10
-122.3250786307018
 20
-55.18451722653482
  0
LWPOLYLINE
  5
6A68A
330
2
100
AcDbEntity
  8
MABAT2
100
AcDbPolyline
 90
        4
 70
     1
 43
0.0
 10
-124.7251561511298
 20
-47.40700940616354
 10
-123.8403267732833
 20
-46.94109420776396
 10
-120.1130051860857
 20
-54.01972923053563
 10
-120.9978345639321
 20
-54.48564442893527
  0
LWPOLYLINE
  5
6A68B
330
2
100
AcDbEntity
  8
MABAT2
100
AcDbPolyline
 90
        4
 70
     1
 43
0.0
 10
-123.3979120843601
 20
-46.70813660856397
 10
-122.5130827065136
 20
-46.24222141016438
 10
-118.785761119316
 20
-53.32085643293607
 10
-119.6705904971624
 20
-53.78677163133568
  0
LWPOLYLINE
  5
6A68C
330
2
100
AcDbEntity
  8
MABAT2
100
AcDbPolyline
 90
        4
 70
     1
 43
0.0
 10
-122.0706680175904
 20
-46.00926381096442
 10
-121.1858386397439
 20
-45.54334861256482
 10
-117.4585170525463
 20
-52.6219836353365
 10
-118.3433464303927
 20
-53.0878988337361
  0
LWPOLYLINE
  5
6A68D
330
2
100
AcDbEntity
  8
MABAT2
100
AcDbPolyline
 90
        4
 70
     1
 43
0.0
 10
-103.0468363938918
 20
-35.99208704536988
 10
-102.1620070160453
 20
-35.5261718469703
 10
-98.43468542884782
 20
-42.60480686974197
 10
-99.3195148066942
 20
-43.07072206814159
  0
DIMENSION
  5
6A68E
330
2
100
AcDbEntity
  8
DIMV
100
AcDbDimension
  2
*D11
 10
-100.643374783178
 20
-27.94229249980911
 30
0.0
 11
-92.32740274041274
 21
-40.51586036990648
 31
0.0
 70
    33
  1
25-30
 71
     5
 42
29.99999999999999
  3
DIM10A
100
AcDbAlignedDimension
 13
-90.40930591237509
 23
-56.45828937260031
 33
0.0
 14
-104.3867618643663
 24
-29.91340803720642
 34
0.0
  0
DIMENSION
  5
6A68F
330
2
100
AcDbEntity
  8
DIMH
100
AcDbDimension
  2
*D12
 10
-87.5400792121275
 20
-43.349106713193
 30
0.0
 11
-117.4383214786603
 21
-57.39706419361405
 31
0.0
 70
    33
 71
     5
 42
66.00000000000031
  3
DIM10A
100
AcDbAlignedDimension
 13
-148.6119723051211
 23
-69.02286638385096
 33
0.0
 14
-90.21323336725455
 24
-38.27246328946952
 34
0.0
  0
LINE
  5
6A690
330
2
100
AcDbEntity
  8
MABAT8
100
AcDbLine
 10
-91.42245694337047
 20
-56.99503451448257
 30
0.0
 11
-103.0703369033598
 21
-34.87430006831913
 31
0.0
  0
LINE
  5
6A693
330
2
100
AcDbEntity
  8
MABAT8
100
AcDbLine
 10
-121.0642411012265
 20
-72.60319366087347
 30
0.0
 11
-132.712121061216
 21
-50.48245921471013
 31
0.0
  0
LINE
  5
6A694
330
2
100
AcDbEntity
  8
MABAT8
100
AcDbLine
 10
-127.2580467461521
 20
-75.86460004967157
 30
0.0
 11
-138.9059267061415
 21
-53.74386560350817
 31
0.0
  0
LINE
  5
6A695
330
2
100
AcDbEntity
  8
MABAT8
100
AcDbLine
 10
-130.7973642575381
 20
-77.72826084327042
 30
0.0
 11
-142.4452442175274
 21
-55.60752639710702
 31
0.0
  0
LINE
  5
6A696
330
2
100
AcDbEntity
  8
MABAT8
100
AcDbLine
 10
-133.0094377021542
 20
-78.89304883926972
 30
0.0
 11
-144.6573176621436
 21
-56.77231439310629
 31
0.0
  0
LINE
  5
6A697
330
2
100
AcDbEntity
  8
MABAT
100
AcDbLine
 10
-90.53897192019581
 20
-56.52656622379026
 30
0.0
 11
-102.1855075255218
 21
-34.40838486992393
 31
0.0
  0
LINE
  5
6A698
330
2
100
AcDbEntity
  8
MABAT
100
AcDbLine
 10
-133.8942670800055
 20
-79.35896403767195
 30
0.0
 11
-145.5421470399982
 21
-57.23822959151029
 31
0.0
  0
LWPOLYLINE
  5
6A6E9
330
2
100
AcDbEntity
  8
MABAT2
100
AcDbPolyline
 90
        4
 70
     1
 43
0.0
 10
-146.9758769013261
 20
-86.24394726887569
 10
-76.18952667360924
 20
-48.97073139689853
 10
-75.9565690744094
 20
-49.41314608582175
 10
-146.7429193021263
 20
-86.68636195779891
  0
LWPOLYLINE
  5
6A6EA
330
2
100
AcDbEntity
  8
MABAT2
100
AcDbPolyline
 90
        3
 70
     0
 43
0.0
 10
-146.9758769013261
 20
-86.24394726887569
 10
-147.4417920997259
 20
-85.35911789102923
 10
-134.2318606252515
 20
-78.40330471633952
  0
LINE
  5
6A6EB
330
2
100
AcDbEntity
  8
MABAT2
100
AcDbLine
 10
-76.18952667360924
 20
-48.97073139689855
 30
0.0
 11
-77.10356147973882
 21
-48.32186359669242
 31
0.0
  0
LINE
  5
6A6EC
330
2
100
AcDbEntity
  8
MABAT2
100
AcDbLine
 10
-76.68544355442946
 20
-49.23186107647524
 30
0.0
 11
-77.59947836055903
 21
-48.58299327626919
 31
0.0
  0
SOLID
  5
6A6ED
330
2
100
AcDbEntity
  8
MABAT2
100
AcDbTrace
 10
-77.59947836055903
 20
-48.58299327626918
 30
0.0
 11
-77.10356147973882
 21
-48.32186359669242
 31
0.0
 12
-76.68544355442946
 22
-49.23186107647524
 32
0.0
 13
-76.18952667360924
 23
-48.97073139689854
 33
0.0
  0
SOLID
  5
6A6EE
330
2
100
AcDbEntity
  8
MABAT2
100
AcDbTrace
 10
-76.18952667360924
 20
-48.97073139689854
 30
0.0
 11
-75.9565690744094
 21
-49.41314608582175
 31
0.0
 12
-146.9758769013261
 22
-86.24394726887567
 32
0.0
 13
-146.7429193021263
 23
-86.68636195779891
 33
0.0
  0
LWPOLYLINE
  5
6A6EF
330
2
100
AcDbEntity
  8
MABAT2
100
AcDbPolyline
 90
        2
 70
     0
 43
0.0
 10
-90.87522111077587
 20
-55.57345999475185
 10
-77.10356147973882
 20
-48.32186359669242
  0
TEXT
  5
6A73A
330
2
100
AcDbEntity
  8
TEXT03
100
AcDbText
 10
-179.9958155341788
 20
-57.39878750808196
 30
0.0
 40
1.6
  1

  7
ORON
100
AcDbText
  0
DIMENSION
  5
6A747
330
2
100
AcDbEntity
  8
DIMH
100
AcDbDimension
  2
*D13
 10
-114.6367412806089
 20
-175.6825983785397
 30
0.0
 11
-88.63674128060896
 21
-174.1825983785397
 31
0.0
 70
    32
 71
     5
 42
52.00000000000006
  3
DIM10A
100
AcDbAlignedDimension
 13
-62.63674128060893
 23
-167.6334371158697
 33
0.0
 14
-114.6367412806089
 24
-167.6334371158697
 34
0.0
100
AcDbRotatedDimension
  0
LWPOLYLINE
  5
6A758
330
2
100
AcDbEntity
  8
MABAT3
100
AcDbPolyline
 90
        5
 70
     0
 43
0.0
 10
-232.7267490150479
 20
-147.1970294683749
 10
-232.0393997251126
 20
-148.4166622144809
 10
-240.0560281438661
 20
-152.9345991663237
 10
-240.719417782132
 20
-151.7014634623681
 10
-232.7344247887854
 20
-147.2314183078749
  0
LINE
  5
6A79D
330
2
100
AcDbEntity
  8
MABAT
100
AcDbLine
 10
-64.13674128060904
 20
-103.4856057217906
 30
0.0
 11
-90.34754164788523
 21
-56.97715521830847
 31
0.0
  0
LINE
  5
6A79E
330
2
100
AcDbEntity
  8
MABAT
100
AcDbLine
 10
-64.13674128060904
 20
-167.1334371158697
 30
0.0
 11
-64.13674128060904
 21
-103.4856057217906
 31
0.0
  0
HATCH
  5
6A7AF
330
2
100
AcDbEntity
  8
WOD-HT
370
    50
100
AcDbHatch
 10
0.0
 20
0.0
 30
0.0
210
0.0
220
0.0
230
1.0
  2
ANSI31
 70
     0
 71
     1
 91
        1
 92
        1
 93
        4
 72
     1
 10
-49.66689635731746
 20
-34.72652493803816
 11
-45.31268413297221
 21
-32.2687137358991
 72
     1
 10
-45.31268413297221
 20
-32.2687137358991
 11
-44.08377853190176
 21
-34.44581984807081
 72
     1
 10
-44.08377853190176
 20
-34.44581984807081
 11
-48.43799075624701
 21
-36.90363105021078
 72
     1
 10
-48.43799075624701
 20
-36.90363105021078
 11
-49.66689635731746
 21
-34.72652493803816
 97
        1
330
6A7B0
 75
     0
 76
     1
 52
47.44331491972115
 41
4.0
 77
     0
 78
     1
 53
92.44331491972065
 43
1051.165002802365
 44
-605.7656960153238
 45
-0.4995454435517131
 46
-0.0213154832626978
 79
     0
 98
        1
 10
1051.165002802365
 20
-605.7656960153238
  0
LWPOLYLINE
  5
6A7B0
102
{ACAD_REACTORS
330
6A7AF
102
}
330
2
100
AcDbEntity
  8
MABAT3
370
    50
100
AcDbPolyline
 90
        4
 70
     1
 43
0.0
 10
-49.66689635731746
 20
-34.72652493803816
 10
-45.31268413297221
 20
-32.2687137358991
 10
-44.08377853190176
 20
-34.44581984807081
 10
-48.43799075624701
 20
-36.90363105021078
  0
HATCH
  5
6A7B1
330
2
100
AcDbEntity
  8
HATCH
370
    50
100
AcDbHatch
 10
0.0
 20
0.0
 30
0.0
210
0.0
220
0.0
230
1.0
  2
ANSI31
 70
     0
 71
     1
 91
        1
 92
        1
 93
       36
 72
     2
 10
-81.34093713098605
 20
-49.4692641545816
 40
0.1000000000002685
 50
65.92551571382805
 51
155.925515713828
 73
     0
 72
     1
 10
-81.43223872396902
 20
-49.51005654503405
 11
-82.00333219030699
 21
-48.23183424327925
 72
     2
 10
-80.90771307451609
 20
-47.74232555784688
 40
1.200000000000079
 50
155.9255157136067
 51
245.9255157136056
 73
     0
 72
     1
 10
-81.39722175994847
 20
-46.64670644205598
 11
-44.23747341604803
 21
-30.04420352779852
 72
     2
 10
-44.19668102559535
 20
-30.13550512078172
 40
0.1000000000005689
 50
245.9255157137622
 51
335.9255157137622
 73
     0
 72
     1
 10
-44.10537943261215
 20
-30.09471273032904
 11
-43.08556967129379
 21
-32.37725255489221
 72
     2
 10
-43.17687126427699
 20
-32.41804494534489
 40
0.1000000000005689
 50
335.9255157137622
 51
425.9255157137621
 73
     0
 72
     1
 10
-43.13607887382431
 20
-32.50934653832809
 11
-44.43236322305574
 21
-33.08850989774164
 72
     2
 10
-44.4731556135085
 20
-32.9972083047592
 40
0.0999999999999031
 50
65.92551571353827
 51
143.3967080043873
 73
     0
 72
     1
 10
-44.5534339352157
 20
-33.05683540483841
 11
-45.2823736519681
 21
-32.07543505149278
 72
     2
 10
-45.36265197367529
 20
-32.13506215157199
 40
0.0999999999999031
 50
36.60329199561267
 51
114.0744842864617
 73
     1
 72
     1
 10
-45.40344436412806
 20
-32.04376055858956
 11
-45.91971405116464
 21
-32.27442328816978
 72
     2
 10
-46.00647875012501
 20
-32.32414136349883
 40
0.1000000000005416
 50
330.1863452359784
 51
425.925515713238
 73
     0
 72
     1
 10
-45.96568635967151
 20
-32.41544295648163
 11
-48.52213096318383
 21
-33.55762988915757
 72
     2
 10
-48.56292335363616
 20
-33.46632829617576
 40
0.0999999999991648
 50
65.9255157136168
 51
161.6646861908812
 73
     0
 72
     1
 10
-48.65784653068613
 20
-33.49778605290721
 11
-75.03548983474638
 21
-45.28298157613625
 72
     2
 10
-74.99469744429379
 20
-45.37428316911751
 40
0.0999999999987566
 50
114.0744842866482
 51
179.8467389686894
 73
     1
 72
     1
 10
-75.09469708653568
 20
-45.37401567847537
 11
-75.09728443922949
 21
-46.34128070598507
 72
     2
 10
-75.197284081473
 20
-46.34101321534198
 40
0.1000000000003639
 50
0.1532610318496009
 51
65.92551571389674
 73
     0
 72
     1
 10
-75.15649169102061
 20
-46.43231480832509
 11
-75.67713579675819
 21
-46.66493197254312
 72
     2
 10
-75.71792818721096
 20
-46.57363037955967
 40
0.1000000000008307
 50
65.92551571377573
 51
132.049725963085
 73
     0
 72
     1
 10
-75.78490571882458
 20
-46.64788676150164
 11
-76.50028678024137
 21
-46.00262966166082
 72
     2
 10
-76.56726431185406
 20
-46.0768860436029
 40
0.1000000000002801
 50
47.95027403734614
 51
114.0744842866588
 73
     1
 72
     1
 10
-76.60805670230729
 20
-45.98558445062026
 11
-77.13542647334498
 21
-46.22120655654835
 72
     2
 10
-77.09463408289169
 20
-46.31250814953005
 40
0.0999999999994494
 50
114.0744842869078
 51
179.846738968955
 73
     1
 72
     1
 10
-77.19463372513428
 20
-46.31224065888836
 11
-77.19722107782809
 21
-47.27950568639716
 72
     2
 10
-77.2972207200716
 20
-47.27923819575407
 40
0.1000000000003781
 50
0.1532610318536211
 51
65.92551571389094
 73
     0
 72
     1
 10
-77.25642832961921
 20
-47.37053978873718
 11
-77.77707243535724
 21
-47.60315695295521
 72
     2
 10
-77.81786482580978
 20
-47.51185535997211
 40
0.1000000000004136
 50
65.92551571381164
 51
132.0497259631246
 73
     0
 72
     1
 10
-77.88484235742316
 20
-47.58611174191373
 11
-78.60022341884041
 21
-46.94085464207382
 72
     2
 10
-78.66720095045311
 20
-47.01511102401589
 40
0.1000000000002801
 50
47.95027403734614
 51
114.0744842866588
 73
     1
 72
     1
 10
-78.70799334090634
 20
-46.92380943103326
 11
-79.86762664334719
 21
-47.44191884084575
 72
     2
 10
-79.82683425289481
 20
-47.53322043382886
 40
0.1000000000003693
 50
114.0744842861016
 51
179.8467389681463
 73
     1
 72
     1
 10
-79.92683389513832
 20
-47.53295294318577
 11
-79.93044789019496
 21
-48.88402156109641
 72
     2
 10
-80.03044753243823
 20
-48.88375407045367
 40
0.1000000000001356
 50
0.1532610316504728
 51
65.92551571369644
 73
     0
 72
     1
 10
-79.98965514198562
 20
-48.97505566343642
 11
-81.30014474053359
 21
-49.56056574756457
 97
        1
330
6A7B2
 75
     0
 76
     1
 52
30.07448428640825
 41
0.14
 77
     0
 78
     1
 53
75.07448428640825
 43
-10.2900890965925
 44
-443.964150840876
 45
-0.429503225070971
 46
0.1144868099548363
 79
     0
 98
        1
 10
-10.2900890965925
 20
-443.964150840876
  0
LWPOLYLINE
  5
6A7B2
102
{ACAD_REACTORS
330
6A7B1
102
}
330
2
100
AcDbEntity
  8
CLAY
370
    50
100
AcDbPolyline
 90
       36
 70
     1
 43
0.0
 10
-81.30014474053359
 20
-49.56056574756457
 42
-0.4142135623730906
 10
-81.43223872396902
 20
-49.51005654503405
 10
-82.00333219030699
 20
-48.23183424327925
 42
-0.4142135623730921
 10
-81.39722175994847
 20
-46.64670644205598
 10
-44.23747341604803
 20
-30.04420352779852
 42
-0.4142135623730966
 10
-44.10537943261215
 20
-30.09471273032904
 10
-43.08556967129379
 20
-32.37725255489221
 42
-0.4142135623730906
 10
-43.13607887382431
 20
-32.50934653832809
 10
-44.43236322305574
 20
-33.08850989774164
 42
-0.3515239862758961
 10
-44.5534339352157
 20
-33.05683540483841
 10
-45.2823736519681
 20
-32.07543505149278
 42
0.3515239862758932
 10
-45.40344436412806
 20
-32.04376055858956
 10
-45.91971405116464
 20
-32.27442328816978
 42
-0.443865691193171
 10
-45.96568635967151
 20
-32.41544295648163
 10
-48.52213096318383
 20
-33.55762988915757
 42
-0.4438656911931694
 10
-48.65784653068613
 20
-33.49778605290721
 10
-75.03548983474638
 20
-45.28298157613625
 42
0.2951328942983379
 10
-75.09469708653568
 20
-45.37401567847537
 10
-75.09728443922949
 20
-46.34128070598507
 42
-0.2951328942983392
 10
-75.15649169102061
 20
-46.43231480832509
 10
-75.67713579675819
 20
-46.66493197254312
 42
-0.2968031128494228
 10
-75.78490571882458
 20
-46.64788676150164
 10
-76.50028678024137
 20
-46.00262966166082
 42
0.2968031128494321
 10
-76.60805670230729
 20
-45.98558445062026
 10
-77.13542647334498
 20
-46.22120655654835
 42
0.2951328942983389
 10
-77.19463372513428
 20
-46.31224065888836
 10
-77.19722107782809
 20
-47.27950568639716
 42
-0.2951328942983325
 10
-77.25642832961921
 20
-47.37053978873718
 10
-77.77707243535724
 20
-47.60315695295521
 42
-0.2968031128494286
 10
-77.88484235742316
 20
-47.58611174191373
 10
-78.60022341884041
 20
-46.94085464207382
 42
0.2968031128494321
 10
-78.70799334090634
 20
-46.92380943103326
 10
-79.86762664334719
 20
-47.44191884084575
 42
0.2951328942983365
 10
-79.92683389513832
 20
-47.53295294318577
 10
-79.93044789019496
 20
-48.88402156109641
 42
-0.2951328942983412
 10
-79.98965514198562
 20
-48.97505566343642
  0
LINE
  5
6A820
330
2
100
AcDbEntity
  8
MABAT8
100
AcDbLine
 10
-93.63453038798677
 20
-58.15982251048149
 30
0.0
 11
-105.2824103479761
 21
-36.03908806431805
 31
0.0
  0
LINE
  5
6A821
330
2
100
AcDbEntity
  8
MABAT8
100
AcDbLine
 10
-97.2371862173775
 20
-60.05683468880802
 30
0.0
 11
-108.8850661773668
 21
-37.93610024264458
 31
0.0
  0
LINE
  5
6A822
330
2
100
AcDbEntity
  8
MABAT8
100
AcDbLine
 10
-103.3824443621797
 20
-63.29267793659936
 30
0.0
 11
-115.0303243221691
 21
-41.17194349043592
 31
0.0
  0
LINE
  5
6A823
330
2
100
AcDbEntity
  8
MABAT8
100
AcDbLine
 10
-112.2159473227706
 20
-67.94404167688054
 30
0.0
 11
-123.86382728276
 21
-45.8233072307171
 31
0.0
  0
LWPOLYLINE
  5
6A824
330
2
100
AcDbEntity
  8
MABAT2
100
AcDbPolyline
 90
        4
 70
     1
 43
0.0
 10
-120.7434239508207
 20
-45.31039101336475
 10
-119.8585945729742
 20
-44.84447581496517
 10
-116.1312729857767
 20
-51.92311083773684
 10
-117.0161023636231
 20
-52.38902603613645
  0
LWPOLYLINE
  5
6A825
330
2
100
AcDbEntity
  8
MABAT2
100
AcDbPolyline
 90
        4
 70
     1
 43
0.0
 10
-119.416179884051
 20
-44.61151821576521
 10
-118.5313505062045
 20
-44.14560301736561
 10
-114.804028919007
 20
-51.2242380401373
 10
-115.6888582968534
 20
-51.69015323853691
  0
LWPOLYLINE
  5
6A826
330
2
100
AcDbEntity
  8
MABAT2
100
AcDbPolyline
 90
        4
 70
     1
 43
0.0
 10
-118.0889358172813
 20
-43.91264541816563
 10
-117.2041064394348
 20
-43.44673021976605
 10
-113.4767848522373
 20
-50.5253652425377
 10
-114.3616142300836
 20
-50.99128044093736
  0
LWPOLYLINE
  5
6A827
330
2
100
AcDbEntity
  8
MABAT2
100
AcDbPolyline
 90
        4
 70
     1
 43
0.0
 10
-116.7616917505116
 20
-43.21377262056606
 10
-115.8768623726651
 20
-42.74785742216645
 10
-112.1495407854676
 20
-49.82649244493816
 10
-113.034370163314
 20
-50.29240764333777
  0
LWPOLYLINE
  5
6A828
330
2
100
AcDbEntity
  8
MABAT2
100
AcDbPolyline
 90
        4
 70
     1
 43
0.0
 10
-115.4344476837419
 20
-42.51489982296651
 10
-114.5496183058954
 20
-42.04898462456691
 10
-110.8222967186979
 20
-49.12761964733859
 10
-111.7071260965442
 20
-49.59353484573819
  0
LWPOLYLINE
  5
6A829
330
2
100
AcDbEntity
  8
MABAT2
100
AcDbPolyline
 90
        4
 70
     1
 43
0.0
 10
-114.1072036169723
 20
-41.81602702536685
 10
-113.2223742391258
 20
-41.35011182696725
 10
-109.4950526519282
 20
-48.42874684973894
 10
-110.3798820297746
 20
-48.89466204813855
  0
LWPOLYLINE
  5
6A82A
330
2
100
AcDbEntity
  8
MABAT2
100
AcDbPolyline
 90
        4
 70
     1
 43
0.0
 10
-112.7799595502026
 20
-41.11715422776731
 10
-111.895130172356
 20
-40.65123902936771
 10
-108.1678085851585
 20
-47.72987405213939
 10
-109.0526379630049
 20
-48.195789250539
  0
LWPOLYLINE
  5
6A82B
330
2
100
AcDbEntity
  8
MABAT2
100
AcDbPolyline
 90
        4
 70
     1
 43
0.0
 10
-111.4527154834329
 20
-40.41828143016772
 10
-110.5678861055864
 20
-39.95236623176814
 10
-106.8405645183888
 20
-47.0310012545398
 10
-107.7253938962352
 20
-47.49691645293945
  0
LWPOLYLINE
  5
6A82C
330
2
100
AcDbEntity
  8
MABAT2
100
AcDbPolyline
 90
        4
 70
     1
 43
0.0
 10
-110.1254714166632
 20
-39.71940863256815
 10
-109.2406420388167
 20
-39.25349343416855
 10
-105.5133204516191
 20
-46.33212845694025
 10
-106.3981498294655
 20
-46.79804365533986
  0
LWPOLYLINE
  5
6A82D
330
2
100
AcDbEntity
  8
MABAT2
100
AcDbPolyline
 90
        4
 70
     1
 43
0.0
 10
-108.7982273498935
 20
-39.0205358349686
 10
-107.913397972047
 20
-38.554620636569
 10
-104.1860763848494
 20
-45.63325565934068
 10
-105.0709057626958
 20
-46.09917085774028
  0
LWPOLYLINE
  5
6A82E
330
2
100
AcDbEntity
  8
MABAT2
100
AcDbPolyline
 90
        4
 70
     1
 43
0.0
 10
-107.4709832831238
 20
-38.32166303736901
 10
-106.5861539052773
 20
-37.85574783896943
 10
-102.8588323180797
 20
-44.93438286174109
 10
-103.7436616959261
 20
-45.40029806014074
  0
LWPOLYLINE
  5
6A82F
330
2
100
AcDbEntity
  8
MABAT2
100
AcDbPolyline
 90
        4
 70
     1
 43
0.0
 10
-106.1437392163541
 20
-37.62279023976944
 10
-105.2589098385076
 20
-37.15687504136984
 10
-101.5315882513101
 20
-44.23551006414154
 10
-102.4164176291564
 20
-44.70142526254115
  0
LWPOLYLINE
  5
6A830
330
2
100
AcDbEntity
  8
MABAT2
100
AcDbPolyline
 90
        4
 70
     1
 43
0.0
 10
-104.8164951495844
 20
-36.92391744216989
 10
-103.9316657717379
 20
-36.45800224377029
 10
-100.2043441845403
 20
-43.53663726654197
 10
-101.0891735623867
 20
-44.00255246494157
  0
LINE
  5
6A832
330
2
100
AcDbEntity
  8
MABAT8
100
AcDbLine
 10
-65.13674128060933
 20
-106.9147914059079
 30
0.0
 11
-91.19084369883299
 21
-57.4348961111082
 31
0.0
  0
LINE
  5
6A833
330
2
100
AcDbEntity
  8
MABAT8
100
AcDbLine
 10
-67.63674128060926
 20
-107.5327720091866
 30
0.0
 11
-93.40291714344912
 21
-58.59968410710748
 31
0.0
  0
LINE
  5
6A834
330
2
100
AcDbEntity
  8
MABAT8
100
AcDbLine
 10
-71.63674128060924
 20
-108.6751794944728
 30
0.0
 11
-97.00557297283953
 21
-60.49669628543458
 31
0.0
  0
LINE
  5
6A835
330
2
100
AcDbEntity
  8
MABAT8
100
AcDbLine
 10
-78.63674128060935
 20
-110.287764461461
 30
0.0
 11
-103.1508311176412
 21
-63.7325395332269
 31
0.0
  0
LINE
  5
6A836
330
2
100
AcDbEntity
  8
MABAT8
100
AcDbLine
 10
-88.63674128060946
 20
-109.799210874956
 30
0.0
 11
-112.0858944773079
 21
-68.19102777807064
 31
0.0
  0
LINE
  5
6A837
330
2
100
AcDbEntity
  8
MABAT8
100
AcDbLine
 10
-65.136741280609
 20
-167.1334371158697
 30
0.0
 11
-65.13674128060933
 21
-106.9147914059079
 31
0.0
  0
LINE
  5
6A838
330
2
100
AcDbEntity
  8
MABAT8
100
AcDbLine
 10
-67.63674128060898
 20
-167.1334371158697
 30
0.0
 11
-67.63674128060926
 21
-107.5327720091866
 31
0.0
  0
LINE
  5
6A839
330
2
100
AcDbEntity
  8
MABAT8
100
AcDbLine
 10
-71.636741280609
 20
-167.1334371158697
 30
0.0
 11
-71.63674128060924
 21
-108.6751794944728
 31
0.0
  0
LINE
  5
6A83A
330
2
100
AcDbEntity
  8
MABAT8
100
AcDbLine
 10
-78.63674128060901
 20
-167.1334371158697
 30
0.0
 11
-78.63674128060935
 21
-110.287764461461
 31
0.0
  0
LINE
  5
6A83B
330
2
100
AcDbEntity
  8
MABAT8
100
AcDbLine
 10
-88.63674128060912
 20
-167.1334371158696
 30
0.0
 11
-88.63674128060946
 21
-109.799210874956
 31
0.0
  0
LWPOLYLINE
  5
6A83F
330
2
100
AcDbEntity
  8
MABAT2
100
AcDbPolyline
 90
        4
 70
     1
 43
0.0
 10
-266.6242834908248
 20
-14.03185910384763
 10
-0.0000000000000568
 20
-14.03185910384763
 10
-0.0000000000000568
 20
-215.7554255700995
 10
-266.6242834908248
 20
-215.7554255700995
  0
LWPOLYLINE
  5
6A8C8
102
{ACAD_REACTORS
330
6A8E4
102
}
330
2
100
AcDbEntity
  8
CLAY
370
    50
100
AcDbPolyline
 90
       26
 70
     0
 43
0.0
 10
-44.20446039970949
 20
-28.49989192117535
 10
-49.24345182647766
 20
-30.7512491982372
 42
0.2951328942983389
 10
-49.30265907826697
 20
-30.8422833005763
 10
-49.30524643096077
 20
-31.80954832808602
 42
-0.295132894298338
 10
-49.3644536827519
 20
-31.90058243042603
 10
-49.88509778848947
 20
-32.13319959464406
 42
-0.2968031128494216
 10
-49.99286771055586
 20
-32.11615438360259
 10
-50.70824877197265
 20
-31.47089728376176
 42
0.2968031128494309
 10
-50.81601869403858
 20
-31.4538520727212
 10
-51.34338846507626
 20
-31.68947417864929
 42
0.2951328942983386
 10
-51.40259571686556
 20
-31.7805082809893
 10
-51.40518306955937
 20
-32.74777330849811
 42
-0.2951328942983325
 10
-51.46439032135049
 20
-32.83880741083812
 10
-51.98503442708852
 20
-33.07142457505615
 42
-0.296803112849418
 10
-52.09280434915445
 20
-33.05437936401467
 10
-52.80818541057169
 20
-32.40912226417477
 42
0.2968031128494207
 10
-52.91595533263762
 20
-32.3920770531342
 10
-54.07558863507848
 20
-32.9101864629467
 42
0.2951328942983325
 10
-54.1347958868696
 20
-33.00122056528671
 10
-54.13840988192624
 20
-34.35228918319735
 42
-0.2951328942983382
 10
-54.1976171337169
 20
-34.44332328553737
 10
-55.50810673226488
 20
-35.02883336966552
 42
-0.4142135623730951
 10
-55.6402007157003
 20
-34.97832416713499
 10
-56.21129418203827
 20
-33.7001018653802
 42
-0.4142135623730928
 10
-55.60518375167976
 20
-32.11497406415692
 10
-45.26339698444052
 20
-27.49439527679002
  0
HATCH
  5
6A8E4
330
2
100
AcDbEntity
  8
WOD-HT
100
AcDbHatch
 10
0.0
 20
0.0
 30
0.0
210
0.0
220
0.0
230
1.0
  2
_USER
 70
     0
 71
     1
 91
        1
 92
        7
 72
     1
 73
     1
 93
       21
 10
-44.20446039970949
 20
-28.49989192117535
 42
0.0
 10
-45.26339698444052
 20
-27.49439527679002
 42
0.0
 10
-55.60518375168006
 20
-32.11497406415706
 42
0.414213562373157
 10
-56.21129418203803
 20
-33.70010186538074
 42
0.0
 10
-55.64020071570013
 20
-34.97832416713539
 42
0.4142135623731129
 10
-55.50810673226447
 20
-35.02883336966533
 42
0.0
 10
-54.1976171337167
 20
-34.44332328553729
 42
0.2951328942982763
 10
-54.13840988192624
 20
-34.35228918319716
 42
0.0
 10
-54.13462293126932
 20
-32.93656223561014
 42
0.0
 10
-52.85652258368799
 20
-32.36552325684616
 42
0.0
 10
-52.0928043491541
 20
-33.05437936401498
 42
0.2968031128493361
 10
-51.98503442708813
 20
-33.07142457505598
 42
0.0
 10
-51.46439032134998
 20
-32.8388074108379
 42
0.2951328942982586
 10
-51.40518306955937
 20
-32.74777330849758
 42
0.0
 10
-51.40242276126529
 20
-31.71584995131194
 42
0.0
 10
-50.75658594508889
 20
-31.42729827643313
 42
0.0
 10
-49.99286771055563
 20
-32.11615438360279
 42
0.2968031128496935
 10
-49.88509778848911
 20
-32.1331995946439
 42
0.0
 10
-49.36445368275136
 20
-31.90058243042579
 42
0.2951328942981658
 10
-49.30524643096077
 20
-31.80954832808549
 42
0.0
 10
-49.30248612266669
 20
-30.77762497089983
 42
0.0
 97
        2
330
6A3A3
330
6A8C8
 75
     0
 76
     0
 52
255.0
 41
0.4400000000000001
 77
     0
 78
     1
 53
255.0
 43
0.0
 44
0.0
 45
0.4250073635671901
 46
-0.1138803798451091
 79
     0
 47
0.0162909799813786
 98
        1
 10
-45.71914704464916
 20
-28.7099874846474
  0
HATCH
  5
6AA9E
330
2
100
AcDbEntity
  8
HATCH9
100
AcDbHatch
 10
0.0
 20
0.0
 30
0.0
210
0.0
220
0.0
230
1.0
  2
_USER
 70
     0
 71
     0
 91
        2
 92
        7
 72
     0
 73
     1
 93
        8
 10
-114.636741280609
 20
-147.8436741024277
 10
-200.8061999374071
 20
-147.8436741024277
 10
-200.8061999374072
 20
-166.1334371158698
 10
-120.6367412806091
 20
-166.1334371158698
 10
-120.6367412806091
 20
-165.5744475906378
 10
-120.1367412806091
 20
-165.5744475906379
 10
-120.1367412806091
 20
-166.1334371158698
 10
-114.636741280609
 20
-166.1334371158698
 97
        0
 92
        7
 72
     0
 73
     1
 93
       12
 10
-11.54139881681908
 20
-155.7532941895383
 10
-6.058101520592286
 20
-153.2904453175028
 10
-17.34938508909426
 20
-155.2814032574601
 10
-11.5393314575947
 20
-152.6730313505663
 10
-11.53933145759469
 20
-147.8436741024277
 10
-62.63674128060897
 20
-147.8436741024276
 10
-62.63674128060904
 20
-166.1334371158698
 10
-56.63674128060887
 20
-166.1334371158698
 10
-56.63674128060887
 20
-165.5744475906379
 10
-56.13674128060882
 20
-165.5744475906378
 10
-56.13674128060884
 20
-166.1334371158698
 10
-11.54049837807532
 20
-166.1334371158698
 97
        0
 75
     0
 76
     0
 52
45.0
 41
3.0
 77
     1
 78
     2
 53
45.0
 43
0.0
 44
0.0
 45
-2.121320343559642
 46
2.121320343559642
 79
     0
 53
135.0
 43
0.0
 44
0.0
 45
-2.121320343559642
 46
-2.121320343559642
 79
     0
 47
0.2534421482159072
 98
        2
 10
-181.3596174037285
 20
-158.3452020103045
 10
-49.00720418326534
 20
-158.0917597943462
  0
TEXT
  5
6AB1C
330
2
100
AcDbEntity
  8
TEXT03
100
AcDbText
 10
-109.3822415944091
 20
-184.3308969125925
 30
0.0
 40
1.6
  1
  
  7
ORON
100
AcDbText
  0
LEADER
  5
6AB1D
330
2
100
AcDbEntity
  8
TEXT03
100
AcDbLeader
  3
LEADER-10
 40
15.0
 76
     3
 10
-75.62981612155363
 20
-171.6334371158696
 30
0.0
 10
-82.69872355241977
 20
-184.8891612142418
 30
0.0
 10
-109.9602865569797
 20
-184.8891612142418
 30
0.0
213
4.697365185055105
223
0.0
233
0.0
  0
TEXT
  5
6AB1E
330
2
100
AcDbEntity
  8
TEXT03
100
AcDbText
 10
-133.3704497564546
 20
-189.8069624343113
 30
0.0
 40
1.6
  1
      
  7
ORON
100
AcDbText
  0
TEXT
  5
6AB1F
330
2
100
AcDbEntity
  8
TEXT03
100
AcDbText
 10
-95.86981500191802
 20
-187.1325593018434
 30
0.0
 40
1.6
  1
" 46X46
  7
ORON
100
AcDbText
  0
TEXT
  5
6AB20
330
2
100
AcDbEntity
  8
TEXT03
100
AcDbText
 10
-128.4814259525913
 20
-194.8069624343113
 30
0.0
 40
1.6
  1
     
  7
ORON
100
AcDbText
  0
TEXT
  5
6AB21
330
2
100
AcDbEntity
  8
TEXT03
100
AcDbText
 10
-116.4816548168755
 20
-197.3069624343113
 30
0.0
 40
1.6
  1
"-"   
  7
ORON
100
AcDbText
  0
TEXT
  5
6AB22
330
2
100
AcDbEntity
  8
TEXT03
100
AcDbText
 10
-117.6165606788526
 20
-192.3069624343113
 30
0.0
 40
1.6
  1
.    
  7
ORON
100
AcDbText
  0
VIEWPORT
  5
1494
330
1493
100
AcDbEntity
 67
     1
  8
0
100
AcDbViewport
 10
7563.297887047443
 20
1007.372414954556
 30
0.0
 40
1842.802600321187
 41
1214.064101430124
 68
     1
 69
     1
 12
7563.297887047443
 22
1007.372414954556
 13
0.0
 23
0.0
 14
1.0
 24
1.0
 15
0.0
 25
0.0
 16
0.0
 26
0.0
 36
1.0
 17
0.0
 27
0.0
 37
0.0
 42
50.0
 43
0.0
 44
0.0
 45
1214.064101430124
 50
0.0
 51
0.0
 72
   100
 90
    32800
  1

281
     0
 71
     1
 74
     0
110
0.0
120
0.0
130
0.0
111
1.0
121
0.0
131
0.0
112
0.0
122
1.0
132
0.0
 79
     0
146
0.0
  0
LWPOLYLINE
  5
4CBFB
330
1493
100
AcDbEntity
 67
     1
  8
f2
100
AcDbPolyline
 90
        4
 70
     1
 43
0.0
 10
7109.861697547059
 20
1302.571988947794
 10
8016.738582299842
 20
1302.571988947794
 10
8016.738484699841
 20
712.177600947688
 10
7109.861599947059
 20
712.177600947688
  0
LWPOLYLINE
  5
4CBFC
330
1493
100
AcDbEntity
 67
     1
  8
f2
100
AcDbPolyline
 90
        4
 70
     1
 43
0.0
 10
7104.861697547059
 20
1307.571988947794
 10
8021.738582299841
 20
1307.571988947794
 10
8021.738484699842
 20
707.177600947688
 10
7104.86159994706
 20
707.177600947688
  0
VIEWPORT
  5
4CC11
330
1493
100
AcDbEntity
 67
     1
  8
fr9
100
AcDbViewport
 10
7515.984006924854
 20
1004.457358282563
 30
0.0
 40
797.6483674967385
 41
560.5714451991173
 68
     2
 69
     2
 12
992.6047980877482
 22
-188.7333022934842
 13
0.0
 23
0.0
 14
1.0
 24
1.0
 15
0.0
 25
0.0
 16
0.0
 26
0.0
 36
1.0
 17
0.0
 27
0.0
 37
0.0
 42
50.0
 43
0.0
 44
0.0
 45
560.5714466855928
 50
0.0
 51
0.0
 72
   100
 90
    33312
  1

281
     0
 71
     1
 74
     0
110
0.0
120
0.0
130
0.0
111
1.0
121
0.0
131
0.0
112
0.0
122
1.0
132
0.0
 79
     0
146
0.0
  0
TEXT
  5
53944
330
1493
100
AcDbEntity
 67
     1
  8
remtxt
100
AcDbText
 10
8007.344325539122
 20
1073.76185885723
 30
0.0
 40
2.5
  1
1
  7
ORON
 72
     1
 11
8007.641944586742
 21
1075.01185885723
 31
0.0
100
AcDbText
 73
     2
  0
TEXT
  5
53945
330
1493
100
AcDbEntity
 67
     1
  8
remtxt
100
AcDbText
 10
7974.313533235947
 20
1074.260531210475
 30
0.0
 40
2.5
  1
 
 41
0.8
  7
ORON
 72
     2
 11
7990.694485616899
 21
1075.510531210475
 31
0.0
100
AcDbText
 73
     2
  0
TEXT
  5
53946
330
1493
100
AcDbEntity
 67
     1
  8
remtxt
100
AcDbText
 10
7918.419218225832
 20
1074.31916125911
 30
0.0
 40
2.5
  1
19.09.12
  7
ORON
 72
     1
 11
7925.919218225832
 21
1075.56916125911
 31
0.0
100
AcDbText
 73
     2
  0
INSERT
  5
57071
330
1493
100
AcDbEntity
 67
     1
  8
DIMVT
100
AcDbBlockReference
 66
     1
  2
arbilitaba1
 10
8016.738484699841
 20
712.177600947688
 30
0.0
  0
ATTRIB
  5
57072
330
57071
100
AcDbEntity
 67
     1
  8
TEXT03
100
AcDbText
 10
7922.540924116012
 20
845.6021370487858
 30
0.0
 40
3.0
  1
23.09.12
  7
ROMANS
 72
     2
 11
7942.112352687439
 21
845.6021370487858
 31
0.0
100
AcDbAttribute
  2
1DATE
 70
     0
  0
ATTRIB
  5
57073
330
57071
100
AcDbEntity
 67
     1
  8
TEXT04
100
AcDbText
 10
7972.416708053879
 20
845.2260390495348
 30
0.0
 40
4.5
  1
1:50
  7
ROMANS
 72
     2
 11
7986.773850911022
 21
845.2260390495348
 31
0.0
100
AcDbAttribute
  2
SCALE
 70
     0
  0
ATTRIB
  5
57074
330
57071
100
AcDbEntity
 67
     1
  8
TEXT03
100
AcDbText
 10
7950.738484699842
 20
831.1776009476879
 30
0.0
 40
2.0
  1

  7
ORON
 72
     2
 11
7950.738484699842
 21
831.1776009476879
 31
0.0
100
AcDbAttribute
  2
NAME
 70
     0
  0
ATTRIB
  5
57075
330
57071
100
AcDbEntity
 67
     1
  8
TEXT03
100
AcDbText
 10
8000.738484699843
 20
831.1776009476879
 30
0.0
 40
2.0
  1

  7
ORON
 72
     2
 11
8000.738484699843
 21
831.1776009476879
 31
0.0
100
AcDbAttribute
  2
NAME
 70
     0
  0
ATTRIB
  5
57076
330
57071
100
AcDbEntity
 67
     1
  8
T3
100
AcDbText
 10
7918.738484699841
 20
727.177600947688
 30
0.0
 40
3.0
  1
AOONER-PRATIM.DWG
  7
ORON
 11
7918.738484699841
 21
728.677600947688
 31
0.0
100
AcDbAttribute
  2
FILE
 70
     0
 74
     2
  0
ATTRIB
  5
57077
330
57071
100
AcDbEntity
 67
     1
  8
TEXT04
100
AcDbText
 10
7983.35753231889
 20
931.2415247277813
 30
0.0
 40
4.0
  1
 
  7
ORON
 72
     1
 11
7997.738484699842
 21
933.2415247277813
 31
0.0
100
AcDbAttribute
  2
LOCATION
 70
     0
 74
     2
  0
ATTRIB
  5
57078
330
57071
100
AcDbEntity
 67
     1
  8
TEXT04
100
AcDbText
 10
7925.548008509365
 20
931.2415247277813
 30
0.0
 40
4.0
  1
  
  7
ORON
 72
     1
 11
7947.738484699842
 21
933.2415247277813
 31
0.0
100
AcDbAttribute
  2
PROJNAME
 70
     0
 74
     2
  0
ATTRIB
  5
57079
330
57071
100
AcDbEntity
 67
     1
  8
TEXT04
100
AcDbText
 10
7951.184977147988
 20
882.5826312846736
 30
0.0
 40
5.5
  1
 
  7
ORON
 72
     1
 11
7967.554024767036
 21
885.3326312846736
 31
0.0
100
AcDbAttribute
  2
PLANNAME1
 70
     0
 74
     2
  0
ATTRIB
  5
5707A
330
57071
100
AcDbEntity
 67
     1
  8
TEXT04
100
AcDbText
 10
7966.738484699842
 20
878.4495499979581
 30
0.0
 40
4.0
  1

  7
ORON
 72
     1
 11
7966.738484699842
 21
880.449549997958
 31
0.0
100
AcDbAttribute
  2
PLANNAME2
 70
     0
 74
     2
  0
ATTRIB
  5
5707B
330
57071
100
AcDbEntity
 67
     1
  8
T3
100
AcDbText
 10
7918.738484699841
 20
716.177600947688
 30
0.0
 40
3.0
  1
12.12.12
  7
ORON
 11
7918.738484699841
 21
717.6776009476879
 31
0.0
100
AcDbAttribute
  2
LASTDATE
 70
     0
 74
     2
  0
ATTRIB
  5
5707C
330
57071
100
AcDbEntity
 67
     1
  8
TEXT04
100
AcDbText
 10
7942.196530959684
 20
904.1432434218238
 30
0.0
 40
5.5
  1
05
  7
TOV
 72
     1
 11
7947.738484699842
 21
906.8932434218238
 31
0.0
100
AcDbAttribute
  2
SHEETNO
 70
     0
 74
     2
  0
SEQEND
  5
5707D
330
57071
100
AcDbEntity
 67
     1
  8
DIMVT
  0
INSERT
  5
64014
330
1493
100
AcDbEntity
 67
     1
  8
0
100
AcDbBlockReference
  2
status
 10
8016.738484699841
 20
745.177600947688
 30
0.0
  0
TEXT
  5
66999
330
1493
100
AcDbEntity
 67
     1
  8
remtxt
100
AcDbText
 10
8007.071817992729
 20
1079.927600947688
 30
0.0
 40
2.5
  1
2
 41
0.8
  7
ORON
 72
     1
 11
8007.738484659396
 21
1081.177600947688
 31
0.0
100
AcDbText
 73
     2
  0
TEXT
  5
6699A
330
1493
100
AcDbEntity
 67
     1
  8
remtxt
100
AcDbText
 10
7977.091126418263
 20
1080.46145437586
 30
0.0
 40
2.0
  1
 
 41
0.8
  7
ORON
 72
     2
 11
7990.195888323025
 21
1081.46145437586
 31
0.0
100
AcDbText
 73
     2
  0
TEXT
  5
6699D
330
1493
100
AcDbEntity
 67
     1
  8
remtxt
100
AcDbText
 10
7918.238484659397
 20
1079.927600947688
 30
0.0
 40
2.5
  1
07.10.12
  7
ORON
 72
     1
 11
7925.738484659397
 21
1081.177600947688
 31
0.0
100
AcDbText
 73
     2
  0
TEXT
  5
671B7
330
1493
100
AcDbEntity
 67
     1
  8
remtxt
100
AcDbText
 10
8007.071880521573
 20
1085.927600947688
 30
0.0
 40
2.5
  1
3
 41
0.8
  7
ORON
 72
     1
 11
8007.738547188239
 21
1087.177600947688
 31
0.0
100
AcDbText
 73
     2
  0
TEXT
  5
671B8
330
1493
100
AcDbEntity
 67
     1
  8
remtxt
100
AcDbText
 10
7977.091188947105
 20
1086.46145437586
 30
0.0
 40
2.0
  1
 
 41
0.8
  7
ORON
 72
     2
 11
7990.195950851867
 21
1087.46145437586
 31
0.0
100
AcDbText
 73
     2
  0
TEXT
  5
671B9
330
1493
100
AcDbEntity
 67
     1
  8
remtxt
100
AcDbText
 10
7918.476642426336
 20
1085.927600947688
 30
0.0
 40
2.5
  1
12.12.12
  7
ORON
 72
     1
 11
7925.73854718824
 21
1087.177600947688
 31
0.0
100
AcDbText
 73
     2
  0
ENDSEC
  0
SECTION
  2
OBJECTS
  0
DICTIONARY
  5
7
330
0
100
AcDbDictionary
281
     1
  3
ACAD_GROUP
350
BC34
  3
ACAD_IMAGE_DICT
350
67714
  3
ACAD_IMAGE_VARS
350
36287
  3
ACAD_LAYOUT
350
1492
  3
ACAD_MLINESTYLE
350
BC35
  3
ACAD_PLOTSETTINGS
350
BC36
  3
ACAD_PLOTSTYLENAME
350
6
  3
AcDbVariableDictionary
350
BD41
  3
ASE_INDEX_DICTIONARY
350
6A444
  3
DWGPROPS
350
63ECE
  0
DICTIONARY
  5
24B7
330
24B6
100
AcDbDictionary
280
     1
281
     1
  0
DICTIONARY
  5
148D
330
2
100
AcDbDictionary
280
     1
281
     1
  3
ACAD_SORTENTS
360
148E
  0
IMAGEDEF_REACTOR
  5
67D32
330
67D31
100
AcDbRasterImageDefReactor
 90
        2
330
67D31
  0
DICTIONARY
  5
BC34
102
{ACAD_REACTORS
330
7
102
}
330
7
100
AcDbDictionary
281
     1
  0
DICTIONARY
  5
67714
102
{ACAD_REACTORS
330
7
102
}
330
7
100
AcDbDictionary
281
     1
  3
LOGO-BLACK
350
67715
  0
RASTERVARIABLES
  5
36287
102
{ACAD_REACTORS
330
7
102
}
330
7
100
AcDbRasterVariables
 90
        0
 70
     1
 71
     1
 72
     0
  0
DICTIONARY
  5
1492
102
{ACAD_REACTORS
330
7
102
}
330
7
100
AcDbDictionary
281
     1
  3
Model
350
1491
  3
PRATIM
350
24B5
  0
DICTIONARY
  5
BC35
102
{ACAD_REACTORS
330
7
102
}
330
7
100
AcDbDictionary
281
     1
  3
Standard
350
BC37
  0
DICTIONARY
  5
BC36
102
{ACAD_REACTORS
330
7
102
}
330
7
100
AcDbDictionary
281
     1
  3
PDF
350
49983
  0
ACDBDICTIONARYWDFLT
  5
6
102
{ACAD_REACTORS
330
7
102
}
330
7
100
AcDbDictionary
281
     1
  3
Normal
350
5
  3
Style 2
350
178DF
  3
Style 3
350
5C5A7
  3
Style 4
350
178E1
  3
Style 8
350
50400
  3
Style 9
350
50401
  3
Style_1
350
52D1B
100
AcDbDictionaryWithDefault
340
5
  0
DICTIONARY
  5
BD41
102
{ACAD_REACTORS
330
7
102
}
330
7
100
AcDbDictionary
281
     1
  3
SORTENTS
350
BD42
  0
DICTIONARY
  5
6A444
102
{ACAD_REACTORS
330
7
102
}
330
7
100
AcDbDictionary
281
     1
  3
ASEBlockHierarchyIndexRecord
350
6A445
1001
DCO15
1040
1784553744.109
  0
XRECORD
  5
63ECE
102
{ACAD_REACTORS
330
7
102
}
330
7
100
AcDbXrecord
280
     1
  1
DWGPROPS COOKIE
  2

  3

  4

  6

  7

  8
User
  9

300
=
301
=
302
=
303
=
304
=
305
=
306
=
307
=
308
=
309
=
 40
9.273921805555556
 41
2452912.915183912
 42
2455582.448934815
  1

 90
        0
  0
SORTENTSTABLE
  5
148E
102
{ACAD_REACTORS
330
148D
102
}
330
148D
100
AcDbSortentsTable
330
2
331
150B1
  5
279A0
331
1F
  5
27946
331
145BD
  5
27980
331
14593
  5
2795E
331
20
  5
27947
331
92A
  5
2794C
331
150DB
  5
36792
331
1458A
  5
2795B
331
1506C
  5
27982
331
21
  5
27948
331
3
  5
276FC
331
150D2
  5
3678F
331
150BC
  5
2CCE2
331
2BC60
  5
36799
331
150A8
  5
27998
331
145B4
  5
27976
331
150C6
  5
35BD8
331
332B4
  5
3679B
331
14581
  5
27958
331
145A1
  5
27963
331
150C9
  5
3678C
331
1509F
  5
27993
331
145AB
  5
2796C
331
E
  5
276FD
331
14EBB
  5
27981
331
145A2
  5
27966
331
1454E
  5
27952
331
150B4
  5
279A1
331
14596
  5
2795F
331
F
  5
276FE
331
2CD
  5
2794B
331
1439D
  5
27951
331
14599
  5
27960
331
1458D
  5
2795C
331
150D5
  5
36790
331
150BF
  5
2F8AE
331
10
  5
276FF
331
150AB
  5
2799C
331
145B7
  5
27977
331
2DCD5
  5
3679A
331
1A
  5
27944
331
14584
  5
27959
331
150CC
  5
3678D
331
145AE
  5
27972
331
150A2
  5
27994
331
150C0
  5
3399A
331
124E1
  5
27950
331
11
  5
27700
331
196AC
  5
36796
331
1459B
  5
27961
331
2B62A
  5
36797
331
185B1
  5
36794
331
15099
  5
27990
331
145A5
  5
27968
331
150B7
  5
279A3
331
1457B
  5
27953
331
12
  5
27701
331
145BA
  5
2797F
331
14590
  5
2795D
331
150D8
  5
36791
331
150AE
  5
2799D
331
13
  5
27705
331
14587
  5
2795A
331
1D
  5
27945
331
150CF
  5
3678E
331
150B9
  5
2B9AA
331
150A5
  5
27996
331
145B1
  5
27973
331
150C3
  5
339A4
331
14
  5
27942
331
1459E
  5
27962
331
145A8
  5
27969
331
1509C
  5
27991
331
195DE
  5
36795
331
1457E
  5
27954
331
332C4
  5
3679C
331
15
  5
27943
331
16D04
  5
36793
  0
IMAGEDEF
  5
67715
102
{ACAD_REACTORS
330
67714
330
67D32
330
6AA80
102
}
330
67714
100
AcDbRasterImageDef
 90
        0
  1
F:\ARCHITECT\TERMO-VENT\LOGO-BLACK.jpg
 10
328.0
 20
336.0
 11
0.0030487804878049
 21
0.0030487804878049
280
     1
281
     0
  0
LAYOUT
  5
1491
102
{ACAD_REACTORS
330
1492
102
}
330
1492
100
AcDbPlotSettings
  1

  2
Bullzip PDF Printer
  4
A4
  6
OLE1
 40
3.174999952316284
 41
3.174999952316284
 42
3.175003051757812
 43
3.17498779296875
 44
209.8886566162109
 45
297.0530090332031
 46
0.0
 47
0.0
 48
-266.6242834908248
 49
-215.7554255700995
140
-0.0000000000000568
141
-14.03185910384763
142
1.0
143
1.0
 70
 11936
 72
     1
 73
     1
 74
     4
  7
CAN50.ctb
 75
     0
147
1.0
148
266.6242834908248
149
215.7554255700995
100
AcDbLayout
  1
Model
 70
     1
 71
     0
 10
0.0
 20
0.0
 11
12.0
 21
9.0
 12
0.0
 22
0.0
 32
0.0
 14
0.0
 24
0.0
 34
0.0
 15
0.0
 25
0.0
 35
0.0
146
0.0
 13
0.0
 23
0.0
 33
0.0
 16
1.0
 26
0.0
 36
0.0
 17
0.0
 27
1.0
 37
0.0
 76
     0
330
2
  0
LAYOUT
  5
24B5
102
{ACAD_REACTORS
330
1492
102
}
330
1492
100
AcDbPlotSettings
  1

  2
DesignJet 750C Plus C4709B.pc3
  4
UserDefinedMetric (700.00 x 1000.00MM)
  6

 40
0.0
 41
0.0
 42
0.0
 43
0.0
 44
700.0
 45
1000.0
 46
0.0
 47
0.0
 48
7092.874656757508
 49
701.6136598874909
140
8036.712680214771
141
1316.121476489445
142
1.0
143
1.0
 70
   690
 72
     1
 73
     1
 74
     4
  7
CAN50.ctb
 75
    16
147
1.0
148
-7092.874656757508
149
-701.6136598874909
100
AcDbLayout
  1
PRATIM
 70
     1
 71
     1
 10
7092.874656757508
 20
701.6136598874909
 11
8092.874656757507
 21
1401.613659887491
 12
0.0
 22
0.0
 32
0.0
 14
7104.86159994706
 24
707.177600947688
 34
0.0
 15
8021.738582299841
 25
1307.571988947794
 35
0.0
146
0.0
 13
0.0
 23
0.0
 33
0.0
 16
1.0
 26
0.0
 36
0.0
 17
0.0
 27
1.0
 37
0.0
 76
     0
330
1493
331
1494
  0
MLINESTYLE
  5
BC37
102
{ACAD_REACTORS
330
BC35
102
}
330
BC35
100
AcDbMlineStyle
  2
STANDARD
 70
     0
  3

 62
   256
 51
90.0
 52
90.0
 71
     2
 49
0.5
 62
   256
  6
BYLAYER
 49
-0.5
 62
   256
  6
BYLAYER
  0
PLOTSETTINGS
  5
49983
102
{ACAD_REACTORS
330
BC36
102
}
330
BC36
100
AcDbPlotSettings
  1
PDF
  2
Bullzip PDF Printer
  4
User32767
  6

 40
3.174999952316284
 41
3.174999952316284
 42
3.175048828125
 43
3.17498779296875
 44
1994.619628906249
 45
894.5880126953126
 46
0.0
 47
0.0
 48
5026.63258982022
 49
569.915490985381
140
6817.209290809214
141
1219.915490985381
142
1.0
143
1.0
 70
   690
 72
     1
 73
     0
 74
     4
  7
can100-cl.ctb
 75
    16
147
1.0
148
-5026.63258982022
149
-569.915490985381
  0
ACDBPLACEHOLDER
  5
5
102
{ACAD_REACTORS
330
6
102
}
330
6
  0
ACDBPLACEHOLDER
  5
178DF
102
{ACAD_REACTORS
330
6
102
}
330
6
  0
ACDBPLACEHOLDER
  5
5C5A7
102
{ACAD_REACTORS
330
6
102
}
330
6
  0
ACDBPLACEHOLDER
  5
178E1
102
{ACAD_REACTORS
330
6
102
}
330
6
  0
ACDBPLACEHOLDER
  5
50400
102
{ACAD_REACTORS
330
6
102
}
330
6
  0
ACDBPLACEHOLDER
  5
50401
102
{ACAD_REACTORS
330
6
102
}
330
6
  0
ACDBPLACEHOLDER
  5
52D1B
102
{ACAD_REACTORS
330
6
102
}
330
6
  0
DICTIONARYVAR
  5
BD42
102
{ACAD_REACTORS
330
BD41
102
}
330
BD41
100
DictionaryVariables
280
     0
  1
127
  0
XRECORD
  5
6A445
102
{ACAD_REACTORS
330
6A444
102
}
330
6A444
100
AcDbXrecord
280
     1
330
3
330
E
330
F
330
10
330
11
330
12
330
13
330
14
330
15
330
1439D
330
1454E
330
1457B
330
1457E
330
14581
330
14584
330
14587
330
1458A
330
1458D
330
14590
330
14593
330
14596
330
14599
330
1459B
330
1459E
330
145A2
330
145A5
330
145A8
330
145AB
330
145AE
330
145B1
330
145B4
330
145B7
330
145BA
330
145BD
330
14EBB
330
1506C
330
15099
330
1509C
330
1509F
330
150A2
330
150A5
330
150A8
330
150AB
330
150AE
330
150B1
330
150B4
330
150B7
330
150B9
330
150BC
330
150C0
330
150C3
330
150C6
330
150C9
330
150CC
330
150CF
330
150D2
330
150D5
330
150D8
330
150DB
330
67D39
330
0
330
57071
330
64014
330
0
330
0
330
0
330
0
330
0
330
0
330
0
330
0
330
0
330
0
330
0
330
0
330
0
330
0
330
0
330
0
330
0
330
0
330
0
330
0
330
0
330
0
330
0
330
0
330
0
330
0
330
0
330
0
330
0
330
0
330
0
330
0
  0
ENDSEC
  0
EOF
